  0
SECTION
  2
HEADER
  9
$ACADVER
  1
AC1015
  9
$ACADMAINTVER
 70
    20
  9
$DWGCODEPAGE
  3
ANSI_932
  9
$INSBASE
 10
0.0
 20
0.0
 30
0.0
  9
$EXTMIN
 10
1263.735527673545
 20
464.4474134294478
 30
-0.0000000349181948
  9
$EXTMAX
 10
2087.897014986799
 20
1040.541293474163
 30
0.0000000814935746
  9
$LIMMIN
 10
0.0
 20
0.0
  9
$LIMMAX
 10
420.0
 20
297.0
  9
$ORTHOMODE
 70
     0
  9
$REGENMODE
 70
     1
  9
$FILLMODE
 70
     1
  9
$QTEXTMODE
 70
     0
  9
$MIRRTEXT
 70
     1
  9
$LTSCALE
 40
1.0
  9
$ATTMODE
 70
     1
  9
$TEXTSIZE
 40
5.0
  9
$TRACEWID
 40
0.05
  9
$TEXTSTYLE
  7
ACAD
  9
$CLAYER
  8
0
  9
$CELTYPE
  6
CONTINUOUS
  9
$CECOLOR
 62
   256
  9
$CELTSCALE
 40
1.0
  9
$DISPSILH
 70
     0
  9
$DIMSCALE
 40
1.0
  9
$DIMASZ
 40
1.0
  9
$DIMEXO
 40
0.0
  9
$DIMDLI
 40
0.38
  9
$DIMRND
 40
0.0
  9
$DIMDLE
 40
0.0
  9
$DIMEXE
 40
0.0
  9
$DIMTP
 40
0.0
  9
$DIMTM
 40
0.0
  9
$DIMTXT
 40
5.0
  9
$DIMCEN
 40
0.09
  9
$DIMTSZ
 40
0.0
  9
$DIMTOL
 70
     0
  9
$DIMLIM
 70
     0
  9
$DIMTIH
 70
     0
  9
$DIMTOH
 70
     1
  9
$DIMSE1
 70
     0
  9
$DIMSE2
 70
     0
  9
$DIMTAD
 70
     1
  9
$DIMZIN
 70
     0
  9
$DIMBLK
  1
Dot
  9
$DIMASO
 70
     1
  9
$DIMSHO
 70
     1
  9
$DIMPOST
  1

  9
$DIMAPOST
  1

  9
$DIMALT
 70
     0
  9
$DIMALTD
 70
     2
  9
$DIMALTF
 40
25.4
  9
$DIMLFAC
 40
1.0
  9
$DIMTOFL
 70
     0
  9
$DIMTVP
 40
0.0
  9
$DIMTIX
 70
     1
  9
$DIMSOXD
 70
     0
  9
$DIMSAH
 70
     0
  9
$DIMBLK1
  1

  9
$DIMBLK2
  1

  9
$DIMSTYLE
  2
AutoCAD
  9
$DIMCLRD
 70
     4
  9
$DIMCLRE
 70
     4
  9
$DIMCLRT
 70
     3
  9
$DIMTFAC
 40
1.0
  9
$DIMGAP
 40
1.0
  9
$DIMJUST
 70
     0
  9
$DIMSD1
 70
     0
  9
$DIMSD2
 70
     0
  9
$DIMTOLJ
 70
     1
  9
$DIMTZIN
 70
     0
  9
$DIMALTZ
 70
     0
  9
$DIMALTTZ
 70
     0
  9
$DIMUPT
 70
     0
  9
$DIMDEC
 70
     0
  9
$DIMTDEC
 70
     0
  9
$DIMALTU
 70
     2
  9
$DIMALTTD
 70
     2
  9
$DIMTXSTY
  7
ACAD
  9
$DIMAUNIT
 70
     0
  9
$DIMADEC
 70
     0
  9
$DIMALTRND
 40
0.0
  9
$DIMAZIN
 70
     0
  9
$DIMDSEP
 70
    46
  9
$DIMATFIT
 70
     0
  9
$DIMFRAC
 70
     0
  9
$DIMLDRBLK
  1
None
  9
$DIMLUNIT
 70
     2
  9
$DIMLWD
 70
    -2
  9
$DIMLWE
 70
    -2
  9
$DIMTMOVE
 70
     0
  9
$LUNITS
 70
     2
  9
$LUPREC
 70
     4
  9
$SKETCHINC
 40
0.1
  9
$FILLETRAD
 40
0.0
  9
$AUNITS
 70
     0
  9
$AUPREC
 70
     0
  9
$MENU
  1
.
  9
$ELEVATION
 40
0.0
  9
$PELEVATION
 40
0.0
  9
$THICKNESS
 40
0.0
  9
$LIMCHECK
 70
     0
  9
$CHAMFERA
 40
0.0
  9
$CHAMFERB
 40
0.0
  9
$CHAMFERC
 40
0.0
  9
$CHAMFERD
 40
0.0
  9
$SKPOLY
 70
     0
  9
$TDCREATE
 40
2454316.693457674
  9
$TDUCREATE
 40
2454316.318457674
  9
$TDUPDATE
 40
2454736.760333738
  9
$TDUUPDATE
 40
2454736.385333738
  9
$TDINDWG
 40
0.2505692477
  9
$TDUSRTIMER
 40
0.2505692477
  9
$USRTIMER
 70
     1
  9
$ANGBASE
 50
0.0
  9
$ANGDIR
 70
     0
  9
$PDMODE
 70
     0
  9
$PDSIZE
 40
0.0
  9
$PLINEWID
 40
0.0
  9
$SPLFRAME
 70
     0
  9
$SPLINETYPE
 70
     6
  9
$SPLINESEGS
 70
     8
  9
$HANDSEED
  5
7415
  9
$SURFTAB1
 70
     6
  9
$SURFTAB2
 70
     6
  9
$SURFTYPE
 70
     6
  9
$SURFU
 70
     6
  9
$SURFV
 70
     6
  9
$UCSBASE
  2

  9
$UCSNAME
  2

  9
$UCSORG
 10
0.0
 20
0.0
 30
0.0
  9
$UCSXDIR
 10
1.0
 20
0.0
 30
0.0
  9
$UCSYDIR
 10
0.0
 20
1.0
 30
0.0
  9
$UCSORTHOREF
  2

  9
$UCSORTHOVIEW
 70
     0
  9
$UCSORGTOP
 10
0.0
 20
0.0
 30
0.0
  9
$UCSORGBOTTOM
 10
0.0
 20
0.0
 30
0.0
  9
$UCSORGLEFT
 10
0.0
 20
0.0
 30
0.0
  9
$UCSORGRIGHT
 10
0.0
 20
0.0
 30
0.0
  9
$UCSORGFRONT
 10
0.0
 20
0.0
 30
0.0
  9
$UCSORGBACK
 10
0.0
 20
0.0
 30
0.0
  9
$PUCSBASE
  2

  9
$PUCSNAME
  2

  9
$PUCSORG
 10
0.0
 20
0.0
 30
0.0
  9
$PUCSXDIR
 10
1.0
 20
0.0
 30
0.0
  9
$PUCSYDIR
 10
0.0
 20
1.0
 30
0.0
  9
$PUCSORTHOREF
  2

  9
$PUCSORTHOVIEW
 70
     0
  9
$PUCSORGTOP
 10
0.0
 20
0.0
 30
0.0
  9
$PUCSORGBOTTOM
 10
0.0
 20
0.0
 30
0.0
  9
$PUCSORGLEFT
 10
0.0
 20
0.0
 30
0.0
  9
$PUCSORGRIGHT
 10
0.0
 20
0.0
 30
0.0
  9
$PUCSORGFRONT
 10
0.0
 20
0.0
 30
0.0
  9
$PUCSORGBACK
 10
0.0
 20
0.0
 30
0.0
  9
$USERI1
 70
     0
  9
$USERI2
 70
     0
  9
$USERI3
 70
     0
  9
$USERI4
 70
     0
  9
$USERI5
 70
     0
  9
$USERR1
 40
0.0
  9
$USERR2
 40
0.0
  9
$USERR3
 40
0.0
  9
$USERR4
 40
0.0
  9
$USERR5
 40
0.0
  9
$WORLDVIEW
 70
     1
  9
$SHADEDGE
 70
     3
  9
$SHADEDIF
 70
    70
  9
$TILEMODE
 70
     1
  9
$MAXACTVP
 70
    48
  9
$PINSBASE
 10
0.0
 20
0.0
 30
0.0
  9
$PLIMCHECK
 70
     0
  9
$PEXTMIN
 10
1.000000000000000E+20
 20
1.000000000000000E+20
 30
1.000000000000000E+20
  9
$PEXTMAX
 10
-1.000000000000000E+20
 20
-1.000000000000000E+20
 30
-1.000000000000000E+20
  9
$PLIMMIN
 10
0.0
 20
0.0
  9
$PLIMMAX
 10
12.0
 20
9.0
  9
$UNITMODE
 70
     0
  9
$VISRETAIN
 70
     0
  9
$PLINEGEN
 70
     0
  9
$PSLTSCALE
 70
     1
  9
$TREEDEPTH
 70
  3020
  9
$CMLSTYLE
  2
Standard
  9
$CMLJUST
 70
     0
  9
$CMLSCALE
 40
1.0
  9
$PROXYGRAPHICS
 70
     1
  9
$MEASUREMENT
 70
     0
  9
$CELWEIGHT
370
    -1
  9
$ENDCAPS
280
     0
  9
$JOINSTYLE
280
     0
  9
$LWDISPLAY
290
     0
  9
$INSUNITS
 70
     0
  9
$HYPERLINKBASE
  1

  9
$STYLESHEET
  1

  9
$XEDIT
290
     1
  9
$CEPSNTYPE
380
     0
  9
$PSTYLEMODE
290
     1
  9
$FINGERPRINTGUID
  2
{CC7D6DEE-A9F1-4F3E-AC95-C84B62CCA3FD}
  9
$VERSIONGUID
  2
{370CD043-C485-4B0E-91E2-8762D6652FAB}
  9
$EXTNAMES
290
     1
  9
$PSVPSCALE
 40
0.0
  9
$OLESTARTUP
290
     0
  0
ENDSEC
  0
SECTION
  2
CLASSES
  0
CLASS
  1
ACDBDICTIONARYWDFLT
  2
AcDbDictionaryWithDefault
  3
ObjectDBX Classes
 90
        0
280
     0
281
     0
  0
CLASS
  1
ACDBPLACEHOLDER
  2
AcDbPlaceHolder
  3
ObjectDBX Classes
 90
        0
280
     0
281
     0
  0
CLASS
  1
LAYOUT
  2
AcDbLayout
  3
ObjectDBX Classes
 90
        0
280
     0
281
     0
  0
CLASS
  1
DICTIONARYVAR
  2
AcDbDictionaryVar
  3
ObjectDBX Classes
 90
        0
280
     0
281
     0
  0
CLASS
  1
TABLESTYLE
  2
AcDbTableStyle
  3
ObjectDBX Classes
 90
     2047
280
     0
281
     0
  0
ENDSEC
  0
SECTION
  2
TABLES
  0
TABLE
  2
VPORT
  5
8
330
0
100
AcDbSymbolTable
 70
     2
  0
VPORT
  5
740F
330
8
100
AcDbSymbolTableRecord
100
AcDbViewportTableRecord
  2
*Active
 70
     0
 10
0.0
 20
0.0
 11
1.0
 21
1.0
 12
1692.665580415492
 22
730.253119573734
 13
0.0
 23
0.0
 14
1.0
 24
1.0
 15
0.0
 25
0.0
 16
0.0
 26
0.0
 36
1.0
 17
0.0
 27
0.0
 37
0.0
 40
651.3706545469534
 41
1.538265306122448
 42
50.0
 43
0.0
 44
0.0
 50
0.0
 51
0.0
 71
     0
 72
   100
 73
     1
 74
     1
 75
     0
 76
     0
 77
     0
 78
     0
281
     0
 65
     1
110
0.0
120
0.0
130
0.0
111
1.0
121
0.0
131
0.0
112
0.0
122
1.0
132
0.0
 79
     0
146
0.0
  0
ENDTAB
  0
TABLE
  2
LTYPE
  5
5
330
0
100
AcDbSymbolTable
 70
    50
  0
LTYPE
  5
13
330
5
100
AcDbSymbolTableRecord
100
AcDbLinetypeTableRecord
  2
ByBlock
 70
     0
  3

 72
    65
 73
     0
 40
0.0
  0
LTYPE
  5
14
330
5
100
AcDbSymbolTableRecord
100
AcDbLinetypeTableRecord
  2
ByLayer
 70
     0
  3

 72
    65
 73
     0
 40
0.0
  0
LTYPE
  5
15
330
5
100
AcDbSymbolTableRecord
100
AcDbLinetypeTableRecord
  2
CONTINUOUS
 70
     0
  3
実線
 72
    65
 73
     0
 40
0.0
  0
LTYPE
  5
22
330
5
100
AcDbSymbolTableRecord
100
AcDbLinetypeTableRecord
  2
DASHED1
 70
     0
  3
--  --  --  --  --  --  --  --  
 72
    65
 73
     2
 40
2.5
 49
1.25
 74
     0
 49
-1.25
 74
     0
  0
LTYPE
  5
23
330
5
100
AcDbSymbolTableRecord
100
AcDbLinetypeTableRecord
  2
DASHED2
 70
     0
  3
----    ----    ----    ----    
 72
    65
 73
     2
 40
5.0
 49
2.5
 74
     0
 49
-2.5
 74
     0
  0
LTYPE
  5
24
330
5
100
AcDbSymbolTableRecord
100
AcDbLinetypeTableRecord
  2
DASHED3
 70
     0
  3
------  ------  ------  ------  
 72
    65
 73
     2
 40
5.0
 49
3.75
 74
     0
 49
-1.25
 74
     0
  0
LTYPE
  5
25
330
5
100
AcDbSymbolTableRecord
100
AcDbLinetypeTableRecord
  2
CENTER1
 70
     0
  3
----- - ----- - ----- - ----- - 
 72
    65
 73
     4
 40
10.0
 49
6.25
 74
     0
 49
-1.25
 74
     0
 49
1.25
 74
     0
 49
-1.25
 74
     0
  0
LTYPE
  5
26
330
5
100
AcDbSymbolTableRecord
100
AcDbLinetypeTableRecord
  2
CENTER2
 70
     0
  3
----------  --  ----------  --  
 72
    65
 73
     4
 40
20.0
 49
12.5
 74
     0
 49
-2.5
 74
     0
 49
2.5
 74
     0
 49
-2.5
 74
     0
  0
LTYPE
  5
27
330
5
100
AcDbSymbolTableRecord
100
AcDbLinetypeTableRecord
  2
PHANTOM1
 70
     0
  3
--- - - --- - - --- - - --- - - 
 72
    65
 73
     6
 40
10.0
 49
3.25
 74
     0
 49
-1.25
 74
     0
 49
1.25
 74
     0
 49
-1.25
 74
     0
 49
1.25
 74
     0
 49
-1.25
 74
     0
  0
LTYPE
  5
28
330
5
100
AcDbSymbolTableRecord
100
AcDbLinetypeTableRecord
  2
PHANTOM2
 70
     0
  3
--------  -  -  --------  -  -  
 72
    65
 73
     6
 40
20.0
 49
10.0
 74
     0
 49
-2.5
 74
     0
 49
1.25
 74
     0
 49
-2.5
 74
     0
 49
1.25
 74
     0
 49
-2.5
 74
     0
  0
LTYPE
  5
29
330
5
100
AcDbSymbolTableRecord
100
AcDbLinetypeTableRecord
  2
DOT
 70
     0
  3
-   -   -   -   -   -   -   -   
 72
    65
 73
     2
 40
2.5
 49
0.625
 74
     0
 49
-1.875
 74
     0
  0
LTYPE
  5
2A
330
5
100
AcDbSymbolTableRecord
100
AcDbLinetypeTableRecord
  2
DUMMY
 70
     0
  3
ダミー
 72
    65
 73
     0
 40
0.0
  0
LTYPE
  5
2B
330
5
100
AcDbSymbolTableRecord
100
AcDbLinetypeTableRecord
  2
RAND1
 70
     0
  3
ランダム線1
 72
    65
 73
     4
 40
10.0
 49
1.0
 74
     0
 49
-2.0
 74
     0
 49
3.0
 74
     0
 49
-4.0
 74
     0
  0
LTYPE
  5
2C
330
5
100
AcDbSymbolTableRecord
100
AcDbLinetypeTableRecord
  2
RAND2
 70
     0
  3
ランダム線2
 72
    65
 73
     4
 40
14.0
 49
2.0
 74
     0
 49
-3.0
 74
     0
 49
4.0
 74
     0
 49
-5.0
 74
     0
  0
LTYPE
  5
2D
330
5
100
AcDbSymbolTableRecord
100
AcDbLinetypeTableRecord
  2
RAND3
 70
     0
  3
ランダム線3
 72
    65
 73
     4
 40
18.0
 49
3.0
 74
     0
 49
-4.0
 74
     0
 49
5.0
 74
     0
 49
-6.0
 74
     0
  0
LTYPE
  5
2E
330
5
100
AcDbSymbolTableRecord
100
AcDbLinetypeTableRecord
  2
RAND4
 70
     0
  3
ランダム線4
 72
    65
 73
     4
 40
22.0
 49
4.0
 74
     0
 49
-5.0
 74
     0
 49
6.0
 74
     0
 49
-7.0
 74
     0
  0
LTYPE
  5
2F
330
5
100
AcDbSymbolTableRecord
100
AcDbLinetypeTableRecord
  2
RAND5
 70
     0
  3
ランダム線5
 72
    65
 73
     4
 40
26.0
 49
5.0
 74
     0
 49
-6.0
 74
     0
 49
7.0
 74
     0
 49
-8.0
 74
     0
  0
LTYPE
  5
30
330
5
100
AcDbSymbolTableRecord
100
AcDbLinetypeTableRecord
  2
LONG1
 70
     0
  3
----------  --  ----------  --  
 72
    65
 73
     4
 40
40.0
 49
32.5
 74
     0
 49
-2.5
 74
     0
 49
2.5
 74
     0
 49
-2.5
 74
     0
  0
LTYPE
  5
31
330
5
100
AcDbSymbolTableRecord
100
AcDbLinetypeTableRecord
  2
LONG2
 70
     0
  3
--------  -  -  --------  -  -  
 72
    65
 73
     6
 40
40.0
 49
30.0
 74
     0
 49
-2.5
 74
     0
 49
1.25
 74
     0
 49
-2.5
 74
     0
 49
1.25
 74
     0
 49
-2.5
 74
     0
  0
LTYPE
  5
32
330
5
100
AcDbSymbolTableRecord
100
AcDbLinetypeTableRecord
  2
LONG3
 70
     0
  3
+++++++++++++++..+++++++++++++++
 72
    65
 73
     2
 40
40.0
 49
37.5
 74
     0
 49
-2.5
 74
     0
  0
LTYPE
  5
33
330
5
100
AcDbSymbolTableRecord
100
AcDbLinetypeTableRecord
  2
LONG4
 70
     0
  3
+++++++++++++++..+++++++++++++++
 72
    65
 73
     2
 40
80.0
 49
75.0
 74
     0
 49
-5.0
 74
     0
  0
LTYPE
  5
34
330
5
100
AcDbSymbolTableRecord
100
AcDbLinetypeTableRecord
  2
LONG5
 70
     0
  3
----------  --  ----------  --  
 72
    65
 73
     4
 40
60.0
 49
37.5
 74
     0
 49
-7.5
 74
     0
 49
7.5
 74
     0
 49
-7.5
 74
     0
  0
LTYPE
  5
35
330
5
100
AcDbSymbolTableRecord
100
AcDbLinetypeTableRecord
  2
DASHED
 70
     0
  3
-------   -------------   ------
 72
    65
 73
     2
 40
7.5
 49
6.0
 74
     0
 49
-1.5
 74
     0
  0
LTYPE
  5
36
330
5
100
AcDbSymbolTableRecord
100
AcDbLinetypeTableRecord
  2
DASHED_SPACED
 70
     0
  3
----        --------        ----
 72
    65
 73
     2
 40
12.0
 49
6.0
 74
     0
 49
-6.0
 74
     0
  0
LTYPE
  5
37
330
5
100
AcDbSymbolTableRecord
100
AcDbLinetypeTableRecord
  2
LONG_DASHED_DOTTED
 70
     0
  3
------------- --- --------------
 72
    65
 73
     4
 40
15.25
 49
12.0
 74
     0
 49
-1.5
 74
     0
 49
0.25
 74
     0
 49
-1.5
 74
     0
  0
LTYPE
  5
38
330
5
100
AcDbSymbolTableRecord
100
AcDbLinetypeTableRecord
  2
LONG_DASHED_DOUBLE-DOTTED
 70
     0
  3
----------- --- --- ------------
 72
    65
 73
     6
 40
17.0
 49
12.0
 74
     0
 49
-1.5
 74
     0
 49
0.25
 74
     0
 49
-1.5
 74
     0
 49
0.25
 74
     0
 49
-1.5
 74
     0
  0
LTYPE
  5
39
330
5
100
AcDbSymbolTableRecord
100
AcDbLinetypeTableRecord
  2
LONG_DASHED_TRIPLICATE-DOTTED
 70
     0
  3
--------- --- --- --- ----------
 72
    65
 73
     8
 40
18.75
 49
12.0
 74
     0
 49
-1.5
 74
     0
 49
0.25
 74
     0
 49
-1.5
 74
     0
 49
0.25
 74
     0
 49
-1.5
 74
     0
 49
0.25
 74
     0
 49
-1.5
 74
     0
  0
LTYPE
  5
3A
330
5
100
AcDbSymbolTableRecord
100
AcDbLinetypeTableRecord
  2
DOTTED
 70
     0
  3
   -       -       -       -    
 72
    65
 73
     2
 40
1.75
 49
0.25
 74
     0
 49
-1.5
 74
     0
  0
LTYPE
  5
3B
330
5
100
AcDbSymbolTableRecord
100
AcDbLinetypeTableRecord
  2
CHAIN
 70
     0
  3
-------------- -- --------------
 72
    65
 73
     4
 40
18.5
 49
12.0
 74
     0
 49
-1.5
 74
     0
 49
3.5
 74
     0
 49
-1.5
 74
     0
  0
LTYPE
  5
3C
330
5
100
AcDbSymbolTableRecord
100
AcDbLinetypeTableRecord
  2
CHAIN_DOUBLE_DASH
 70
     0
  3
------------ -- -- -------------
 72
    65
 73
     6
 40
23.5
 49
12.0
 74
     0
 49
-1.5
 74
     0
 49
3.5
 74
     0
 49
-1.5
 74
     0
 49
3.5
 74
     0
 49
-1.5
 74
     0
  0
LTYPE
  5
3D
330
5
100
AcDbSymbolTableRecord
100
AcDbLinetypeTableRecord
  2
DASHED_DOTTED
 70
     0
  3
-----------     -     ----------
 72
    65
 73
     4
 40
9.25
 49
6.0
 74
     0
 49
-1.5
 74
     0
 49
0.25
 74
     0
 49
-1.5
 74
     0
  0
LTYPE
  5
3E
330
5
100
AcDbSymbolTableRecord
100
AcDbLinetypeTableRecord
  2
DOUBLE-DASHED_DOTTED
 70
     0
  3
------   -----------   -   -----
 72
    65
 73
     6
 40
16.75
 49
6.0
 74
     0
 49
-1.5
 74
     0
 49
6.0
 74
     0
 49
-1.5
 74
     0
 49
0.25
 74
     0
 49
-1.5
 74
     0
  0
LTYPE
  5
3F
330
5
100
AcDbSymbolTableRecord
100
AcDbLinetypeTableRecord
  2
DASHED_DOUBLE-DOTTED
 70
     0
  3
---------    -    -    ---------
 72
    65
 73
     6
 40
11.0
 49
6.0
 74
     0
 49
-1.5
 74
     0
 49
0.25
 74
     0
 49
-1.5
 74
     0
 49
0.25
 74
     0
 49
-1.5
 74
     0
  0
LTYPE
  5
40
330
5
100
AcDbSymbolTableRecord
100
AcDbLinetypeTableRecord
  2
DOUBLE-DASHED_DOUBLE-DOTTED
 70
     0
  3
-----   ---------   -   -   ----
 72
    65
 73
     8
 40
18.5
 49
6.0
 74
     0
 49
-1.5
 74
     0
 49
6.0
 74
     0
 49
-1.5
 74
     0
 49
0.25
 74
     0
 49
-1.5
 74
     0
 49
0.25
 74
     0
 49
-1.5
 74
     0
  0
LTYPE
  5
41
330
5
100
AcDbSymbolTableRecord
100
AcDbLinetypeTableRecord
  2
DASHED_TRIPLICATE-DOTTED
 70
     0
  3
-------    -    -    -    ------
 72
    65
 73
     8
 40
12.75
 49
6.0
 74
     0
 49
-1.5
 74
     0
 49
0.25
 74
     0
 49
-1.5
 74
     0
 49
0.25
 74
     0
 49
-1.5
 74
     0
 49
0.25
 74
     0
 49
-1.5
 74
     0
  0
LTYPE
  5
42
330
5
100
AcDbSymbolTableRecord
100
AcDbLinetypeTableRecord
  2
DOUBLE-DASHED_TRIPLICATE-DOTTED
 70
     0
  3
-----  ---------  -  -  -  -----
 72
    65
 73
    10
 40
20.25
 49
6.0
 74
     0
 49
-1.5
 74
     0
 49
6.0
 74
     0
 49
-1.5
 74
     0
 49
0.25
 74
     0
 49
-1.5
 74
     0
 49
0.25
 74
     0
 49
-1.5
 74
     0
 49
0.25
 74
     0
 49
-1.5
 74
     0
  0
LTYPE
  5
43
330
5
100
AcDbSymbolTableRecord
100
AcDbLinetypeTableRecord
  2
UNDEFINED
 70
     0
  3
--------------------------------
 72
    65
 73
     0
 40
0.0
  0
LTYPE
  5
44
330
5
100
AcDbSymbolTableRecord
100
AcDbLinetypeTableRecord
  2
PLINE2
 70
     0
  3
------     -----------     -----
 72
    65
 73
     2
 40
3.0
 49
2.1
 74
     0
 49
-0.9
 74
     0
  0
LTYPE
  5
45
330
5
100
AcDbSymbolTableRecord
100
AcDbLinetypeTableRecord
  2
PLINE3
 70
     0
  3
------------   ---   -----------
 72
    65
 73
     4
 40
10.0
 49
7.0
 74
     0
 49
-1.0
 74
     0
 49
1.0
 74
     0
 49
-1.0
 74
     0
  0
LTYPE
  5
46
330
5
100
AcDbSymbolTableRecord
100
AcDbLinetypeTableRecord
  2
PLINE4
 70
     0
  3
---------   ---   ---   --------
 72
    65
 73
     6
 40
10.0
 49
5.0
 74
     0
 49
-1.0
 74
     0
 49
1.0
 74
     0
 49
-1.0
 74
     0
 49
1.0
 74
     0
 49
-1.0
 74
     0
  0
LTYPE
  5
47
330
5
100
AcDbSymbolTableRecord
100
AcDbLinetypeTableRecord
  2
PLINE5
 70
     0
  3
------     -----------     -----
 72
    65
 73
     2
 40
5.0
 49
3.5
 74
     0
 49
-1.5
 74
     0
  0
LTYPE
  5
48
330
5
100
AcDbSymbolTableRecord
100
AcDbLinetypeTableRecord
  2
PLINE6
 70
     0
  3
------------   ---   -----------
 72
    65
 73
     4
 40
15.0
 49
10.5
 74
     0
 49
-1.5
 74
     0
 49
1.5
 74
     0
 49
-1.5
 74
     0
  0
LTYPE
  5
49
330
5
100
AcDbSymbolTableRecord
100
AcDbLinetypeTableRecord
  2
PLINE7
 70
     0
  3
---------   ---   ---   --------
 72
    65
 73
     6
 40
15.0
 49
7.5
 74
     0
 49
-1.5
 74
     0
 49
1.5
 74
     0
 49
-1.5
 74
     0
 49
1.5
 74
     0
 49
-1.5
 74
     0
  0
LTYPE
  5
4A
330
5
100
AcDbSymbolTableRecord
100
AcDbLinetypeTableRecord
  2
PLINE8
 70
     0
  3
------     -----------     -----
 72
    65
 73
     2
 40
7.0
 49
4.9
 74
     0
 49
-2.1
 74
     0
  0
LTYPE
  5
4B
330
5
100
AcDbSymbolTableRecord
100
AcDbLinetypeTableRecord
  2
PLINE9
 70
     0
  3
------------   ---   -----------
 72
    65
 73
     4
 40
20.0
 49
14.0
 74
     0
 49
-2.0
 74
     0
 49
2.0
 74
     0
 49
-2.0
 74
     0
  0
LTYPE
  5
4C
330
5
100
AcDbSymbolTableRecord
100
AcDbLinetypeTableRecord
  2
PLINE10
 70
     0
  3
---------   ---   ---   --------
 72
    65
 73
     6
 40
20.0
 49
10.0
 74
     0
 49
-2.0
 74
     0
 49
2.0
 74
     0
 49
-2.0
 74
     0
 49
2.0
 74
     0
 49
-2.0
 74
     0
  0
LTYPE
  5
4D
330
5
100
AcDbSymbolTableRecord
100
AcDbLinetypeTableRecord
  2
PLINE11
 70
     0
  3
------     -----------     -----
 72
    65
 73
     2
 40
9.0
 49
6.299999999999999
 74
     0
 49
-2.7
 74
     0
  0
LTYPE
  5
4E
330
5
100
AcDbSymbolTableRecord
100
AcDbLinetypeTableRecord
  2
PLINE12
 70
     0
  3
------------   ---   -----------
 72
    65
 73
     4
 40
25.0
 49
17.5
 74
     0
 49
-2.5
 74
     0
 49
2.5
 74
     0
 49
-2.5
 74
     0
  0
LTYPE
  5
4F
330
5
100
AcDbSymbolTableRecord
100
AcDbLinetypeTableRecord
  2
PLINE13
 70
     0
  3
---------   ---   ---   --------
 72
    65
 73
     6
 40
25.0
 49
12.5
 74
     0
 49
-2.5
 74
     0
 49
2.5
 74
     0
 49
-2.5
 74
     0
 49
2.5
 74
     0
 49
-2.5
 74
     0
  0
LTYPE
  5
50
330
5
100
AcDbSymbolTableRecord
100
AcDbLinetypeTableRecord
  2
PLINE14
 70
     0
  3
------     -----------     -----
 72
    65
 73
     2
 40
11.0
 49
7.7
 74
     0
 49
-3.299999999999999
 74
     0
  0
LTYPE
  5
51
330
5
100
AcDbSymbolTableRecord
100
AcDbLinetypeTableRecord
  2
PLINE15
 70
     0
  3
------------   ---   -----------
 72
    65
 73
     4
 40
30.0
 49
21.0
 74
     0
 49
-3.0
 74
     0
 49
3.0
 74
     0
 49
-3.0
 74
     0
  0
LTYPE
  5
52
330
5
100
AcDbSymbolTableRecord
100
AcDbLinetypeTableRecord
  2
PLINE16
 70
     0
  3
---------   ---   ---   --------
 72
    65
 73
     6
 40
30.0
 49
15.0
 74
     0
 49
-3.0
 74
     0
 49
3.0
 74
     0
 49
-3.0
 74
     0
 49
3.0
 74
     0
 49
-3.0
 74
     0
  0
ENDTAB
  0
TABLE
  2
LAYER
  5
2
102
{ACAD_XDICTIONARY
360
175
102
}
330
0
100
AcDbSymbolTable
 70
     5
  0
LAYER
  5
10
330
2
100
AcDbSymbolTableRecord
100
AcDbLayerTableRecord
  2
0
 70
     0
 62
     7
  6
CONTINUOUS
370
    -3
390
F
  0
LAYER
  5
128
330
2
100
AcDbSymbolTableRecord
100
AcDbLayerTableRecord
  2
Defpoints
 70
     0
 62
     7
  6
CONTINUOUS
290
     0
370
    -3
390
F
  0
LAYER
  5
178
330
2
100
AcDbSymbolTableRecord
100
AcDbLayerTableRecord
  2
寸法
 70
     0
 62
     7
  6
CONTINUOUS
370
    -3
390
F
  0
LAYER
  5
179
330
2
100
AcDbSymbolTableRecord
100
AcDbLayerTableRecord
  2
躯体と製品
 70
     0
 62
     7
  6
CONTINUOUS
370
    -3
390
F
  0
LAYER
  5
4F62
330
2
100
AcDbSymbolTableRecord
100
AcDbLayerTableRecord
  2
図枠
 70
     0
 62
     7
  6
CONTINUOUS
370
    -3
390
F
  0
ENDTAB
  0
TABLE
  2
STYLE
  5
3
330
0
100
AcDbSymbolTable
 70
     5
  0
STYLE
  5
11
330
3
100
AcDbSymbolTableRecord
100
AcDbTextStyleTableRecord
  2
STANDARD
 70
     0
 40
0.0
 41
1.0
 50
0.0
 71
     0
 42
0.2
  3
txt
  4
bigfont.shx
  0
STYLE
  5
53
330
3
100
AcDbSymbolTableRecord
100
AcDbTextStyleTableRecord
  2
TATEGAKI
 70
     4
 40
0.0
 41
1.0
 50
0.0
 71
     0
 42
1.0
  3
txt
  4
bigfont.shx
  0
STYLE
  5
123
330
3
100
AcDbSymbolTableRecord
100
AcDbTextStyleTableRecord
  2
ACAD
 70
     0
 40
5.0
 41
0.8
 50
0.0
 71
     0
 42
5.0
  3
romans.shx
  4
extfont.shx
  0
STYLE
  5
3A5F
330
3
100
AcDbSymbolTableRecord
100
AcDbTextStyleTableRecord
  2
VERTXT
 70
     4
 40
0.0
 41
0.8582679999999999
 50
0.0
 71
     0
 42
3.5
  3
txt.shx
  4
BIGFONT
  0
STYLE
  5
50AD
330
3
100
AcDbSymbolTableRecord
100
AcDbTextStyleTableRecord
  2
STANDARD2
 70
     0
 40
0.0
 41
0.8582679999999999
 50
0.0
 71
     0
 42
3.5
  3
txt.shx
  4
EXTFONT
  0
ENDTAB
  0
TABLE
  2
VIEW
  5
6
330
0
100
AcDbSymbolTable
 70
     0
  0
ENDTAB
  0
TABLE
  2
UCS
  5
7
330
0
100
AcDbSymbolTable
 70
     0
  0
ENDTAB
  0
TABLE
  2
APPID
  5
9
330
0
100
AcDbSymbolTable
 70
     1
  0
APPID
  5
12
330
9
100
AcDbSymbolTableRecord
100
AcDbRegAppTableRecord
  2
ACAD
 70
     0
  0
ENDTAB
  0
TABLE
  2
DIMSTYLE
  5
A
330
0
100
AcDbSymbolTable
 70
     3
100
AcDbDimStyleTable
 71
     1
340
126
  0
DIMSTYLE
105
11C
330
A
100
AcDbSymbolTableRecord
100
AcDbDimStyleTableRecord
  2
Standard
 70
     0
340
11
  0
DIMSTYLE
105
126
102
{ACAD_REACTORS
330
72A5
330
72B2
330
72BF
330
72CC
330
72E6
330
72F3
330
7300
330
7325
330
7349
330
7356
330
7363
330
737C
330
7388
330
7394
330
739F
102
}
330
A
100
AcDbSymbolTableRecord
100
AcDbDimStyleTableRecord
  2
AutoCAD
 70
     0
 41
1.0
 42
0.0
 44
0.0
 73
     0
 77
     1
140
5.0
147
1.0
174
     1
176
     4
177
     4
178
     3
271
     0
272
     0
289
     0
340
123
341
15B0
342
11E
  0
DIMSTYLE
105
2CBB
330
A
100
AcDbSymbolTableRecord
100
AcDbDimStyleTableRecord
  2
111
 70
     0
 41
1.0
 42
0.0
 44
0.0
 73
     0
 77
     1
140
5.0
147
1.0
174
     1
176
     4
177
     4
178
     3
271
     0
272
     0
289
     0
340
123
341
15B0
342
2CB5
  0
ENDTAB
  0
TABLE
  2
BLOCK_RECORD
  5
1
330
0
100
AcDbSymbolTable
 70
    19
  0
BLOCK_RECORD
  5
1E
102
{ACAD_XDICTIONARY
360
28B
102
}
330
1
100
AcDbSymbolTableRecord
100
AcDbBlockTableRecord
  2
*Model_Space
340
21
  0
BLOCK_RECORD
  5
1A
102
{ACAD_XDICTIONARY
360
28D
102
}
330
1
100
AcDbSymbolTableRecord
100
AcDbBlockTableRecord
  2
*Paper_Space
340
1D
  0
BLOCK_RECORD
  5
11E
330
1
100
AcDbSymbolTableRecord
100
AcDbBlockTableRecord
  2
_Dot
340
0
102
{BLKREFS
331
72C4
331
72C5
331
72D1
331
72D2
331
72F8
331
72F9
331
7305
331
7306
331
735B
331
735C
331
7397
331
7398
331
73A2
331
73A3
331
73AF
331
73B0
331
73B7
331
73B8
331
73C0
331
73C1
331
73C9
331
73CA
331
73E4
331
73E5
331
73EC
331
73ED
331
73F4
331
73F5
331
73FE
331
73FF
102
}
  0
BLOCK_RECORD
  5
15B0
330
1
100
AcDbSymbolTableRecord
100
AcDbBlockTableRecord
  2
_None
340
0
  0
BLOCK_RECORD
  5
2CB5
330
1
100
AcDbSymbolTableRecord
100
AcDbBlockTableRecord
  2
_Open30
340
0
  0
BLOCK_RECORD
  5
35E3
330
1
100
AcDbSymbolTableRecord
100
AcDbBlockTableRecord
  2
_DotBlank
340
0
  0
BLOCK_RECORD
  5
72A6
330
1
100
AcDbSymbolTableRecord
100
AcDbBlockTableRecord
  2
*D4
340
0
  0
BLOCK_RECORD
  5
72B3
330
1
100
AcDbSymbolTableRecord
100
AcDbBlockTableRecord
  2
*D5
340
0
  0
BLOCK_RECORD
  5
72C0
330
1
100
AcDbSymbolTableRecord
100
AcDbBlockTableRecord
  2
*D6
340
0
  0
BLOCK_RECORD
  5
72CD
330
1
100
AcDbSymbolTableRecord
100
AcDbBlockTableRecord
  2
*D7
340
0
  0
BLOCK_RECORD
  5
72E7
330
1
100
AcDbSymbolTableRecord
100
AcDbBlockTableRecord
  2
*D8
340
0
  0
BLOCK_RECORD
  5
72F4
330
1
100
AcDbSymbolTableRecord
100
AcDbBlockTableRecord
  2
*D9
340
0
  0
BLOCK_RECORD
  5
7301
330
1
100
AcDbSymbolTableRecord
100
AcDbBlockTableRecord
  2
*D10
340
0
  0
BLOCK_RECORD
  5
7326
330
1
100
AcDbSymbolTableRecord
100
AcDbBlockTableRecord
  2
*D11
340
0
  0
BLOCK_RECORD
  5
734A
330
1
100
AcDbSymbolTableRecord
100
AcDbBlockTableRecord
  2
*D12
340
0
  0
BLOCK_RECORD
  5
7357
330
1
100
AcDbSymbolTableRecord
100
AcDbBlockTableRecord
  2
*D13
340
0
  0
BLOCK_RECORD
  5
7364
330
1
100
AcDbSymbolTableRecord
100
AcDbBlockTableRecord
  2
*D14
340
0
  0
BLOCK_RECORD
  5
737D
330
1
100
AcDbSymbolTableRecord
100
AcDbBlockTableRecord
  2
*D15
340
0
  0
BLOCK_RECORD
  5
7389
330
1
100
AcDbSymbolTableRecord
100
AcDbBlockTableRecord
  2
*D16
340
0
  0
BLOCK_RECORD
  5
7395
330
1
100
AcDbSymbolTableRecord
100
AcDbBlockTableRecord
  2
*D17
340
0
  0
BLOCK_RECORD
  5
73A0
330
1
100
AcDbSymbolTableRecord
100
AcDbBlockTableRecord
  2
*D18
340
0
  0
ENDTAB
  0
ENDSEC
  0
SECTION
  2
BLOCKS
  0
BLOCK
  5
1F
330
1E
100
AcDbEntity
  8
0
100
AcDbBlockBegin
  2
*Model_Space
 70
     0
 10
0.0
 20
0.0
 30
0.0
  3
*Model_Space
  1

  0
ENDBLK
  5
20
330
1E
100
AcDbEntity
  8
0
100
AcDbBlockEnd
  0
BLOCK
  5
1B
330
1A
100
AcDbEntity
 67
     1
  8
0
100
AcDbBlockBegin
  2
*Paper_Space
 70
     0
 10
0.0
 20
0.0
 30
0.0
  3
*Paper_Space
  1

  0
ENDBLK
  5
1C
330
1A
100
AcDbEntity
 67
     1
  8
0
100
AcDbBlockEnd
  0
BLOCK
  5
121
330
11E
100
AcDbEntity
  8
0
100
AcDbBlockBegin
  2
_Dot
 70
     0
 10
0.0
 20
0.0
 30
0.0
  3
_Dot
  1

  0
LWPOLYLINE
  5
11F
330
11E
100
AcDbEntity
  8
0
  6
ByBlock
 62
     0
100
AcDbPolyline
 90
        2
 70
     1
 43
0.5
 10
-0.25
 20
0.0
 42
1.0
 10
0.25
 20
0.0
 42
1.0
  0
LINE
  5
120
330
11E
100
AcDbEntity
  8
0
  6
ByBlock
 62
     0
370
    -2
100
AcDbLine
 10
-0.5
 20
0.0
 30
0.0
 11
-1.0
 21
0.0
 31
0.0
  0
ENDBLK
  5
122
330
11E
100
AcDbEntity
  8
0
100
AcDbBlockEnd
  0
BLOCK
  5
15B1
330
15B0
100
AcDbEntity
  8
0
100
AcDbBlockBegin
  2
_None
 70
     0
 10
0.0
 20
0.0
 30
0.0
  3
_None
  1

  0
ENDBLK
  5
15B2
330
15B0
100
AcDbEntity
  8
0
100
AcDbBlockEnd
  0
BLOCK
  5
2CB9
330
2CB5
100
AcDbEntity
  8
0
100
AcDbBlockBegin
  2
_Open30
 70
     0
 10
0.0
 20
0.0
 30
0.0
  3
_Open30
  1

  0
LINE
  5
2CB6
330
2CB5
100
AcDbEntity
  8
0
  6
ByBlock
 62
     0
370
    -2
100
AcDbLine
 10
-1.0
 20
0.26794919
 30
0.0
 11
0.0
 21
0.0
 31
0.0
  0
LINE
  5
2CB7
330
2CB5
100
AcDbEntity
  8
0
  6
ByBlock
 62
     0
370
    -2
100
AcDbLine
 10
0.0
 20
0.0
 30
0.0
 11
-1.0
 21
-0.26794919
 31
0.0
  0
LINE
  5
2CB8
330
2CB5
100
AcDbEntity
  8
0
  6
ByBlock
 62
     0
370
    -2
100
AcDbLine
 10
0.0
 20
0.0
 30
0.0
 11
-1.0
 21
0.0
 31
0.0
  0
ENDBLK
  5
2CBA
330
2CB5
100
AcDbEntity
  8
0
100
AcDbBlockEnd
  0
BLOCK
  5
35E6
330
35E3
100
AcDbEntity
  8
0
100
AcDbBlockBegin
  2
_DotBlank
 70
     0
 10
0.0
 20
0.0
 30
0.0
  3
_DotBlank
  1

  0
CIRCLE
  5
35E4
330
35E3
100
AcDbEntity
  8
0
  6
ByBlock
 62
     0
370
    -2
100
AcDbCircle
 10
0.0
 20
0.0
 30
0.0
 40
0.5
  0
LINE
  5
35E5
330
35E3
100
AcDbEntity
  8
0
  6
ByBlock
 62
     0
370
    -2
100
AcDbLine
 10
-0.5
 20
0.0
 30
0.0
 11
-1.0
 21
0.0
 31
0.0
  0
ENDBLK
  5
35E7
330
35E3
100
AcDbEntity
  8
0
100
AcDbBlockEnd
  0
BLOCK
  5
72B0
330
72A6
100
AcDbEntity
  8
0
100
AcDbBlockBegin
  2
*D4
 70
     1
 10
0.0
 20
0.0
 30
0.0
  3
*D4
  1

  0
LINE
  5
73C6
330
72A6
100
AcDbEntity
  8
寸法
  6
Continuous
 62
     4
370
    -2
100
AcDbLine
 10
1575.749442297124
 20
929.766626819855
 30
0.0
 11
1575.749442297124
 21
1002.766626819855
 31
0.0
  0
LINE
  5
73C7
330
72A6
100
AcDbEntity
  8
寸法
  6
Continuous
 62
     4
370
    -2
100
AcDbLine
 10
1775.749442297124
 20
920.7666268198549
 30
0.0
 11
1775.749442297124
 21
1002.766626819855
 31
0.0
  0
LINE
  5
73C8
330
72A6
100
AcDbEntity
  8
寸法
  6
Continuous
 62
     4
370
    -2
100
AcDbLine
 10
1576.749442297123
 20
1002.766626819855
 30
0.0
 11
1774.749442297124
 21
1002.766626819855
 31
0.0
  0
INSERT
  5
73C9
330
72A6
100
AcDbEntity
  8
寸法
  6
Continuous
 62
     4
370
    -2
100
AcDbBlockReference
  2
_Dot
 10
1575.749442297124
 20
1002.766626819855
 30
0.0
 50
180.0
  0
INSERT
  5
73CA
330
72A6
100
AcDbEntity
  8
寸法
  6
Continuous
 62
     4
370
    -2
100
AcDbBlockReference
  2
_Dot
 10
1775.749442297124
 20
1002.766626819855
 30
0.0
  0
MTEXT
  5
73CB
330
72A6
100
AcDbEntity
  8
寸法
  6
Continuous
 62
     3
100
AcDbMText
 10
1675.749442297124
 20
1006.266626819855
 30
0.0
 40
5.0
 41
0.0
 71
     5
 72
     1
  1
\A1;W
  7
ACAD
 73
     1
 44
1.0
1001
ACAD
1000
MTEXTBEGIN
1070
    73
1070
     1
1070
    44
1040
1.0
1070
    74
1070
     0
1000
MTEXTEND
  0
POINT
  5
73CC
330
72A6
100
AcDbEntity
  8
Defpoints
  6
Continuous
 62
     0
100
AcDbPoint
 10
1575.749442297124
 20
929.766626819855
 30
0.0
  0
POINT
  5
73CD
330
72A6
100
AcDbEntity
  8
Defpoints
  6
Continuous
 62
     0
100
AcDbPoint
 10
1775.749442297124
 20
920.7666268198549
 30
0.0
  0
POINT
  5
73CE
330
72A6
100
AcDbEntity
  8
Defpoints
  6
Continuous
 62
     0
100
AcDbPoint
 10
1775.749442297124
 20
1002.766626819855
 30
0.0
  0
ENDBLK
  5
72B1
330
72A6
100
AcDbEntity
  8
0
100
AcDbBlockEnd
  0
BLOCK
  5
72BD
330
72B3
100
AcDbEntity
  8
0
100
AcDbBlockBegin
  2
*D5
 70
     1
 10
0.0
 20
0.0
 30
0.0
  3
*D5
  1

  0
LINE
  5
73BD
330
72B3
100
AcDbEntity
  8
寸法
  6
Continuous
 62
     4
370
    -2
100
AcDbLine
 10
1575.749442297124
 20
929.766626819855
 30
0.0
 11
1575.749442297124
 21
987.766626589865
 31
0.0
  0
LINE
  5
73BE
330
72B3
100
AcDbEntity
  8
寸法
  6
Continuous
 62
     4
370
    -2
100
AcDbLine
 10
1609.249442297124
 20
929.766626819855
 30
0.0
 11
1609.249442297124
 21
987.766626589865
 31
0.0
  0
LINE
  5
73BF
330
72B3
100
AcDbEntity
  8
寸法
  6
Continuous
 62
     4
370
    -2
100
AcDbLine
 10
1576.749442297123
 20
987.766626589865
 30
0.0
 11
1608.249442297124
 21
987.766626589865
 31
0.0
  0
INSERT
  5
73C0
330
72B3
100
AcDbEntity
  8
寸法
  6
Continuous
 62
     4
370
    -2
100
AcDbBlockReference
  2
_Dot
 10
1575.749442297124
 20
987.766626589865
 30
0.0
 50
180.0
  0
INSERT
  5
73C1
330
72B3
100
AcDbEntity
  8
寸法
  6
Continuous
 62
     4
370
    -2
100
AcDbBlockReference
  2
_Dot
 10
1609.249442297124
 20
987.766626589865
 30
0.0
  0
MTEXT
  5
73C2
330
72B3
100
AcDbEntity
  8
寸法
  6
Continuous
 62
     3
100
AcDbMText
 10
1592.499442297124
 20
991.2666265898648
 30
0.0
 40
5.0
 41
0.0
 71
     5
 72
     1
  1
\A1;33.5
  7
ACAD
 73
     1
 44
1.0
1001
ACAD
1000
MTEXTBEGIN
1070
    73
1070
     1
1070
    44
1040
1.0
1070
    74
1070
     0
1000
MTEXTEND
  0
POINT
  5
73C3
330
72B3
100
AcDbEntity
  8
Defpoints
  6
Continuous
 62
     0
100
AcDbPoint
 10
1575.749442297124
 20
929.766626819855
 30
0.0
  0
POINT
  5
73C4
330
72B3
100
AcDbEntity
  8
Defpoints
  6
Continuous
 62
     0
100
AcDbPoint
 10
1609.249442297124
 20
929.766626819855
 30
0.0
  0
POINT
  5
73C5
330
72B3
100
AcDbEntity
  8
Defpoints
  6
Continuous
 62
     0
100
AcDbPoint
 10
1609.249442297124
 20
987.766626589865
 30
0.0
  0
ENDBLK
  5
72BE
330
72B3
100
AcDbEntity
  8
0
100
AcDbBlockEnd
  0
BLOCK
  5
72CA
330
72C0
100
AcDbEntity
  8
0
100
AcDbBlockBegin
  2
*D6
 70
     1
 10
0.0
 20
0.0
 30
0.0
  3
*D6
  1

  0
LINE
  5
72C1
330
72C0
100
AcDbEntity
  8
寸法
  6
Continuous
 62
     4
370
    -2
100
AcDbLine
 10
1589.249442297124
 20
944.7666268198549
 30
0.0
 11
1589.249442297124
 21
972.766626819855
 31
0.0
  0
LINE
  5
72C2
330
72C0
100
AcDbEntity
  8
寸法
  6
Continuous
 62
     4
370
    -2
100
AcDbLine
 10
1609.249442297124
 20
942.7666268198549
 30
0.0
 11
1609.249442297124
 21
972.766626819855
 31
0.0
  0
LINE
  5
72C3
330
72C0
100
AcDbEntity
  8
寸法
  6
Continuous
 62
     4
370
    -2
100
AcDbLine
 10
1590.249442297124
 20
972.766626819855
 30
0.0
 11
1608.249442297124
 21
972.766626819855
 31
0.0
  0
INSERT
  5
72C4
330
72C0
100
AcDbEntity
  8
寸法
  6
Continuous
 62
     4
370
    -2
100
AcDbBlockReference
  2
_Dot
 10
1589.249442297124
 20
972.766626819855
 30
0.0
 50
180.0
  0
INSERT
  5
72C5
330
72C0
100
AcDbEntity
  8
寸法
  6
Continuous
 62
     4
370
    -2
100
AcDbBlockReference
  2
_Dot
 10
1609.249442297124
 20
972.766626819855
 30
0.0
  0
MTEXT
  5
72C6
330
72C0
100
AcDbEntity
  8
寸法
  6
Continuous
 62
     3
100
AcDbMText
 10
1599.249442297123
 20
976.266626819855
 30
0.0
 40
5.0
 41
0.0
 71
     5
 72
     1
  1
\A1;20
  7
ACAD
 73
     1
 44
1.0
1001
ACAD
1000
MTEXTBEGIN
1070
    73
1070
     1
1070
    44
1040
1.0
1070
    74
1070
     0
1000
MTEXTEND
  0
POINT
  5
72C7
330
72C0
100
AcDbEntity
  8
Defpoints
  6
Continuous
 62
     0
100
AcDbPoint
 10
1589.249442297124
 20
944.7666268198549
 30
0.0
  0
POINT
  5
72C8
330
72C0
100
AcDbEntity
  8
Defpoints
  6
Continuous
 62
     0
100
AcDbPoint
 10
1609.249442297124
 20
942.7666268198549
 30
0.0
  0
POINT
  5
72C9
330
72C0
100
AcDbEntity
  8
Defpoints
  6
Continuous
 62
     0
100
AcDbPoint
 10
1609.249442297124
 20
972.766626819855
 30
0.0
  0
ENDBLK
  5
72CB
330
72C0
100
AcDbEntity
  8
0
100
AcDbBlockEnd
  0
BLOCK
  5
72D7
330
72CD
100
AcDbEntity
  8
0
100
AcDbBlockBegin
  2
*D7
 70
     1
 10
0.0
 20
0.0
 30
0.0
  3
*D7
  1

  0
LINE
  5
72CE
330
72CD
100
AcDbEntity
  8
寸法
  6
Continuous
 62
     4
370
    -2
100
AcDbLine
 10
1601.749442297124
 20
942.7666268198549
 30
0.0
 11
1636.249442297124
 21
942.7666268198549
 31
0.0
  0
LINE
  5
72CF
330
72CD
100
AcDbEntity
  8
寸法
  6
Continuous
 62
     4
370
    -2
100
AcDbLine
 10
1611.249442297124
 20
927.7666268198547
 30
0.0
 11
1636.249442297124
 21
927.7666268198547
 31
0.0
  0
LINE
  5
72D0
330
72CD
100
AcDbEntity
  8
寸法
  6
Continuous
 62
     4
370
    -2
100
AcDbLine
 10
1636.249442297124
 20
941.766626819855
 30
0.0
 11
1636.249442297124
 21
928.7666268198547
 31
0.0
  0
INSERT
  5
72D1
330
72CD
100
AcDbEntity
  8
寸法
  6
Continuous
 62
     4
370
    -2
100
AcDbBlockReference
  2
_Dot
 10
1636.249442297124
 20
942.7666268198549
 30
0.0
 50
90.0
  0
INSERT
  5
72D2
330
72CD
100
AcDbEntity
  8
寸法
  6
Continuous
 62
     4
370
    -2
100
AcDbBlockReference
  2
_Dot
 10
1636.249442297124
 20
927.7666268198547
 30
0.0
 50
270.0
  0
MTEXT
  5
72D3
330
72CD
100
AcDbEntity
  8
寸法
  6
Continuous
 62
     3
100
AcDbMText
 10
1632.749442297123
 20
935.266626819855
 30
0.0
 40
5.0
 41
0.0
 71
     5
 72
     1
  1
\A1;15
  7
ACAD
 11
0.0000000000000001
 21
1.0
 31
0.0
 73
     1
 44
1.0
1001
ACAD
1000
MTEXTBEGIN
1070
    73
1070
     1
1070
    44
1040
1.0
1070
    74
1070
     0
1000
MTEXTEND
  0
POINT
  5
72D4
330
72CD
100
AcDbEntity
  8
Defpoints
  6
Continuous
 62
     0
100
AcDbPoint
 10
1601.749442297124
 20
942.7666268198549
 30
0.0
  0
POINT
  5
72D5
330
72CD
100
AcDbEntity
  8
Defpoints
  6
Continuous
 62
     0
100
AcDbPoint
 10
1611.249442297124
 20
927.7666268198547
 30
0.0
  0
POINT
  5
72D6
330
72CD
100
AcDbEntity
  8
Defpoints
  6
Continuous
 62
     0
100
AcDbPoint
 10
1636.249442297124
 20
927.7666268198547
 30
0.0
  0
ENDBLK
  5
72D8
330
72CD
100
AcDbEntity
  8
0
100
AcDbBlockEnd
  0
BLOCK
  5
72F1
330
72E7
100
AcDbEntity
  8
0
100
AcDbBlockBegin
  2
*D8
 70
     1
 10
0.0
 20
0.0
 30
0.0
  3
*D8
  1

  0
LINE
  5
73FB
330
72E7
100
AcDbEntity
  8
寸法
  6
Continuous
 62
     4
370
    -2
100
AcDbLine
 10
1590.749442297124
 20
900.8789691633751
 30
0.0
 11
1590.749442297124
 21
920.7666268198549
 31
0.0
  0
LINE
  5
73FC
330
72E7
100
AcDbEntity
  8
寸法
  6
Continuous
 62
     4
370
    -2
100
AcDbLine
 10
1775.749442297124
 20
879.1835299960123
 30
0.0
 11
1775.749442297124
 21
920.7666268198549
 31
0.0
  0
LINE
  5
73FD
330
72E7
100
AcDbEntity
  8
寸法
  6
Continuous
 62
     4
370
    -2
100
AcDbLine
 10
1591.749442297124
 20
920.7666268198549
 30
0.0
 11
1774.749442297124
 21
920.7666268198549
 31
0.0
  0
INSERT
  5
73FE
330
72E7
100
AcDbEntity
  8
寸法
  6
Continuous
 62
     4
370
    -2
100
AcDbBlockReference
  2
_Dot
 10
1590.749442297124
 20
920.7666268198549
 30
0.0
 50
180.0
  0
INSERT
  5
73FF
330
72E7
100
AcDbEntity
  8
寸法
  6
Continuous
 62
     4
370
    -2
100
AcDbBlockReference
  2
_Dot
 10
1775.749442297124
 20
920.7666268198549
 30
0.0
  0
MTEXT
  5
7400
330
72E7
100
AcDbEntity
  8
寸法
  6
Continuous
 62
     3
100
AcDbMText
 10
1683.249442297124
 20
924.2666268198549
 30
0.0
 40
5.0
 41
0.0
 71
     5
 72
     1
  1
\A1;A
  7
ACAD
 73
     1
 44
1.0
1001
ACAD
1000
MTEXTBEGIN
1070
    73
1070
     1
1070
    44
1040
1.0
1070
    74
1070
     0
1000
MTEXTEND
  0
POINT
  5
7401
330
72E7
100
AcDbEntity
  8
Defpoints
  6
Continuous
 62
     0
100
AcDbPoint
 10
1590.749442297124
 20
900.8789691633751
 30
0.0
  0
POINT
  5
7402
330
72E7
100
AcDbEntity
  8
Defpoints
  6
Continuous
 62
     0
100
AcDbPoint
 10
1775.749442297124
 20
879.1835299960123
 30
0.0
  0
POINT
  5
7403
330
72E7
100
AcDbEntity
  8
Defpoints
  6
Continuous
 62
     0
100
AcDbPoint
 10
1775.749442297124
 20
920.7666268198549
 30
0.0
  0
ENDBLK
  5
72F2
330
72E7
100
AcDbEntity
  8
0
100
AcDbBlockEnd
  0
BLOCK
  5
72FE
330
72F4
100
AcDbEntity
  8
0
100
AcDbBlockBegin
  2
*D9
 70
     1
 10
0.0
 20
0.0
 30
0.0
  3
*D9
  1

  0
LINE
  5
72F5
330
72F4
100
AcDbEntity
  8
寸法
  6
Continuous
 62
     4
370
    -2
100
AcDbLine
 10
1611.249442297124
 20
891.766626819855
 30
0.0
 11
1636.499442297124
 21
891.766626819855
 31
0.0
  0
LINE
  5
72F6
330
72F4
100
AcDbEntity
  8
寸法
  6
Continuous
 62
     4
370
    -2
100
AcDbLine
 10
1611.249442297124
 20
927.7666268198546
 30
0.0
 11
1636.499442297124
 21
927.7666268198546
 31
0.0
  0
LINE
  5
72F7
330
72F4
100
AcDbEntity
  8
寸法
  6
Continuous
 62
     4
370
    -2
100
AcDbLine
 10
1636.499442297124
 20
892.7666268198549
 30
0.0
 11
1636.499442297124
 21
926.7666268198546
 31
0.0
  0
INSERT
  5
72F8
330
72F4
100
AcDbEntity
  8
寸法
  6
Continuous
 62
     4
370
    -2
100
AcDbBlockReference
  2
_Dot
 10
1636.499442297124
 20
891.766626819855
 30
0.0
 50
270.0
  0
INSERT
  5
72F9
330
72F4
100
AcDbEntity
  8
寸法
  6
Continuous
 62
     4
370
    -2
100
AcDbBlockReference
  2
_Dot
 10
1636.499442297124
 20
927.7666268198546
 30
0.0
 50
90.0
  0
MTEXT
  5
72FA
330
72F4
100
AcDbEntity
  8
寸法
  6
Continuous
 62
     3
100
AcDbMText
 10
1632.999442297123
 20
909.7666268198551
 30
0.0
 40
5.0
 41
0.0
 71
     5
 72
     1
  1
\A1;36
  7
ACAD
 11
0.0000000000000001
 21
1.0
 31
0.0
 73
     1
 44
1.0
1001
ACAD
1000
MTEXTBEGIN
1070
    73
1070
     1
1070
    44
1040
1.0
1070
    74
1070
     0
1000
MTEXTEND
  0
POINT
  5
72FB
330
72F4
100
AcDbEntity
  8
Defpoints
  6
Continuous
 62
     0
100
AcDbPoint
 10
1611.249442297124
 20
891.766626819855
 30
0.0
  0
POINT
  5
72FC
330
72F4
100
AcDbEntity
  8
Defpoints
  6
Continuous
 62
     0
100
AcDbPoint
 10
1611.249442297124
 20
927.7666268198546
 30
0.0
  0
POINT
  5
72FD
330
72F4
100
AcDbEntity
  8
Defpoints
  6
Continuous
 62
     0
100
AcDbPoint
 10
1636.499442297124
 20
927.7666268198546
 30
0.0
  0
ENDBLK
  5
72FF
330
72F4
100
AcDbEntity
  8
0
100
AcDbBlockEnd
  0
BLOCK
  5
730B
330
7301
100
AcDbEntity
  8
0
100
AcDbBlockBegin
  2
*D10
 70
     1
 10
0.0
 20
0.0
 30
0.0
  3
*D10
  1

  0
LINE
  5
7302
330
7301
100
AcDbEntity
  8
寸法
  6
Continuous
 62
     4
370
    -2
100
AcDbLine
 10
1611.249442297124
 20
927.7666268198546
 30
0.0
 11
1636.499442297124
 21
927.7666268198546
 31
0.0
  0
LINE
  5
7303
330
7301
100
AcDbEntity
  8
寸法
  6
Continuous
 62
     4
370
    -2
100
AcDbLine
 10
1601.749442297124
 20
942.7666268198549
 30
0.0
 11
1636.499442297124
 21
942.7666268198549
 31
0.0
  0
LINE
  5
7304
330
7301
100
AcDbEntity
  8
寸法
  6
Continuous
 62
     4
370
    -2
100
AcDbLine
 10
1636.499442297124
 20
928.7666268198547
 30
0.0
 11
1636.499442297124
 21
941.766626819855
 31
0.0
  0
INSERT
  5
7305
330
7301
100
AcDbEntity
  8
寸法
  6
Continuous
 62
     4
370
    -2
100
AcDbBlockReference
  2
_Dot
 10
1636.499442297124
 20
927.7666268198546
 30
0.0
 50
270.0
  0
INSERT
  5
7306
330
7301
100
AcDbEntity
  8
寸法
  6
Continuous
 62
     4
370
    -2
100
AcDbBlockReference
  2
_Dot
 10
1636.499442297124
 20
942.7666268198549
 30
0.0
 50
90.0
  0
MTEXT
  5
7307
330
7301
100
AcDbEntity
  8
寸法
  6
Continuous
 62
     3
100
AcDbMText
 10
1632.999442297123
 20
935.266626819855
 30
0.0
 40
5.0
 41
0.0
 71
     5
 72
     1
  1
\A1;15
  7
ACAD
 11
0.0000000000000001
 21
1.0
 31
0.0
 73
     1
 44
1.0
1001
ACAD
1000
MTEXTBEGIN
1070
    73
1070
     1
1070
    44
1040
1.0
1070
    74
1070
     0
1000
MTEXTEND
  0
POINT
  5
7308
330
7301
100
AcDbEntity
  8
Defpoints
  6
Continuous
 62
     0
100
AcDbPoint
 10
1611.249442297124
 20
927.7666268198546
 30
0.0
  0
POINT
  5
7309
330
7301
100
AcDbEntity
  8
Defpoints
  6
Continuous
 62
     0
100
AcDbPoint
 10
1601.749442297124
 20
942.7666268198549
 30
0.0
  0
POINT
  5
730A
330
7301
100
AcDbEntity
  8
Defpoints
  6
Continuous
 62
     0
100
AcDbPoint
 10
1636.499442297124
 20
942.7666268198549
 30
0.0
  0
ENDBLK
  5
730C
330
7301
100
AcDbEntity
  8
0
100
AcDbBlockEnd
  0
BLOCK
  5
732F
330
7326
100
AcDbEntity
  8
0
100
AcDbBlockBegin
  2
*D11
 70
     1
 10
0.0
 20
0.0
 30
0.0
  3
*D11
  1

  0
LINE
  5
73B5
330
7326
100
AcDbEntity
  8
寸法
  6
Continuous
 62
     4
370
    -2
100
AcDbLine
 10
1621.045715818499
 20
828.8051714286213
 30
0.0
 11
1519.749442297124
 21
828.8051714286213
 31
0.0
  0
LINE
  5
73B6
330
7326
100
AcDbEntity
  8
寸法
  6
Continuous
 62
     4
370
    -2
100
AcDbLine
 10
1519.749442297124
 20
829.8051714286213
 30
0.0
 11
1519.749442297124
 21
882.766626819855
 31
0.0
  0
INSERT
  5
73B7
330
7326
100
AcDbEntity
  8
寸法
  6
Continuous
 62
     4
370
    -2
100
AcDbBlockReference
  2
_Dot
 10
1519.749442297124
 20
828.8051714286213
 30
0.0
 50
270.0
  0
INSERT
  5
73B8
330
7326
100
AcDbEntity
  8
寸法
  6
Continuous
 62
     4
370
    -2
100
AcDbBlockReference
  2
_Dot
 10
1519.749442297124
 20
883.766626819855
 30
0.0
 50
90.0
  0
MTEXT
  5
73B9
330
7326
100
AcDbEntity
  8
寸法
  6
Continuous
 62
     3
100
AcDbMText
 10
1516.249442297123
 20
856.2858991242384
 30
0.0
 40
5.0
 41
0.0
 71
     5
 72
     1
  1
\A1;D
  7
ACAD
 11
0.0000000000000001
 21
1.0
 31
0.0
 73
     1
 44
1.0
1001
ACAD
1000
MTEXTBEGIN
1070
    73
1070
     1
1070
    44
1040
1.0
1070
    74
1070
     0
1000
MTEXTEND
  0
POINT
  5
73BA
330
7326
100
AcDbEntity
  8
Defpoints
  6
Continuous
 62
     0
100
AcDbPoint
 10
1621.045715818499
 20
828.8051714286213
 30
0.0
  0
POINT
  5
73BB
330
7326
100
AcDbEntity
  8
Defpoints
  6
Continuous
 62
     0
100
AcDbPoint
 10
1519.749442297124
 20
883.766626819855
 30
0.0
  0
POINT
  5
73BC
330
7326
100
AcDbEntity
  8
Defpoints
  6
Continuous
 62
     0
100
AcDbPoint
 10
1519.749442297124
 20
883.766626819855
 30
0.0
  0
ENDBLK
  5
7330
330
7326
100
AcDbEntity
  8
0
100
AcDbBlockEnd
  0
BLOCK
  5
7354
330
734A
100
AcDbEntity
  8
0
100
AcDbBlockBegin
  2
*D12
 70
     1
 10
0.0
 20
0.0
 30
0.0
  3
*D12
  1

  0
LINE
  5
73AC
330
734A
100
AcDbEntity
  8
寸法
  6
Continuous
 62
     4
370
    -2
100
AcDbLine
 10
1621.045715818499
 20
828.8051714286213
 30
0.0
 11
1499.749442297123
 21
828.8051714286213
 31
0.0
  0
LINE
  5
73AD
330
734A
100
AcDbEntity
  8
寸法
  6
Continuous
 62
     4
370
    -2
100
AcDbLine
 10
1572.749442297124
 20
942.7666268198549
 30
0.0
 11
1499.749442297123
 21
942.7666268198549
 31
0.0
  0
LINE
  5
73AE
330
734A
100
AcDbEntity
  8
寸法
  6
Continuous
 62
     4
370
    -2
100
AcDbLine
 10
1499.749442297123
 20
829.8051714286213
 30
0.0
 11
1499.749442297123
 21
941.766626819855
 31
0.0
  0
INSERT
  5
73AF
330
734A
100
AcDbEntity
  8
寸法
  6
Continuous
 62
     4
370
    -2
100
AcDbBlockReference
  2
_Dot
 10
1499.749442297123
 20
828.8051714286213
 30
0.0
 50
270.0
  0
INSERT
  5
73B0
330
734A
100
AcDbEntity
  8
寸法
  6
Continuous
 62
     4
370
    -2
100
AcDbBlockReference
  2
_Dot
 10
1499.749442297123
 20
942.7666268198549
 30
0.0
 50
90.0
  0
MTEXT
  5
73B1
330
734A
100
AcDbEntity
  8
寸法
  6
Continuous
 62
     3
100
AcDbMText
 10
1496.249442297123
 20
885.7858991242384
 30
0.0
 40
5.0
 41
0.0
 71
     5
 72
     1
  1
\A1;E
  7
ACAD
 11
0.0000000000000001
 21
1.0
 31
0.0
 73
     1
 44
1.0
1001
ACAD
1000
MTEXTBEGIN
1070
    73
1070
     1
1070
    44
1040
1.0
1070
    74
1070
     0
1000
MTEXTEND
  0
POINT
  5
73B2
330
734A
100
AcDbEntity
  8
Defpoints
  6
Continuous
 62
     0
100
AcDbPoint
 10
1621.045715818499
 20
828.8051714286213
 30
0.0
  0
POINT
  5
73B3
330
734A
100
AcDbEntity
  8
Defpoints
  6
Continuous
 62
     0
100
AcDbPoint
 10
1572.749442297124
 20
942.7666268198549
 30
0.0
  0
POINT
  5
73B4
330
734A
100
AcDbEntity
  8
Defpoints
  6
Continuous
 62
     0
100
AcDbPoint
 10
1499.749442297123
 20
942.7666268198549
 30
0.0
  0
ENDBLK
  5
7355
330
734A
100
AcDbEntity
  8
0
100
AcDbBlockEnd
  0
BLOCK
  5
7361
330
7357
100
AcDbEntity
  8
0
100
AcDbBlockBegin
  2
*D13
 70
     1
 10
0.0
 20
0.0
 30
0.0
  3
*D13
  1

  0
LINE
  5
7358
330
7357
100
AcDbEntity
  8
寸法
  6
Continuous
 62
     4
370
    -2
100
AcDbLine
 10
1777.749442297124
 20
877.1835299960123
 30
0.0
 11
1835.749442297124
 21
877.1835299960121
 31
0.0
  0
LINE
  5
7359
330
7357
100
AcDbEntity
  8
寸法
  6
Continuous
 62
     4
370
    -2
100
AcDbLine
 10
1815.749442297124
 20
787.1835299960123
 30
0.0
 11
1835.749442297124
 21
787.1835299960123
 31
0.0
  0
LINE
  5
735A
330
7357
100
AcDbEntity
  8
寸法
  6
Continuous
 62
     4
370
    -2
100
AcDbLine
 10
1835.749442297124
 20
876.1835299960122
 30
0.0
 11
1835.749442297124
 21
788.1835299960123
 31
0.0
  0
INSERT
  5
735B
330
7357
100
AcDbEntity
  8
寸法
  6
Continuous
 62
     4
370
    -2
100
AcDbBlockReference
  2
_Dot
 10
1835.749442297124
 20
877.1835299960121
 30
0.0
 50
90.0
  0
INSERT
  5
735C
330
7357
100
AcDbEntity
  8
寸法
  6
Continuous
 62
     4
370
    -2
100
AcDbBlockReference
  2
_Dot
 10
1835.749442297124
 20
787.1835299960123
 30
0.0
 50
270.0
  0
MTEXT
  5
735D
330
7357
100
AcDbEntity
  8
寸法
  6
Continuous
 62
     3
100
AcDbMText
 10
1832.249442297124
 20
832.1835299960126
 30
0.0
 40
5.0
 41
0.0
 71
     5
 72
     1
  1
\A1;90
  7
ACAD
 11
0.0000000000000001
 21
1.0
 31
0.0
 73
     1
 44
1.0
1001
ACAD
1000
MTEXTBEGIN
1070
    73
1070
     1
1070
    44
1040
1.0
1070
    74
1070
     0
1000
MTEXTEND
  0
POINT
  5
735E
330
7357
100
AcDbEntity
  8
Defpoints
  6
Continuous
 62
     0
100
AcDbPoint
 10
1777.749442297124
 20
877.1835299960123
 30
0.0
  0
POINT
  5
735F
330
7357
100
AcDbEntity
  8
Defpoints
  6
Continuous
 62
     0
100
AcDbPoint
 10
1815.749442297124
 20
787.1835299960123
 30
0.0
  0
POINT
  5
7360
330
7357
100
AcDbEntity
  8
Defpoints
  6
Continuous
 62
     0
100
AcDbPoint
 10
1835.749442297124
 20
787.1835299960123
 30
0.0
  0
ENDBLK
  5
7362
330
7357
100
AcDbEntity
  8
0
100
AcDbBlockEnd
  0
BLOCK
  5
736E
330
7364
100
AcDbEntity
  8
0
100
AcDbBlockBegin
  2
*D14
 70
     1
 10
0.0
 20
0.0
 30
0.0
  3
*D14
  1

  0
LINE
  5
73E1
330
7364
100
AcDbEntity
  8
寸法
  6
Continuous
 62
     4
370
    -2
100
AcDbLine
 10
1777.749442297124
 20
787.1835299960123
 30
0.0
 11
1815.749442297124
 21
787.1835299960122
 31
0.0
  0
LINE
  5
73E2
330
7364
100
AcDbEntity
  8
寸法
  6
Continuous
 62
     4
370
    -2
100
AcDbLine
 10
1727.717077221317
 20
828.8051714286211
 30
0.0
 11
1815.749442297124
 21
828.805171428621
 31
0.0
  0
LINE
  5
73E3
330
7364
100
AcDbEntity
  8
寸法
  6
Continuous
 62
     4
370
    -2
100
AcDbLine
 10
1815.749442297124
 20
788.1835299960122
 30
0.0
 11
1815.749442297124
 21
827.805171428621
 31
0.0
  0
INSERT
  5
73E4
330
7364
100
AcDbEntity
  8
寸法
  6
Continuous
 62
     4
370
    -2
100
AcDbBlockReference
  2
_Dot
 10
1815.749442297124
 20
787.1835299960122
 30
0.0
 50
270.0
  0
INSERT
  5
73E5
330
7364
100
AcDbEntity
  8
寸法
  6
Continuous
 62
     4
370
    -2
100
AcDbBlockReference
  2
_Dot
 10
1815.749442297124
 20
828.805171428621
 30
0.0
 50
90.0
  0
MTEXT
  5
73E6
330
7364
100
AcDbEntity
  8
寸法
  6
Continuous
 62
     3
100
AcDbMText
 10
1812.249442297124
 20
807.994350712317
 30
0.0
 40
5.0
 41
0.0
 71
     5
 72
     1
  1
\A1;44
  7
ACAD
 11
0.0000000000000001
 21
1.0
 31
0.0
 73
     1
 44
1.0
1001
ACAD
1000
MTEXTBEGIN
1070
    73
1070
     1
1070
    44
1040
1.0
1070
    74
1070
     0
1000
MTEXTEND
  0
POINT
  5
73E7
330
7364
100
AcDbEntity
  8
Defpoints
  6
Continuous
 62
     0
100
AcDbPoint
 10
1777.749442297124
 20
787.1835299960123
 30
0.0
  0
POINT
  5
73E8
330
7364
100
AcDbEntity
  8
Defpoints
  6
Continuous
 62
     0
100
AcDbPoint
 10
1727.717077221317
 20
828.8051714286211
 30
0.0
  0
POINT
  5
73E9
330
7364
100
AcDbEntity
  8
Defpoints
  6
Continuous
 62
     0
100
AcDbPoint
 10
1815.749442297124
 20
828.805171428621
 30
0.0
  0
ENDBLK
  5
736F
330
7364
100
AcDbEntity
  8
0
100
AcDbBlockEnd
  0
BLOCK
  5
7386
330
737D
100
AcDbEntity
  8
0
100
AcDbBlockBegin
  2
*D15
 70
     1
 10
0.0
 20
0.0
 30
0.0
  3
*D15
  1

  0
LINE
  5
73EA
330
737D
100
AcDbEntity
  8
寸法
  6
Continuous
 62
     4
370
    -2
100
AcDbLine
 10
1775.749442297124
 20
785.1835299960123
 30
0.0
 11
1775.749442297124
 21
723.8051714286211
 31
0.0
  0
LINE
  5
73EB
330
737D
100
AcDbEntity
  8
寸法
  6
Continuous
 62
     4
370
    -2
100
AcDbLine
 10
1774.749442297124
 20
723.8051714286211
 30
0.0
 11
1725.749442297123
 21
723.8051714286211
 31
0.0
  0
INSERT
  5
73EC
330
737D
100
AcDbEntity
  8
寸法
  6
Continuous
 62
     4
370
    -2
100
AcDbBlockReference
  2
_Dot
 10
1775.749442297124
 20
723.8051714286211
 30
0.0
  0
INSERT
  5
73ED
330
737D
100
AcDbEntity
  8
寸法
  6
Continuous
 62
     4
370
    -2
100
AcDbBlockReference
  2
_Dot
 10
1724.749442297123
 20
723.8051714286211
 30
0.0
 50
180.0
  0
MTEXT
  5
73EE
330
737D
100
AcDbEntity
  8
寸法
  6
Continuous
 62
     3
100
AcDbMText
 10
1750.249442297123
 20
727.3051714286212
 30
0.0
 40
5.0
 41
0.0
 71
     5
 72
     1
  1
\A1;50≦
  7
ACAD
 73
     1
 44
1.0
1001
ACAD
1000
MTEXTBEGIN
1070
    73
1070
     1
1070
    44
1040
1.0
1070
    74
1070
     0
1000
MTEXTEND
  0
POINT
  5
73EF
330
737D
100
AcDbEntity
  8
Defpoints
  6
Continuous
 62
     0
100
AcDbPoint
 10
1775.749442297124
 20
785.1835299960123
 30
0.0
  0
POINT
  5
73F0
330
737D
100
AcDbEntity
  8
Defpoints
  6
Continuous
 62
     0
100
AcDbPoint
 10
1724.749442297123
 20
723.8051714286211
 30
0.0
  0
POINT
  5
73F1
330
737D
100
AcDbEntity
  8
Defpoints
  6
Continuous
 62
     0
100
AcDbPoint
 10
1724.749442297123
 20
723.8051714286211
 30
0.0
  0
ENDBLK
  5
7387
330
737D
100
AcDbEntity
  8
0
100
AcDbBlockEnd
  0
BLOCK
  5
7392
330
7389
100
AcDbEntity
  8
0
100
AcDbBlockBegin
  2
*D16
 70
     1
 10
0.0
 20
0.0
 30
0.0
  3
*D16
  1

  0
LINE
  5
73F2
330
7389
100
AcDbEntity
  8
寸法
  6
Continuous
 62
     4
370
    -2
100
AcDbLine
 10
1724.50324035887
 20
723.7617593842044
 30
0.0
 11
1724.50324035887
 21
723.8051714286211
 31
0.0
  0
LINE
  5
73F3
330
7389
100
AcDbEntity
  8
寸法
  6
Continuous
 62
     4
370
    -2
100
AcDbLine
 10
1723.50324035887
 20
723.8051714286211
 30
0.0
 11
1625.749442297123
 21
723.8051714286211
 31
0.0
  0
INSERT
  5
73F4
330
7389
100
AcDbEntity
  8
寸法
  6
Continuous
 62
     4
370
    -2
100
AcDbBlockReference
  2
_Dot
 10
1724.50324035887
 20
723.8051714286211
 30
0.0
  0
INSERT
  5
73F5
330
7389
100
AcDbEntity
  8
寸法
  6
Continuous
 62
     4
370
    -2
100
AcDbBlockReference
  2
_Dot
 10
1624.749442297123
 20
723.8051714286211
 30
0.0
 50
180.0
  0
MTEXT
  5
73F6
330
7389
100
AcDbEntity
  8
寸法
  6
Continuous
 62
     3
100
AcDbMText
 10
1674.626341327996
 20
727.3051714286212
 30
0.0
 40
5.0
 41
0.0
 71
     5
 72
     1
  1
\A1;≦C
  7
ACAD
 73
     1
 44
1.0
1001
ACAD
1000
MTEXTBEGIN
1070
    73
1070
     1
1070
    44
1040
1.0
1070
    74
1070
     0
1000
MTEXTEND
  0
POINT
  5
73F7
330
7389
100
AcDbEntity
  8
Defpoints
  6
Continuous
 62
     0
100
AcDbPoint
 10
1724.50324035887
 20
723.7617593842044
 30
0.0
  0
POINT
  5
73F8
330
7389
100
AcDbEntity
  8
Defpoints
  6
Continuous
 62
     0
100
AcDbPoint
 10
1624.749442297123
 20
723.8051714286211
 30
0.0
  0
POINT
  5
73F9
330
7389
100
AcDbEntity
  8
Defpoints
  6
Continuous
 62
     0
100
AcDbPoint
 10
1624.749442297123
 20
723.8051714286211
 30
0.0
  0
ENDBLK
  5
7393
330
7389
100
AcDbEntity
  8
0
100
AcDbBlockEnd
  0
BLOCK
  5
739D
330
7395
100
AcDbEntity
  8
0
100
AcDbBlockBegin
  2
*D17
 70
     1
 10
0.0
 20
0.0
 30
0.0
  3
*D17
  1

  0
LINE
  5
7396
330
7395
100
AcDbEntity
  8
寸法
  6
Continuous
 62
     4
370
    -2
100
AcDbLine
 10
1623.749442297124
 20
723.8051714286211
 30
0.0
 11
1575.749442297124
 21
723.8051714286211
 31
0.0
  0
INSERT
  5
7397
330
7395
100
AcDbEntity
  8
寸法
  6
Continuous
 62
     4
370
    -2
100
AcDbBlockReference
  2
_Dot
 10
1624.749442297124
 20
723.8051714286211
 30
0.0
  0
INSERT
  5
7398
330
7395
100
AcDbEntity
  8
寸法
  6
Continuous
 62
     4
370
    -2
100
AcDbBlockReference
  2
_Dot
 10
1574.749442297124
 20
723.8051714286211
 30
0.0
 50
180.0
  0
MTEXT
  5
7399
330
7395
100
AcDbEntity
  8
寸法
  6
Continuous
 62
     3
100
AcDbMText
 10
1599.749442297124
 20
727.3051714286212
 30
0.0
 40
5.0
 41
0.0
 71
     5
 72
     1
  1
\A1;50
  7
ACAD
 73
     1
 44
1.0
1001
ACAD
1000
MTEXTBEGIN
1070
    73
1070
     1
1070
    44
1040
1.0
1070
    74
1070
     0
1000
MTEXTEND
  0
POINT
  5
739A
330
7395
100
AcDbEntity
  8
Defpoints
  6
Continuous
 62
     0
100
AcDbPoint
 10
1624.749442297124
 20
723.8051714286211
 30
0.0
  0
POINT
  5
739B
330
7395
100
AcDbEntity
  8
Defpoints
  6
Continuous
 62
     0
100
AcDbPoint
 10
1574.749442297124
 20
723.8051714286211
 30
0.0
  0
POINT
  5
739C
330
7395
100
AcDbEntity
  8
Defpoints
  6
Continuous
 62
     0
100
AcDbPoint
 10
1574.749442297124
 20
723.8051714286211
 30
0.0
  0
ENDBLK
  5
739E
330
7395
100
AcDbEntity
  8
0
100
AcDbBlockEnd
  0
BLOCK
  5
73A8
330
73A0
100
AcDbEntity
  8
0
100
AcDbBlockBegin
  2
*D18
 70
     1
 10
0.0
 20
0.0
 30
0.0
  3
*D18
  1

  0
LINE
  5
73A1
330
73A0
100
AcDbEntity
  8
寸法
  6
Continuous
 62
     4
370
    -2
100
AcDbLine
 10
1675.749442297124
 20
768.8051714286213
 30
0.0
 11
1723.749442297124
 21
768.8051714286213
 31
0.0
  0
INSERT
  5
73A2
330
73A0
100
AcDbEntity
  8
寸法
  6
Continuous
 62
     4
370
    -2
100
AcDbBlockReference
  2
_Dot
 10
1674.749442297124
 20
768.8051714286213
 30
0.0
 50
180.0
  0
INSERT
  5
73A3
330
73A0
100
AcDbEntity
  8
寸法
  6
Continuous
 62
     4
370
    -2
100
AcDbBlockReference
  2
_Dot
 10
1724.749442297124
 20
768.8051714286213
 30
0.0
  0
MTEXT
  5
73A4
330
73A0
100
AcDbEntity
  8
寸法
  6
Continuous
 62
     3
100
AcDbMText
 10
1699.749442297124
 20
772.3051714286214
 30
0.0
 40
5.0
 41
0.0
 71
     5
 72
     1
  1
\A1;50
  7
ACAD
 73
     1
 44
1.0
1001
ACAD
1000
MTEXTBEGIN
1070
    73
1070
     1
1070
    44
1040
1.0
1070
    74
1070
     0
1000
MTEXTEND
  0
POINT
  5
73A5
330
73A0
100
AcDbEntity
  8
Defpoints
  6
Continuous
 62
     0
100
AcDbPoint
 10
1674.749442297124
 20
768.8051714286213
 30
0.0
  0
POINT
  5
73A6
330
73A0
100
AcDbEntity
  8
Defpoints
  6
Continuous
 62
     0
100
AcDbPoint
 10
1724.749442297124
 20
768.8051714286213
 30
0.0
  0
POINT
  5
73A7
330
73A0
100
AcDbEntity
  8
Defpoints
  6
Continuous
 62
     0
100
AcDbPoint
 10
1724.749442297124
 20
768.8051714286213
 30
0.0
  0
ENDBLK
  5
73A9
330
73A0
100
AcDbEntity
  8
0
100
AcDbBlockEnd
  0
ENDSEC
  0
SECTION
  2
ENTITIES
  0
LINE
  5
6D1E
330
1E
100
AcDbEntity
  8
躯体と製品
  6
CENTER1
 62
     4
100
AcDbLine
 10
1676.474082158861
 20
881.6367747954227
 30
0.0
 11
1674.121410822209
 21
836.745131439453
 31
0.0
  0
ARC
  5
6D1F
330
1E
100
AcDbEntity
  8
躯体と製品
  6
Continuous
 62
     7
100
AcDbCircle
 10
1653.749442297124
 20
839.0551714286212
 30
0.0
 40
9.25
100
AcDbArc
 50
270.0
 51
288.9246444160544
  0
ARC
  5
6D20
330
1E
100
AcDbEntity
  8
躯体と製品
  6
Continuous
 62
     7
100
AcDbCircle
 10
1600.786190190901
 20
782.7815877965954
 30
0.0
 40
17.97641636797405
100
AcDbArc
 50
184.9999999999994
 51
355.0000000000006
  0
ARC
  5
6D21
330
1E
100
AcDbEntity
  8
躯体と製品
  6
Continuous
 62
     7
100
AcDbCircle
 10
1600.786190190901
 20
782.7815877965954
 30
0.0
 40
18.97641636797405
100
AcDbArc
 50
184.9999999999994
 51
355.0000000000006
  0
LINE
  5
6D22
330
1E
100
AcDbEntity
  8
躯体と製品
  6
Continuous
 62
     7
100
AcDbLine
 10
1575.75705290094
 20
851.1359762772682
 30
0.0
 11
1581.881984816344
 21
781.1276841333558
 31
0.0
  0
LINE
  5
6D23
330
1E
100
AcDbEntity
  8
躯体と製品
  6
Continuous
 62
     7
100
AcDbLine
 10
1623.781807372931
 20
827.8927350849082
 30
0.0
 11
1619.690395565458
 21
781.1276841333558
 31
0.0
  0
LINE
  5
6D24
330
1E
100
AcDbEntity
  8
図枠
  6
Continuous
 62
     7
100
AcDbLine
 10
2087.749442297124
 20
1040.494976946545
 30
0.0
 11
1263.749442297124
 21
1040.494976946545
 31
0.0
  0
LINE
  5
6D25
330
1E
100
AcDbEntity
  8
図枠
  6
Continuous
 62
     7
100
AcDbLine
 10
1263.749442297124
 20
1040.494976946545
 30
0.0
 11
1263.749442297124
 21
464.4949769465453
 31
0.0
  0
LINE
  5
6D26
330
1E
100
AcDbEntity
  8
図枠
  6
Continuous
 62
     7
100
AcDbLine
 10
1263.749442297124
 20
464.4949769465453
 30
0.0
 11
2087.749442297124
 21
464.4949769465453
 31
0.0
  0
LINE
  5
6D27
330
1E
100
AcDbEntity
  8
図枠
  6
Continuous
 62
     7
100
AcDbLine
 10
2087.749442297124
 20
464.4949769465453
 30
0.0
 11
2087.749442297124
 21
1040.494976946545
 31
0.0
  0
TEXT
  5
6D28
330
1E
100
AcDbEntity
  8
図枠
 62
     7
100
AcDbText
 10
1431.249442297124
 20
684.9949769465454
 30
0.0
 40
5.0
  1
部材名称
100
AcDbText
  0
TEXT
  5
6D29
330
1E
100
AcDbEntity
  8
図枠
 62
     7
100
AcDbText
 10
1532.249442297124
 20
684.9949769465454
 30
0.0
 40
5.0
  1
規　格
100
AcDbText
  0
TEXT
  5
6D2A
330
1E
100
AcDbEntity
  8
図枠
 62
     7
100
AcDbText
 10
1399.749442297124
 20
675.9949769465452
 30
0.0
 40
5.0
  1
ＦＹＫキャップＡ
100
AcDbText
  0
TEXT
  5
6D2B
330
1E
100
AcDbEntity
  8
図枠
 62
     7
100
AcDbText
 10
1399.749442297124
 20
666.9949769465453
 30
0.0
 40
5.0
  1
ＦＹＫサイドキャップＡ
100
AcDbText
  0
TEXT
  5
6D2C
330
1E
100
AcDbEntity
  8
図枠
 62
     7
100
AcDbText
 10
1399.749442297124
 20
657.9949769465454
 30
0.0
 40
5.0
  1
ＦＹＹフレーム
100
AcDbText
  0
TEXT
  5
6D2D
330
1E
100
AcDbEntity
  8
図枠
 62
     7
100
AcDbText
 10
1399.749442297124
 20
630.9949769465454
 30
0.0
 40
5.0
  1
ＦＹＫホルダー
100
AcDbText
  0
TEXT
  5
6D2E
330
1E
100
AcDbEntity
  8
図枠
 62
     7
100
AcDbText
 10
1399.749442297124
 20
621.9949769465454
 30
0.0
 40
5.0
  1
ＦＹＹホルダースプリング
100
AcDbText
  0
TEXT
  5
6D2F
330
1E
100
AcDbEntity
  8
図枠
 62
     7
100
AcDbText
 10
1399.749442297124
 20
612.9949769465454
 30
0.0
 40
5.0
  1
ＦＹＹフレームナット
100
AcDbText
  0
TEXT
  5
6D30
330
1E
100
AcDbEntity
  8
図枠
 62
     7
100
AcDbText
 10
1399.749442297124
 20
603.9949769465454
 30
0.0
 40
5.0
  1
ＦＹＫ水切ジョイント
100
AcDbText
  0
TEXT
  5
6D31
330
1E
100
AcDbEntity
  8
図枠
 62
     7
100
AcDbText
 10
1399.749442297124
 20
594.9949769465454
 30
0.0
 40
5.0
  1
ＦＹＫｻｲﾄﾞｷｬｯﾌﾟ ｼﾞｮｲﾝﾄ
100
AcDbText
  0
TEXT
  5
6D32
330
1E
100
AcDbEntity
  8
図枠
 62
     7
100
AcDbText
 10
1399.749442297124
 20
585.9949769465454
 30
0.0
 40
5.0
  1
止水補助板
100
AcDbText
  0
TEXT
  5
6D33
330
1E
100
AcDbEntity
  8
図枠
 62
     7
100
AcDbText
 10
1499.749442297123
 20
585.9949769465454
 30
0.0
 40
5.0
  1
ＰＳ
100
AcDbText
  0
TEXT
  5
6D34
330
1E
100
AcDbEntity
  8
図枠
 62
     7
100
AcDbText
 10
1399.749442297124
 20
576.9949769465453
 30
0.0
 40
5.0
  1
止水補助板
100
AcDbText
  0
TEXT
  5
6D35
330
1E
100
AcDbEntity
  8
図枠
 62
     7
100
AcDbText
 10
1399.749442297124
 20
567.9949769465452
 30
0.0
 40
5.0
  1
ガスケットＮ
100
AcDbText
  0
TEXT
  5
6D36
330
1E
100
AcDbEntity
  8
図枠
 62
     7
100
AcDbText
 10
1399.749442297124
 20
558.9949769465452
 30
0.0
 40
5.0
  1
ステン小ネジ
100
AcDbText
  0
TEXT
  5
6D37
330
1E
100
AcDbEntity
  8
図枠
 62
     7
100
AcDbText
 10
1499.749442297123
 20
558.9949769465452
 30
0.0
 40
5.0
  1
ナベＭ6×35
100
AcDbText
  0
TEXT
  5
6D38
330
1E
100
AcDbEntity
  8
図枠
 62
     7
100
AcDbText
 10
1399.749442297124
 20
549.9949769465453
 30
0.0
 40
5.0
  1
ステン小ネジ
100
AcDbText
  0
TEXT
  5
6D39
330
1E
100
AcDbEntity
  8
図枠
 62
     7
100
AcDbText
 10
1499.749442297123
 20
549.9949769465453
 30
0.0
 40
5.0
  1
ナベＭ4×10
100
AcDbText
  0
TEXT
  5
6D3A
330
1E
100
AcDbEntity
  8
図枠
 62
     7
100
AcDbText
 10
1399.749442297124
 20
540.9949769465453
 30
0.0
 40
5.0
  1
ステン六角ボルト
100
AcDbText
  0
TEXT
  5
6D3B
330
1E
100
AcDbEntity
  8
図枠
 62
     7
100
AcDbText
 10
1499.749442297123
 20
540.9949769465453
 30
0.0
 40
5.0
  1
Ｍ6×40
100
AcDbText
  0
TEXT
  5
6D3C
330
1E
100
AcDbEntity
  8
図枠
 62
     7
100
AcDbText
 10
1399.749442297124
 20
531.9949769465454
 30
0.0
 40
5.0
  1
アジャストアンカー
100
AcDbText
  0
TEXT
  5
6D3D
330
1E
100
AcDbEntity
  8
図枠
 62
     7
100
AcDbText
 10
1499.749442297123
 20
531.9949769465454
 30
0.0
 40
5.0
  1
ＡＧ－660
100
AcDbText
  0
TEXT
  5
6D3E
330
1E
100
AcDbEntity
  8
図枠
 62
     7
100
AcDbText
 10
1399.749442297124
 20
522.9949769465454
 30
0.0
 40
5.0
  1
アンカープラグ
100
AcDbText
  0
TEXT
  5
6D3F
330
1E
100
AcDbEntity
  8
図枠
 62
     7
100
AcDbText
 10
1499.749442297123
 20
522.9949769465454
 30
0.0
 40
5.0
  1
フィッシャープラグ　Ｓ8
100
AcDbText
  0
TEXT
  5
6D40
330
1E
100
AcDbEntity
  8
図枠
 62
     7
100
AcDbText
 10
1399.749442297124
 20
513.9949769465454
 30
0.0
 40
5.0
  1
ステンタッピンねじ
100
AcDbText
  0
TEXT
  5
6D41
330
1E
100
AcDbEntity
  8
図枠
 62
     7
100
AcDbText
 10
1499.749442297123
 20
513.9949769465454
 30
0.0
 40
5.0
  1
ナベ 5×50
100
AcDbText
  0
TEXT
  5
6D42
330
1E
100
AcDbEntity
  8
図枠
 62
     7
100
AcDbText
 10
1399.749442297124
 20
504.9949769465453
 30
0.0
 40
5.0
  1
ステスワッシャー
100
AcDbText
  0
TEXT
  5
6D43
330
1E
100
AcDbEntity
  8
図枠
 62
     7
100
AcDbText
 10
1499.749442297123
 20
504.9949769465453
 30
0.0
 40
5.0
  1
1.5×18×6.5穴
100
AcDbText
  0
TEXT
  5
6D44
330
1E
100
AcDbEntity
  8
図枠
 62
     7
100
AcDbText
 10
1399.749442297124
 20
495.9949769465453
 30
0.0
 40
5.0
  1
ステンワッシャー
100
AcDbText
  0
TEXT
  5
6D45
330
1E
100
AcDbEntity
  8
図枠
 62
     7
100
AcDbText
 10
1499.749442297123
 20
495.9949769465453
 30
0.0
 40
5.0
  1
1.5×18×5.5穴
100
AcDbText
  0
TEXT
  5
6D46
330
1E
100
AcDbEntity
  8
図枠
 62
     7
100
AcDbText
 10
1399.749442297124
 20
486.9949769465453
 30
0.0
 40
5.0
  1
ブチルテープ
100
AcDbText
  0
TEXT
  5
6D47
330
1E
100
AcDbEntity
  8
図枠
 62
     7
100
AcDbText
 10
1499.749442297123
 20
486.9949769465453
 30
0.0
 40
5.0
  1
ｔ1.0×ｗ30
100
AcDbText
  0
LINE
  5
6D48
330
1E
100
AcDbEntity
  8
図枠
  6
Continuous
 62
     7
100
AcDbLine
 10
1394.749442297124
 20
485.4949769465453
 30
0.0
 11
1394.749442297124
 21
692.4949769465454
 31
0.0
  0
LINE
  5
6D49
330
1E
100
AcDbEntity
  8
図枠
  6
Continuous
 62
     7
100
AcDbLine
 10
1494.749442297124
 20
485.4949769465453
 30
0.0
 11
1494.749442297124
 21
692.4949769465454
 31
0.0
  0
LINE
  5
6D4A
330
1E
100
AcDbEntity
  8
図枠
  6
Continuous
 62
     7
100
AcDbLine
 10
1589.749442297124
 20
485.4949769465453
 30
0.0
 11
1589.749442297124
 21
692.4949769465454
 31
0.0
  0
LINE
  5
6D4B
330
1E
100
AcDbEntity
  8
図枠
  6
Continuous
 62
     7
100
AcDbLine
 10
1590.749442297124
 20
485.4949769465453
 30
0.0
 11
1590.749442297124
 21
692.4949769465454
 31
0.0
  0
LINE
  5
6D4C
330
1E
100
AcDbEntity
  8
図枠
  6
Continuous
 62
     7
100
AcDbLine
 10
1625.749442297124
 20
485.4949769465453
 30
0.0
 11
1625.749442297124
 21
692.4949769465454
 31
0.0
  0
LINE
  5
6D4D
330
1E
100
AcDbEntity
  8
図枠
  6
Continuous
 62
     7
100
AcDbLine
 10
1643.749442297124
 20
485.4949769465453
 30
0.0
 11
1643.749442297124
 21
692.4949769465454
 31
0.0
  0
LINE
  5
6D4E
330
1E
100
AcDbEntity
  8
図枠
  6
Continuous
 62
     7
100
AcDbLine
 10
1589.749442297124
 20
692.4949769465454
 30
0.0
 11
1380.749442297124
 21
692.4949769465454
 31
0.0
  0
LINE
  5
6D4F
330
1E
100
AcDbEntity
  8
図枠
  6
Continuous
 62
     7
100
AcDbLine
 10
1589.749442297124
 20
683.4949769465453
 30
0.0
 11
1380.749442297124
 21
683.4949769465453
 31
0.0
  0
LINE
  5
6D50
330
1E
100
AcDbEntity
  8
図枠
  6
Continuous
 62
     7
100
AcDbLine
 10
1589.749442297124
 20
674.4949769465454
 30
0.0
 11
1380.749442297124
 21
674.4949769465454
 31
0.0
  0
LINE
  5
6D51
330
1E
100
AcDbEntity
  8
図枠
  6
Continuous
 62
     7
100
AcDbLine
 10
1589.749442297124
 20
665.4949769465454
 30
0.0
 11
1380.749442297124
 21
665.4949769465454
 31
0.0
  0
LINE
  5
6D52
330
1E
100
AcDbEntity
  8
図枠
  6
Continuous
 62
     7
100
AcDbLine
 10
1589.749442297124
 20
656.4949769465454
 30
0.0
 11
1380.749442297124
 21
656.4949769465454
 31
0.0
  0
LINE
  5
6D53
330
1E
100
AcDbEntity
  8
図枠
  6
Continuous
 62
     7
100
AcDbLine
 10
1589.749442297124
 20
647.4949769465454
 30
0.0
 11
1380.749442297124
 21
647.4949769465454
 31
0.0
  0
LINE
  5
6D54
330
1E
100
AcDbEntity
  8
図枠
  6
Continuous
 62
     7
100
AcDbLine
 10
1589.749442297124
 20
638.4949769465454
 30
0.0
 11
1380.749442297124
 21
638.4949769465454
 31
0.0
  0
LINE
  5
6D55
330
1E
100
AcDbEntity
  8
図枠
  6
Continuous
 62
     7
100
AcDbLine
 10
1589.749442297124
 20
629.4949769465453
 30
0.0
 11
1380.749442297124
 21
629.4949769465453
 31
0.0
  0
LINE
  5
6D56
330
1E
100
AcDbEntity
  8
図枠
  6
Continuous
 62
     7
100
AcDbLine
 10
1589.749442297124
 20
620.4949769465454
 30
0.0
 11
1380.749442297124
 21
620.4949769465454
 31
0.0
  0
LINE
  5
6D57
330
1E
100
AcDbEntity
  8
図枠
  6
Continuous
 62
     7
100
AcDbLine
 10
1589.749442297124
 20
611.4949769465454
 30
0.0
 11
1380.749442297124
 21
611.4949769465454
 31
0.0
  0
LINE
  5
6D58
330
1E
100
AcDbEntity
  8
図枠
  6
Continuous
 62
     7
100
AcDbLine
 10
1589.749442297124
 20
602.4949769465454
 30
0.0
 11
1380.749442297124
 21
602.4949769465454
 31
0.0
  0
LINE
  5
6D59
330
1E
100
AcDbEntity
  8
図枠
  6
Continuous
 62
     7
100
AcDbLine
 10
1589.749442297124
 20
593.4949769465454
 30
0.0
 11
1380.749442297124
 21
593.4949769465454
 31
0.0
  0
LINE
  5
6D5A
330
1E
100
AcDbEntity
  8
図枠
  6
Continuous
 62
     7
100
AcDbLine
 10
1589.749442297124
 20
584.4949769465454
 30
0.0
 11
1380.749442297124
 21
584.4949769465454
 31
0.0
  0
LINE
  5
6D5B
330
1E
100
AcDbEntity
  8
図枠
  6
Continuous
 62
     7
100
AcDbLine
 10
1589.749442297124
 20
575.4949769465453
 30
0.0
 11
1380.749442297124
 21
575.4949769465453
 31
0.0
  0
LINE
  5
6D5C
330
1E
100
AcDbEntity
  8
図枠
  6
Continuous
 62
     7
100
AcDbLine
 10
1589.749442297124
 20
566.4949769465453
 30
0.0
 11
1380.749442297124
 21
566.4949769465453
 31
0.0
  0
LINE
  5
6D5D
330
1E
100
AcDbEntity
  8
図枠
  6
Continuous
 62
     7
100
AcDbLine
 10
1589.749442297124
 20
557.4949769465453
 30
0.0
 11
1380.749442297124
 21
557.4949769465453
 31
0.0
  0
LINE
  5
6D5E
330
1E
100
AcDbEntity
  8
図枠
  6
Continuous
 62
     7
100
AcDbLine
 10
1589.749442297124
 20
548.4949769465453
 30
0.0
 11
1380.749442297124
 21
548.4949769465453
 31
0.0
  0
LINE
  5
6D5F
330
1E
100
AcDbEntity
  8
図枠
  6
Continuous
 62
     7
100
AcDbLine
 10
1589.749442297124
 20
539.4949769465453
 30
0.0
 11
1380.749442297124
 21
539.4949769465453
 31
0.0
  0
LINE
  5
6D60
330
1E
100
AcDbEntity
  8
図枠
  6
Continuous
 62
     7
100
AcDbLine
 10
1589.749442297124
 20
530.4949769465454
 30
0.0
 11
1380.749442297124
 21
530.4949769465454
 31
0.0
  0
LINE
  5
6D61
330
1E
100
AcDbEntity
  8
図枠
  6
Continuous
 62
     7
100
AcDbLine
 10
1589.749442297124
 20
521.4949769465454
 30
0.0
 11
1380.749442297124
 21
521.4949769465454
 31
0.0
  0
LINE
  5
6D62
330
1E
100
AcDbEntity
  8
図枠
  6
Continuous
 62
     7
100
AcDbLine
 10
1589.749442297124
 20
512.4949769465453
 30
0.0
 11
1380.749442297124
 21
512.4949769465453
 31
0.0
  0
LINE
  5
6D63
330
1E
100
AcDbEntity
  8
図枠
  6
Continuous
 62
     7
100
AcDbLine
 10
1589.749442297124
 20
503.4949769465454
 30
0.0
 11
1380.749442297124
 21
503.4949769465454
 31
0.0
  0
LINE
  5
6D64
330
1E
100
AcDbEntity
  8
図枠
  6
Continuous
 62
     7
100
AcDbLine
 10
1589.749442297124
 20
494.4949769465453
 30
0.0
 11
1380.749442297124
 21
494.4949769465453
 31
0.0
  0
LINE
  5
6D65
330
1E
100
AcDbEntity
  8
図枠
  6
Continuous
 62
     7
100
AcDbLine
 10
1589.749442297124
 20
485.4949769465453
 30
0.0
 11
1380.749442297124
 21
485.4949769465453
 31
0.0
  0
LINE
  5
6D66
330
1E
100
AcDbEntity
  8
図枠
  6
Continuous
 62
     7
100
AcDbLine
 10
1380.749442297124
 20
485.4949769465453
 30
0.0
 11
1380.749442297124
 21
692.4949769465454
 31
0.0
  0
TEXT
  5
6D67
330
1E
100
AcDbEntity
  8
図枠
 62
     7
100
AcDbText
 10
1382.749442297124
 20
684.9949769465454
 30
0.0
 40
5.0
  1
No.
100
AcDbText
  0
TEXT
  5
6D68
330
1E
100
AcDbEntity
  8
図枠
 62
     7
100
AcDbText
 10
1384.499442297124
 20
675.9949769465452
 30
0.0
 40
5.0
  1
 1
100
AcDbText
  0
TEXT
  5
6D69
330
1E
100
AcDbEntity
  8
図枠
 62
     7
100
AcDbText
 10
1384.499442297124
 20
666.9949769465453
 30
0.0
 40
5.0
  1
 2
100
AcDbText
  0
TEXT
  5
6D6A
330
1E
100
AcDbEntity
  8
図枠
 62
     7
100
AcDbText
 10
1384.499442297124
 20
657.9949769465454
 30
0.0
 40
5.0
  1
 3
100
AcDbText
  0
TEXT
  5
6D6B
330
1E
100
AcDbEntity
  8
図枠
 62
     7
100
AcDbText
 10
1384.499442297124
 20
648.9949769465454
 30
0.0
 40
5.0
  1
 4
100
AcDbText
  0
TEXT
  5
6D6C
330
1E
100
AcDbEntity
  8
図枠
 62
     7
100
AcDbText
 10
1384.499442297124
 20
639.9949769465454
 30
0.0
 40
5.0
  1
 5
100
AcDbText
  0
TEXT
  5
6D6D
330
1E
100
AcDbEntity
  8
図枠
 62
     7
100
AcDbText
 10
1384.499442297124
 20
630.9949769465454
 30
0.0
 40
5.0
  1
 6
100
AcDbText
  0
TEXT
  5
6D6E
330
1E
100
AcDbEntity
  8
図枠
 62
     7
100
AcDbText
 10
1384.499442297124
 20
621.9949769465454
 30
0.0
 40
5.0
  1
 7
100
AcDbText
  0
TEXT
  5
6D6F
330
1E
100
AcDbEntity
  8
図枠
 62
     7
100
AcDbText
 10
1384.499442297124
 20
612.9949769465454
 30
0.0
 40
5.0
  1
 8
100
AcDbText
  0
TEXT
  5
6D70
330
1E
100
AcDbEntity
  8
図枠
 62
     7
100
AcDbText
 10
1384.499442297124
 20
603.9949769465454
 30
0.0
 40
5.0
  1
 9
100
AcDbText
  0
TEXT
  5
6D71
330
1E
100
AcDbEntity
  8
図枠
 62
     7
100
AcDbText
 10
1384.499442297124
 20
594.9949769465454
 30
0.0
 40
5.0
  1
10
100
AcDbText
  0
TEXT
  5
6D72
330
1E
100
AcDbEntity
  8
図枠
 62
     7
100
AcDbText
 10
1384.499442297124
 20
585.9949769465454
 30
0.0
 40
5.0
  1
11
100
AcDbText
  0
TEXT
  5
6D73
330
1E
100
AcDbEntity
  8
図枠
 62
     7
100
AcDbText
 10
1384.499442297124
 20
576.9949769465453
 30
0.0
 40
5.0
  1
12
100
AcDbText
  0
TEXT
  5
6D74
330
1E
100
AcDbEntity
  8
図枠
 62
     7
100
AcDbText
 10
1384.499442297124
 20
567.9949769465452
 30
0.0
 40
5.0
  1
13
100
AcDbText
  0
TEXT
  5
6D75
330
1E
100
AcDbEntity
  8
図枠
 62
     7
100
AcDbText
 10
1384.499442297124
 20
558.9949769465452
 30
0.0
 40
5.0
  1
14
100
AcDbText
  0
TEXT
  5
6D76
330
1E
100
AcDbEntity
  8
図枠
 62
     7
100
AcDbText
 10
1384.499442297124
 20
549.9949769465453
 30
0.0
 40
5.0
  1
15
100
AcDbText
  0
TEXT
  5
6D77
330
1E
100
AcDbEntity
  8
図枠
 62
     7
100
AcDbText
 10
1384.499442297124
 20
540.9949769465453
 30
0.0
 40
5.0
  1
16
100
AcDbText
  0
TEXT
  5
6D78
330
1E
100
AcDbEntity
  8
図枠
 62
     7
100
AcDbText
 10
1384.499442297124
 20
531.9949769465454
 30
0.0
 40
5.0
  1
17
100
AcDbText
  0
TEXT
  5
6D79
330
1E
100
AcDbEntity
  8
図枠
 62
     7
100
AcDbText
 10
1384.499442297124
 20
522.9949769465454
 30
0.0
 40
5.0
  1
18
100
AcDbText
  0
TEXT
  5
6D7A
330
1E
100
AcDbEntity
  8
図枠
 62
     7
100
AcDbText
 10
1384.499442297124
 20
513.9949769465454
 30
0.0
 40
5.0
  1
19
100
AcDbText
  0
TEXT
  5
6D7B
330
1E
100
AcDbEntity
  8
図枠
 62
     7
100
AcDbText
 10
1384.499442297124
 20
504.9949769465453
 30
0.0
 40
5.0
  1
20
100
AcDbText
  0
TEXT
  5
6D7C
330
1E
100
AcDbEntity
  8
図枠
 62
     7
100
AcDbText
 10
1384.499442297124
 20
495.9949769465453
 30
0.0
 40
5.0
  1
21
100
AcDbText
  0
TEXT
  5
6D7D
330
1E
100
AcDbEntity
  8
図枠
 62
     7
100
AcDbText
 10
1384.749442297124
 20
486.9949769465453
 30
0.0
 40
5.0
  1
※
100
AcDbText
  0
LINE
  5
6D7E
330
1E
100
AcDbEntity
  8
図枠
  6
Continuous
 62
     7
100
AcDbLine
 10
1657.749442297124
 20
692.4949769465454
 30
0.0
 11
1590.749442297124
 21
692.4949769465454
 31
0.0
  0
LINE
  5
6D7F
330
1E
100
AcDbEntity
  8
図枠
  6
Continuous
 62
     7
100
AcDbLine
 10
1657.749442297124
 20
683.4949769465453
 30
0.0
 11
1590.749442297124
 21
683.4949769465453
 31
0.0
  0
LINE
  5
6D80
330
1E
100
AcDbEntity
  8
図枠
  6
Continuous
 62
     7
100
AcDbLine
 10
1657.749442297124
 20
674.4949769465454
 30
0.0
 11
1590.749442297124
 21
674.4949769465454
 31
0.0
  0
LINE
  5
6D81
330
1E
100
AcDbEntity
  8
図枠
  6
Continuous
 62
     7
100
AcDbLine
 10
1657.749442297124
 20
665.4949769465454
 30
0.0
 11
1590.749442297124
 21
665.4949769465454
 31
0.0
  0
LINE
  5
6D82
330
1E
100
AcDbEntity
  8
図枠
  6
Continuous
 62
     7
100
AcDbLine
 10
1657.749442297124
 20
656.4949769465454
 30
0.0
 11
1590.749442297124
 21
656.4949769465454
 31
0.0
  0
LINE
  5
6D83
330
1E
100
AcDbEntity
  8
図枠
  6
Continuous
 62
     7
100
AcDbLine
 10
1657.749442297124
 20
647.4949769465454
 30
0.0
 11
1590.749442297124
 21
647.4949769465454
 31
0.0
  0
LINE
  5
6D84
330
1E
100
AcDbEntity
  8
図枠
  6
Continuous
 62
     7
100
AcDbLine
 10
1657.749442297124
 20
638.4949769465454
 30
0.0
 11
1590.749442297124
 21
638.4949769465454
 31
0.0
  0
LINE
  5
6D85
330
1E
100
AcDbEntity
  8
図枠
  6
Continuous
 62
     7
100
AcDbLine
 10
1657.749442297124
 20
629.4949769465453
 30
0.0
 11
1590.749442297124
 21
629.4949769465453
 31
0.0
  0
LINE
  5
6D86
330
1E
100
AcDbEntity
  8
図枠
  6
Continuous
 62
     7
100
AcDbLine
 10
1657.749442297124
 20
620.4949769465454
 30
0.0
 11
1590.749442297124
 21
620.4949769465454
 31
0.0
  0
LINE
  5
6D87
330
1E
100
AcDbEntity
  8
図枠
  6
Continuous
 62
     7
100
AcDbLine
 10
1657.749442297124
 20
611.4949769465454
 30
0.0
 11
1590.749442297124
 21
611.4949769465454
 31
0.0
  0
LINE
  5
6D88
330
1E
100
AcDbEntity
  8
図枠
  6
Continuous
 62
     7
100
AcDbLine
 10
1657.749442297124
 20
602.4949769465454
 30
0.0
 11
1590.749442297124
 21
602.4949769465454
 31
0.0
  0
LINE
  5
6D89
330
1E
100
AcDbEntity
  8
図枠
  6
Continuous
 62
     7
100
AcDbLine
 10
1657.749442297124
 20
593.4949769465454
 30
0.0
 11
1590.749442297124
 21
593.4949769465454
 31
0.0
  0
LINE
  5
6D8A
330
1E
100
AcDbEntity
  8
図枠
  6
Continuous
 62
     7
100
AcDbLine
 10
1657.749442297124
 20
584.4949769465454
 30
0.0
 11
1590.749442297124
 21
584.4949769465454
 31
0.0
  0
LINE
  5
6D8B
330
1E
100
AcDbEntity
  8
図枠
  6
Continuous
 62
     7
100
AcDbLine
 10
1657.749442297124
 20
575.4949769465453
 30
0.0
 11
1590.749442297124
 21
575.4949769465453
 31
0.0
  0
LINE
  5
6D8C
330
1E
100
AcDbEntity
  8
図枠
  6
Continuous
 62
     7
100
AcDbLine
 10
1657.749442297124
 20
566.4949769465453
 30
0.0
 11
1590.749442297124
 21
566.4949769465453
 31
0.0
  0
LINE
  5
6D8D
330
1E
100
AcDbEntity
  8
図枠
  6
Continuous
 62
     7
100
AcDbLine
 10
1657.749442297124
 20
557.4949769465453
 30
0.0
 11
1590.749442297124
 21
557.4949769465453
 31
0.0
  0
LINE
  5
6D8E
330
1E
100
AcDbEntity
  8
図枠
  6
Continuous
 62
     7
100
AcDbLine
 10
1657.749442297124
 20
548.4949769465453
 30
0.0
 11
1590.749442297124
 21
548.4949769465453
 31
0.0
  0
LINE
  5
6D8F
330
1E
100
AcDbEntity
  8
図枠
  6
Continuous
 62
     7
100
AcDbLine
 10
1657.749442297124
 20
539.4949769465453
 30
0.0
 11
1590.749442297124
 21
539.4949769465453
 31
0.0
  0
LINE
  5
6D90
330
1E
100
AcDbEntity
  8
図枠
  6
Continuous
 62
     7
100
AcDbLine
 10
1657.749442297124
 20
530.4949769465454
 30
0.0
 11
1590.749442297124
 21
530.4949769465454
 31
0.0
  0
LINE
  5
6D91
330
1E
100
AcDbEntity
  8
図枠
  6
Continuous
 62
     7
100
AcDbLine
 10
1657.749442297124
 20
521.4949769465454
 30
0.0
 11
1590.749442297124
 21
521.4949769465454
 31
0.0
  0
LINE
  5
6D92
330
1E
100
AcDbEntity
  8
図枠
  6
Continuous
 62
     7
100
AcDbLine
 10
1657.749442297124
 20
512.4949769465453
 30
0.0
 11
1590.749442297124
 21
512.4949769465453
 31
0.0
  0
LINE
  5
6D93
330
1E
100
AcDbEntity
  8
図枠
  6
Continuous
 62
     7
100
AcDbLine
 10
1657.749442297124
 20
503.4949769465454
 30
0.0
 11
1590.749442297124
 21
503.4949769465454
 31
0.0
  0
LINE
  5
6D94
330
1E
100
AcDbEntity
  8
図枠
  6
Continuous
 62
     7
100
AcDbLine
 10
1657.749442297124
 20
494.4949769465453
 30
0.0
 11
1590.749442297124
 21
494.4949769465453
 31
0.0
  0
LINE
  5
6D95
330
1E
100
AcDbEntity
  8
図枠
  6
Continuous
 62
     7
100
AcDbLine
 10
1657.749442297124
 20
485.4949769465453
 30
0.0
 11
1590.749442297124
 21
485.4949769465453
 31
0.0
  0
LINE
  5
6D96
330
1E
100
AcDbEntity
  8
図枠
  6
Continuous
 62
     7
100
AcDbLine
 10
1657.749442297124
 20
485.4949769465453
 30
0.0
 11
1657.749442297124
 21
692.4949769465454
 31
0.0
  0
LINE
  5
6D97
330
1E
100
AcDbEntity
  8
図枠
  6
Continuous
 62
     7
100
AcDbLine
 10
1658.749442297124
 20
485.4949769465453
 30
0.0
 11
1658.749442297124
 21
692.4949769465454
 31
0.0
  0
LINE
  5
6D98
330
1E
100
AcDbEntity
  8
図枠
  6
Continuous
 62
     7
100
AcDbLine
 10
1693.749442297123
 20
485.4949769465453
 30
0.0
 11
1693.749442297123
 21
692.4949769465454
 31
0.0
  0
LINE
  5
6D99
330
1E
100
AcDbEntity
  8
図枠
  6
Continuous
 62
     7
100
AcDbLine
 10
1711.749442297124
 20
485.4949769465453
 30
0.0
 11
1711.749442297124
 21
692.4949769465454
 31
0.0
  0
LINE
  5
6D9A
330
1E
100
AcDbEntity
  8
図枠
  6
Continuous
 62
     7
100
AcDbLine
 10
1658.749442297124
 20
692.4949769465454
 30
0.0
 11
1725.749442297124
 21
692.4949769465454
 31
0.0
  0
LINE
  5
6D9B
330
1E
100
AcDbEntity
  8
図枠
  6
Continuous
 62
     7
100
AcDbLine
 10
1658.749442297124
 20
683.4949769465453
 30
0.0
 11
1725.749442297124
 21
683.4949769465453
 31
0.0
  0
LINE
  5
6D9C
330
1E
100
AcDbEntity
  8
図枠
  6
Continuous
 62
     7
100
AcDbLine
 10
1658.749442297124
 20
674.4949769465454
 30
0.0
 11
1725.749442297124
 21
674.4949769465454
 31
0.0
  0
LINE
  5
6D9D
330
1E
100
AcDbEntity
  8
図枠
  6
Continuous
 62
     7
100
AcDbLine
 10
1658.749442297124
 20
665.4949769465454
 30
0.0
 11
1725.749442297124
 21
665.4949769465454
 31
0.0
  0
LINE
  5
6D9E
330
1E
100
AcDbEntity
  8
図枠
  6
Continuous
 62
     7
100
AcDbLine
 10
1658.749442297124
 20
656.4949769465454
 30
0.0
 11
1725.749442297124
 21
656.4949769465454
 31
0.0
  0
LINE
  5
6D9F
330
1E
100
AcDbEntity
  8
図枠
  6
Continuous
 62
     7
100
AcDbLine
 10
1658.749442297124
 20
647.4949769465454
 30
0.0
 11
1725.749442297124
 21
647.4949769465454
 31
0.0
  0
LINE
  5
6DA0
330
1E
100
AcDbEntity
  8
図枠
  6
Continuous
 62
     7
100
AcDbLine
 10
1658.749442297124
 20
638.4949769465454
 30
0.0
 11
1725.749442297124
 21
638.4949769465454
 31
0.0
  0
LINE
  5
6DA1
330
1E
100
AcDbEntity
  8
図枠
  6
Continuous
 62
     7
100
AcDbLine
 10
1658.749442297124
 20
629.4949769465453
 30
0.0
 11
1725.749442297124
 21
629.4949769465453
 31
0.0
  0
LINE
  5
6DA2
330
1E
100
AcDbEntity
  8
図枠
  6
Continuous
 62
     7
100
AcDbLine
 10
1658.749442297124
 20
620.4949769465454
 30
0.0
 11
1725.749442297124
 21
620.4949769465454
 31
0.0
  0
LINE
  5
6DA3
330
1E
100
AcDbEntity
  8
図枠
  6
Continuous
 62
     7
100
AcDbLine
 10
1658.749442297124
 20
611.4949769465454
 30
0.0
 11
1725.749442297124
 21
611.4949769465454
 31
0.0
  0
LINE
  5
6DA4
330
1E
100
AcDbEntity
  8
図枠
  6
Continuous
 62
     7
100
AcDbLine
 10
1658.749442297124
 20
602.4949769465454
 30
0.0
 11
1725.749442297124
 21
602.4949769465454
 31
0.0
  0
LINE
  5
6DA5
330
1E
100
AcDbEntity
  8
図枠
  6
Continuous
 62
     7
100
AcDbLine
 10
1658.749442297124
 20
593.4949769465454
 30
0.0
 11
1725.749442297124
 21
593.4949769465454
 31
0.0
  0
LINE
  5
6DA6
330
1E
100
AcDbEntity
  8
図枠
  6
Continuous
 62
     7
100
AcDbLine
 10
1658.749442297124
 20
584.4949769465454
 30
0.0
 11
1725.749442297124
 21
584.4949769465454
 31
0.0
  0
LINE
  5
6DA7
330
1E
100
AcDbEntity
  8
図枠
  6
Continuous
 62
     7
100
AcDbLine
 10
1658.749442297124
 20
575.4949769465453
 30
0.0
 11
1725.749442297124
 21
575.4949769465453
 31
0.0
  0
LINE
  5
6DA8
330
1E
100
AcDbEntity
  8
図枠
  6
Continuous
 62
     7
100
AcDbLine
 10
1658.749442297124
 20
566.4949769465453
 30
0.0
 11
1725.749442297124
 21
566.4949769465453
 31
0.0
  0
LINE
  5
6DA9
330
1E
100
AcDbEntity
  8
図枠
  6
Continuous
 62
     7
100
AcDbLine
 10
1658.749442297124
 20
557.4949769465453
 30
0.0
 11
1725.749442297124
 21
557.4949769465453
 31
0.0
  0
LINE
  5
6DAA
330
1E
100
AcDbEntity
  8
図枠
  6
Continuous
 62
     7
100
AcDbLine
 10
1658.749442297124
 20
548.4949769465453
 30
0.0
 11
1725.749442297124
 21
548.4949769465453
 31
0.0
  0
LINE
  5
6DAB
330
1E
100
AcDbEntity
  8
図枠
  6
Continuous
 62
     7
100
AcDbLine
 10
1658.749442297124
 20
539.4949769465453
 30
0.0
 11
1725.749442297124
 21
539.4949769465453
 31
0.0
  0
LINE
  5
6DAC
330
1E
100
AcDbEntity
  8
図枠
  6
Continuous
 62
     7
100
AcDbLine
 10
1658.749442297124
 20
530.4949769465454
 30
0.0
 11
1725.749442297124
 21
530.4949769465454
 31
0.0
  0
LINE
  5
6DAD
330
1E
100
AcDbEntity
  8
図枠
  6
Continuous
 62
     7
100
AcDbLine
 10
1658.749442297124
 20
521.4949769465454
 30
0.0
 11
1725.749442297124
 21
521.4949769465454
 31
0.0
  0
LINE
  5
6DAE
330
1E
100
AcDbEntity
  8
図枠
  6
Continuous
 62
     7
100
AcDbLine
 10
1658.749442297124
 20
512.4949769465453
 30
0.0
 11
1725.749442297124
 21
512.4949769465453
 31
0.0
  0
LINE
  5
6DAF
330
1E
100
AcDbEntity
  8
図枠
  6
Continuous
 62
     7
100
AcDbLine
 10
1658.749442297124
 20
503.4949769465454
 30
0.0
 11
1725.749442297124
 21
503.4949769465454
 31
0.0
  0
LINE
  5
6DB0
330
1E
100
AcDbEntity
  8
図枠
  6
Continuous
 62
     7
100
AcDbLine
 10
1658.749442297124
 20
494.4949769465453
 30
0.0
 11
1725.749442297124
 21
494.4949769465453
 31
0.0
  0
LINE
  5
6DB1
330
1E
100
AcDbEntity
  8
図枠
  6
Continuous
 62
     7
100
AcDbLine
 10
1658.749442297124
 20
485.4949769465453
 30
0.0
 11
1725.749442297124
 21
485.4949769465453
 31
0.0
  0
LINE
  5
6DB2
330
1E
100
AcDbEntity
  8
図枠
  6
Continuous
 62
     7
100
AcDbLine
 10
1725.749442297124
 20
485.4949769465453
 30
0.0
 11
1725.749442297124
 21
692.4949769465454
 31
0.0
  0
TEXT
  5
6DB3
330
1E
100
AcDbEntity
  8
図枠
 62
     7
100
AcDbText
 10
1594.499442297124
 20
684.9949769465454
 30
0.0
 40
5.0
  1
定尺(mm)
100
AcDbText
  0
TEXT
  5
6DB4
330
1E
100
AcDbEntity
  8
図枠
 62
     7
100
AcDbText
 10
1601.499442297123
 20
675.9949769465452
 30
0.0
 40
5.0
  1
3000
100
AcDbText
  0
TEXT
  5
6DB5
330
1E
100
AcDbEntity
  8
図枠
 62
     7
100
AcDbText
 10
1601.499442297123
 20
666.9949769465453
 30
0.0
 40
5.0
  1
3000
100
AcDbText
  0
TEXT
  5
6DB6
330
1E
100
AcDbEntity
  8
図枠
 62
     7
100
AcDbText
 10
1601.499442297123
 20
657.9949769465454
 30
0.0
 40
5.0
  1
3000
100
AcDbText
  0
TEXT
  5
6DB7
330
1E
100
AcDbEntity
  8
図枠
 62
     7
100
AcDbText
 10
1601.499442297123
 20
648.9949769465454
 30
0.0
 40
5.0
  1
3000
100
AcDbText
  0
TEXT
  5
6DB8
330
1E
100
AcDbEntity
  8
図枠
 62
     7
100
AcDbText
 10
1601.499442297123
 20
639.9949769465454
 30
0.0
 40
5.0
  1
3010
100
AcDbText
  0
TEXT
  5
6DB9
330
1E
100
AcDbEntity
  8
図枠
 62
     7
100
AcDbText
 10
1601.499442297123
 20
585.9949769465454
 30
0.0
 40
5.0
  1
3060
100
AcDbText
  0
TEXT
  5
6DBA
330
1E
100
AcDbEntity
  8
図枠
 62
     7
100
AcDbText
 10
1601.499442297123
 20
576.9949769465453
 30
0.0
 40
5.0
  1
3100
100
AcDbText
  0
TEXT
  5
6DBB
330
1E
100
AcDbEntity
  8
図枠
 62
     7
100
AcDbText
 10
1601.499442297123
 20
567.9949769465452
 30
0.0
 40
5.0
  1
3000
100
AcDbText
  0
TEXT
  5
6DBC
330
1E
100
AcDbEntity
  8
図枠
 62
     7
100
AcDbText
 10
1601.499442297123
 20
486.9949769465453
 30
0.0
 40
5.0
  1
6000
100
AcDbText
  0
TEXT
  5
6DBD
330
1E
100
AcDbEntity
  8
図枠
 62
     7
100
AcDbText
 10
1662.499442297124
 20
684.9949769465454
 30
0.0
 40
5.0
  1
定尺(mm)
100
AcDbText
  0
TEXT
  5
6DBE
330
1E
100
AcDbEntity
  8
図枠
 62
     7
100
AcDbText
 10
1669.499442297124
 20
675.9949769465452
 30
0.0
 40
5.0
  1
2000
100
AcDbText
  0
TEXT
  5
6DBF
330
1E
100
AcDbEntity
  8
図枠
 62
     7
100
AcDbText
 10
1669.499442297124
 20
666.9949769465453
 30
0.0
 40
5.0
  1
2000
100
AcDbText
  0
TEXT
  5
6DC0
330
1E
100
AcDbEntity
  8
図枠
 62
     7
100
AcDbText
 10
1669.499442297124
 20
657.9949769465454
 30
0.0
 40
5.0
  1
2000
100
AcDbText
  0
TEXT
  5
6DC1
330
1E
100
AcDbEntity
  8
図枠
 62
     7
100
AcDbText
 10
1669.499442297124
 20
648.9949769465454
 30
0.0
 40
5.0
  1
2000
100
AcDbText
  0
TEXT
  5
6DC2
330
1E
100
AcDbEntity
  8
図枠
 62
     7
100
AcDbText
 10
1669.499442297124
 20
639.9949769465454
 30
0.0
 40
5.0
  1
2010
100
AcDbText
  0
TEXT
  5
6DC3
330
1E
100
AcDbEntity
  8
図枠
 62
     7
100
AcDbText
 10
1669.499442297124
 20
585.9949769465454
 30
0.0
 40
5.0
  1
2060
100
AcDbText
  0
TEXT
  5
6DC4
330
1E
100
AcDbEntity
  8
図枠
 62
     7
100
AcDbText
 10
1669.499442297124
 20
576.9949769465453
 30
0.0
 40
5.0
  1
2100
100
AcDbText
  0
TEXT
  5
6DC5
330
1E
100
AcDbEntity
  8
図枠
 62
     7
100
AcDbText
 10
1669.499442297124
 20
567.9949769465452
 30
0.0
 40
5.0
  1
2000
100
AcDbText
  0
TEXT
  5
6DC6
330
1E
100
AcDbEntity
  8
図枠
 62
     7
100
AcDbText
 10
1669.499442297124
 20
486.9949769465453
 30
0.0
 40
5.0
  1
6000
100
AcDbText
  0
TEXT
  5
6DC7
330
1E
100
AcDbEntity
  8
図枠
 62
     7
100
AcDbText
 10
1628.249442297124
 20
684.9949769465454
 30
0.0
 40
5.0
  1
入数
100
AcDbText
  0
TEXT
  5
6DC8
330
1E
100
AcDbEntity
  8
図枠
 62
     7
100
AcDbText
 10
1631.499442297124
 20
675.9949769465452
 30
0.0
 40
5.0
  1
 1
100
AcDbText
  0
TEXT
  5
6DC9
330
1E
100
AcDbEntity
  8
図枠
 62
     7
100
AcDbText
 10
1631.499442297124
 20
666.9949769465453
 30
0.0
 40
5.0
  1
 1
100
AcDbText
  0
TEXT
  5
6DCA
330
1E
100
AcDbEntity
  8
図枠
 62
     7
100
AcDbText
 10
1631.499442297124
 20
657.9949769465454
 30
0.0
 40
5.0
  1
 1
100
AcDbText
  0
TEXT
  5
6DCB
330
1E
100
AcDbEntity
  8
図枠
 62
     7
100
AcDbText
 10
1631.499442297124
 20
648.9949769465454
 30
0.0
 40
5.0
  1
 1
100
AcDbText
  0
TEXT
  5
6DCC
330
1E
100
AcDbEntity
  8
図枠
 62
     7
100
AcDbText
 10
1631.499442297124
 20
639.9949769465454
 30
0.0
 40
5.0
  1
 1
100
AcDbText
  0
TEXT
  5
6DCD
330
1E
100
AcDbEntity
  8
図枠
 62
     7
100
AcDbText
 10
1631.499442297124
 20
630.9949769465454
 30
0.0
 40
5.0
  1
 6
100
AcDbText
  0
TEXT
  5
6DCE
330
1E
100
AcDbEntity
  8
図枠
 62
     7
100
AcDbText
 10
1631.499442297124
 20
621.9949769465454
 30
0.0
 40
5.0
  1
 6
100
AcDbText
  0
TEXT
  5
6DCF
330
1E
100
AcDbEntity
  8
図枠
 62
     7
100
AcDbText
 10
1631.499442297124
 20
612.9949769465454
 30
0.0
 40
5.0
  1
 6
100
AcDbText
  0
TEXT
  5
6DD0
330
1E
100
AcDbEntity
  8
図枠
 62
     7
100
AcDbText
 10
1631.499442297124
 20
603.9949769465454
 30
0.0
 40
5.0
  1
 1
100
AcDbText
  0
TEXT
  5
6DD1
330
1E
100
AcDbEntity
  8
図枠
 62
     7
100
AcDbText
 10
1631.499442297124
 20
594.9949769465454
 30
0.0
 40
5.0
  1
 1
100
AcDbText
  0
TEXT
  5
6DD2
330
1E
100
AcDbEntity
  8
図枠
 62
     7
100
AcDbText
 10
1631.499442297124
 20
585.9949769465454
 30
0.0
 40
5.0
  1
 1
100
AcDbText
  0
TEXT
  5
6DD3
330
1E
100
AcDbEntity
  8
図枠
 62
     7
100
AcDbText
 10
1631.499442297124
 20
576.9949769465453
 30
0.0
 40
5.0
  1
 1
100
AcDbText
  0
TEXT
  5
6DD4
330
1E
100
AcDbEntity
  8
図枠
 62
     7
100
AcDbText
 10
1631.499442297124
 20
567.9949769465452
 30
0.0
 40
5.0
  1
 1
100
AcDbText
  0
TEXT
  5
6DD5
330
1E
100
AcDbEntity
  8
図枠
 62
     7
100
AcDbText
 10
1631.499442297124
 20
558.9949769465452
 30
0.0
 40
5.0
  1
 6
100
AcDbText
  0
TEXT
  5
6DD6
330
1E
100
AcDbEntity
  8
図枠
 62
     7
100
AcDbText
 10
1631.499442297124
 20
549.9949769465453
 30
0.0
 40
5.0
  1
 6
100
AcDbText
  0
TEXT
  5
6DD7
330
1E
100
AcDbEntity
  8
図枠
 62
     7
100
AcDbText
 10
1631.499442297124
 20
540.9949769465453
 30
0.0
 40
5.0
  1
 6
100
AcDbText
  0
TEXT
  5
6DD8
330
1E
100
AcDbEntity
  8
図枠
 62
     7
100
AcDbText
 10
1631.499442297124
 20
531.9949769465454
 30
0.0
 40
5.0
  1
 6
100
AcDbText
  0
TEXT
  5
6DD9
330
1E
100
AcDbEntity
  8
図枠
 62
     7
100
AcDbText
 10
1631.499442297124
 20
522.9949769465454
 30
0.0
 40
5.0
  1
 6
100
AcDbText
  0
TEXT
  5
6DDA
330
1E
100
AcDbEntity
  8
図枠
 62
     7
100
AcDbText
 10
1631.499442297124
 20
513.9949769465454
 30
0.0
 40
5.0
  1
 6
100
AcDbText
  0
TEXT
  5
6DDB
330
1E
100
AcDbEntity
  8
図枠
 62
     7
100
AcDbText
 10
1631.499442297124
 20
504.9949769465453
 30
0.0
 40
5.0
  1
 6
100
AcDbText
  0
TEXT
  5
6DDC
330
1E
100
AcDbEntity
  8
図枠
 62
     7
100
AcDbText
 10
1631.499442297124
 20
495.9949769465453
 30
0.0
 40
5.0
  1
 6
100
AcDbText
  0
TEXT
  5
6DDD
330
1E
100
AcDbEntity
  8
図枠
 62
     7
100
AcDbText
 10
1631.499442297124
 20
486.9949769465453
 30
0.0
 40
5.0
  1
 1
100
AcDbText
  0
TEXT
  5
6DDE
330
1E
100
AcDbEntity
  8
図枠
 62
     7
100
AcDbText
 10
1696.249442297124
 20
684.9949769465454
 30
0.0
 40
5.0
  1
入数
100
AcDbText
  0
TEXT
  5
6DDF
330
1E
100
AcDbEntity
  8
図枠
 62
     7
100
AcDbText
 10
1699.499442297124
 20
675.9949769465452
 30
0.0
 40
5.0
  1
 1
100
AcDbText
  0
TEXT
  5
6DE0
330
1E
100
AcDbEntity
  8
図枠
 62
     7
100
AcDbText
 10
1699.499442297124
 20
666.9949769465453
 30
0.0
 40
5.0
  1
 1
100
AcDbText
  0
TEXT
  5
6DE1
330
1E
100
AcDbEntity
  8
図枠
 62
     7
100
AcDbText
 10
1699.499442297124
 20
657.9949769465454
 30
0.0
 40
5.0
  1
 1
100
AcDbText
  0
TEXT
  5
6DE2
330
1E
100
AcDbEntity
  8
図枠
 62
     7
100
AcDbText
 10
1699.499442297124
 20
648.9949769465454
 30
0.0
 40
5.0
  1
 1
100
AcDbText
  0
TEXT
  5
6DE3
330
1E
100
AcDbEntity
  8
図枠
 62
     7
100
AcDbText
 10
1699.499442297124
 20
639.9949769465454
 30
0.0
 40
5.0
  1
 1
100
AcDbText
  0
TEXT
  5
6DE4
330
1E
100
AcDbEntity
  8
図枠
 62
     7
100
AcDbText
 10
1699.499442297124
 20
630.9949769465454
 30
0.0
 40
5.0
  1
 4
100
AcDbText
  0
TEXT
  5
6DE5
330
1E
100
AcDbEntity
  8
図枠
 62
     7
100
AcDbText
 10
1699.499442297124
 20
621.9949769465454
 30
0.0
 40
5.0
  1
 4
100
AcDbText
  0
TEXT
  5
6DE6
330
1E
100
AcDbEntity
  8
図枠
 62
     7
100
AcDbText
 10
1699.499442297124
 20
612.9949769465454
 30
0.0
 40
5.0
  1
 4
100
AcDbText
  0
TEXT
  5
6DE7
330
1E
100
AcDbEntity
  8
図枠
 62
     7
100
AcDbText
 10
1699.499442297124
 20
603.9949769465454
 30
0.0
 40
5.0
  1
 1
100
AcDbText
  0
TEXT
  5
6DE8
330
1E
100
AcDbEntity
  8
図枠
 62
     7
100
AcDbText
 10
1699.499442297124
 20
594.9949769465454
 30
0.0
 40
5.0
  1
 1
100
AcDbText
  0
TEXT
  5
6DE9
330
1E
100
AcDbEntity
  8
図枠
 62
     7
100
AcDbText
 10
1699.499442297124
 20
585.9949769465454
 30
0.0
 40
5.0
  1
 1
100
AcDbText
  0
TEXT
  5
6DEA
330
1E
100
AcDbEntity
  8
図枠
 62
     7
100
AcDbText
 10
1699.499442297124
 20
576.9949769465453
 30
0.0
 40
5.0
  1
 1
100
AcDbText
  0
TEXT
  5
6DEB
330
1E
100
AcDbEntity
  8
図枠
 62
     7
100
AcDbText
 10
1699.499442297124
 20
567.9949769465452
 30
0.0
 40
5.0
  1
 1
100
AcDbText
  0
TEXT
  5
6DEC
330
1E
100
AcDbEntity
  8
図枠
 62
     7
100
AcDbText
 10
1699.499442297124
 20
558.9949769465452
 30
0.0
 40
5.0
  1
 4
100
AcDbText
  0
TEXT
  5
6DED
330
1E
100
AcDbEntity
  8
図枠
 62
     7
100
AcDbText
 10
1699.499442297124
 20
549.9949769465453
 30
0.0
 40
5.0
  1
 5
100
AcDbText
  0
TEXT
  5
6DEE
330
1E
100
AcDbEntity
  8
図枠
 62
     7
100
AcDbText
 10
1699.499442297124
 20
540.9949769465453
 30
0.0
 40
5.0
  1
 5
100
AcDbText
  0
TEXT
  5
6DEF
330
1E
100
AcDbEntity
  8
図枠
 62
     7
100
AcDbText
 10
1699.499442297124
 20
531.9949769465454
 30
0.0
 40
5.0
  1
 5
100
AcDbText
  0
TEXT
  5
6DF0
330
1E
100
AcDbEntity
  8
図枠
 62
     7
100
AcDbText
 10
1699.499442297124
 20
522.9949769465454
 30
0.0
 40
5.0
  1
 5
100
AcDbText
  0
TEXT
  5
6DF1
330
1E
100
AcDbEntity
  8
図枠
 62
     7
100
AcDbText
 10
1699.499442297124
 20
513.9949769465454
 30
0.0
 40
5.0
  1
 5
100
AcDbText
  0
TEXT
  5
6DF2
330
1E
100
AcDbEntity
  8
図枠
 62
     7
100
AcDbText
 10
1699.499442297124
 20
504.9949769465453
 30
0.0
 40
5.0
  1
 5
100
AcDbText
  0
TEXT
  5
6DF3
330
1E
100
AcDbEntity
  8
図枠
 62
     7
100
AcDbText
 10
1699.499442297124
 20
495.9949769465453
 30
0.0
 40
5.0
  1
 5
100
AcDbText
  0
TEXT
  5
6DF4
330
1E
100
AcDbEntity
  8
図枠
 62
     7
100
AcDbText
 10
1699.499442297124
 20
486.9949769465453
 30
0.0
 40
5.0
  1
 1
100
AcDbText
  0
TEXT
  5
6DF5
330
1E
100
AcDbEntity
  8
図枠
 62
     7
100
AcDbText
 10
1647.749442297124
 20
675.9949769465452
 30
0.0
 40
5.0
  1
本
100
AcDbText
  0
TEXT
  5
6DF6
330
1E
100
AcDbEntity
  8
図枠
 62
     7
100
AcDbText
 10
1647.749442297124
 20
666.9949769465453
 30
0.0
 40
5.0
  1
〃
100
AcDbText
  0
TEXT
  5
6DF7
330
1E
100
AcDbEntity
  8
図枠
 62
     7
100
AcDbText
 10
1647.749442297124
 20
657.9949769465454
 30
0.0
 40
5.0
  1
〃
100
AcDbText
  0
TEXT
  5
6DF8
330
1E
100
AcDbEntity
  8
図枠
 62
     7
100
AcDbText
 10
1647.749442297124
 20
648.9949769465454
 30
0.0
 40
5.0
  1
〃
100
AcDbText
  0
TEXT
  5
6DF9
330
1E
100
AcDbEntity
  8
図枠
 62
     7
100
AcDbText
 10
1647.749442297124
 20
639.9949769465454
 30
0.0
 40
5.0
  1
〃
100
AcDbText
  0
TEXT
  5
6DFA
330
1E
100
AcDbEntity
  8
図枠
 62
     7
100
AcDbText
 10
1647.749442297124
 20
630.9949769465454
 30
0.0
 40
5.0
  1
〃
100
AcDbText
  0
TEXT
  5
6DFB
330
1E
100
AcDbEntity
  8
図枠
 62
     7
100
AcDbText
 10
1647.749442297124
 20
621.9949769465454
 30
0.0
 40
5.0
  1
〃
100
AcDbText
  0
TEXT
  5
6DFC
330
1E
100
AcDbEntity
  8
図枠
 62
     7
100
AcDbText
 10
1647.749442297124
 20
612.9949769465454
 30
0.0
 40
5.0
  1
〃
100
AcDbText
  0
TEXT
  5
6DFD
330
1E
100
AcDbEntity
  8
図枠
 62
     7
100
AcDbText
 10
1647.749442297124
 20
603.9949769465454
 30
0.0
 40
5.0
  1
〃
100
AcDbText
  0
TEXT
  5
6DFE
330
1E
100
AcDbEntity
  8
図枠
 62
     7
100
AcDbText
 10
1647.749442297124
 20
594.9949769465454
 30
0.0
 40
5.0
  1
〃
100
AcDbText
  0
TEXT
  5
6DFF
330
1E
100
AcDbEntity
  8
図枠
 62
     7
100
AcDbText
 10
1647.749442297124
 20
585.9949769465454
 30
0.0
 40
5.0
  1
枚
100
AcDbText
  0
TEXT
  5
6E00
330
1E
100
AcDbEntity
  8
図枠
 62
     7
100
AcDbText
 10
1647.749442297124
 20
576.9949769465453
 30
0.0
 40
5.0
  1
〃
100
AcDbText
  0
TEXT
  5
6E01
330
1E
100
AcDbEntity
  8
図枠
 62
     7
100
AcDbText
 10
1647.749442297124
 20
567.9949769465452
 30
0.0
 40
5.0
  1
本
100
AcDbText
  0
TEXT
  5
6E02
330
1E
100
AcDbEntity
  8
図枠
 62
     7
100
AcDbText
 10
1647.749442297124
 20
558.9949769465452
 30
0.0
 40
5.0
  1
〃
100
AcDbText
  0
TEXT
  5
6E03
330
1E
100
AcDbEntity
  8
図枠
 62
     7
100
AcDbText
 10
1647.749442297124
 20
549.9949769465453
 30
0.0
 40
5.0
  1
〃
100
AcDbText
  0
TEXT
  5
6E04
330
1E
100
AcDbEntity
  8
図枠
 62
     7
100
AcDbText
 10
1647.749442297124
 20
540.9949769465453
 30
0.0
 40
5.0
  1
〃
100
AcDbText
  0
TEXT
  5
6E05
330
1E
100
AcDbEntity
  8
図枠
 62
     7
100
AcDbText
 10
1647.749442297124
 20
531.9949769465454
 30
0.0
 40
5.0
  1
〃
100
AcDbText
  0
TEXT
  5
6E06
330
1E
100
AcDbEntity
  8
図枠
 62
     7
100
AcDbText
 10
1647.749442297124
 20
522.9949769465454
 30
0.0
 40
5.0
  1
〃
100
AcDbText
  0
TEXT
  5
6E07
330
1E
100
AcDbEntity
  8
図枠
 62
     7
100
AcDbText
 10
1647.749442297124
 20
513.9949769465454
 30
0.0
 40
5.0
  1
〃
100
AcDbText
  0
TEXT
  5
6E08
330
1E
100
AcDbEntity
  8
図枠
 62
     7
100
AcDbText
 10
1647.749442297124
 20
504.9949769465453
 30
0.0
 40
5.0
  1
枚
100
AcDbText
  0
TEXT
  5
6E09
330
1E
100
AcDbEntity
  8
図枠
 62
     7
100
AcDbText
 10
1647.749442297124
 20
495.9949769465453
 30
0.0
 40
5.0
  1
〃
100
AcDbText
  0
TEXT
  5
6E0A
330
1E
100
AcDbEntity
  8
図枠
 62
     7
100
AcDbText
 10
1647.749442297124
 20
486.9949769465453
 30
0.0
 40
5.0
  1
巻
100
AcDbText
  0
TEXT
  5
6E0B
330
1E
100
AcDbEntity
  8
図枠
 62
     7
100
AcDbText
 10
1715.749442297124
 20
675.9949769465452
 30
0.0
 40
5.0
  1
本
100
AcDbText
  0
TEXT
  5
6E0C
330
1E
100
AcDbEntity
  8
図枠
 62
     7
100
AcDbText
 10
1715.749442297124
 20
666.9949769465453
 30
0.0
 40
5.0
  1
〃
100
AcDbText
  0
TEXT
  5
6E0D
330
1E
100
AcDbEntity
  8
図枠
 62
     7
100
AcDbText
 10
1715.749442297124
 20
657.9949769465454
 30
0.0
 40
5.0
  1
〃
100
AcDbText
  0
TEXT
  5
6E0E
330
1E
100
AcDbEntity
  8
図枠
 62
     7
100
AcDbText
 10
1715.749442297124
 20
648.9949769465454
 30
0.0
 40
5.0
  1
〃
100
AcDbText
  0
TEXT
  5
6E0F
330
1E
100
AcDbEntity
  8
図枠
 62
     7
100
AcDbText
 10
1715.749442297124
 20
639.9949769465454
 30
0.0
 40
5.0
  1
〃
100
AcDbText
  0
TEXT
  5
6E10
330
1E
100
AcDbEntity
  8
図枠
 62
     7
100
AcDbText
 10
1715.749442297124
 20
630.9949769465454
 30
0.0
 40
5.0
  1
〃
100
AcDbText
  0
TEXT
  5
6E11
330
1E
100
AcDbEntity
  8
図枠
 62
     7
100
AcDbText
 10
1715.749442297124
 20
621.9949769465454
 30
0.0
 40
5.0
  1
〃
100
AcDbText
  0
TEXT
  5
6E12
330
1E
100
AcDbEntity
  8
図枠
 62
     7
100
AcDbText
 10
1715.749442297124
 20
612.9949769465454
 30
0.0
 40
5.0
  1
〃
100
AcDbText
  0
TEXT
  5
6E13
330
1E
100
AcDbEntity
  8
図枠
 62
     7
100
AcDbText
 10
1715.749442297124
 20
603.9949769465454
 30
0.0
 40
5.0
  1
〃
100
AcDbText
  0
TEXT
  5
6E14
330
1E
100
AcDbEntity
  8
図枠
 62
     7
100
AcDbText
 10
1715.749442297124
 20
594.9949769465454
 30
0.0
 40
5.0
  1
〃
100
AcDbText
  0
TEXT
  5
6E15
330
1E
100
AcDbEntity
  8
図枠
 62
     7
100
AcDbText
 10
1715.749442297124
 20
585.9949769465454
 30
0.0
 40
5.0
  1
枚
100
AcDbText
  0
TEXT
  5
6E16
330
1E
100
AcDbEntity
  8
図枠
 62
     7
100
AcDbText
 10
1715.749442297124
 20
576.9949769465453
 30
0.0
 40
5.0
  1
〃
100
AcDbText
  0
TEXT
  5
6E17
330
1E
100
AcDbEntity
  8
図枠
 62
     7
100
AcDbText
 10
1715.749442297124
 20
567.9949769465452
 30
0.0
 40
5.0
  1
本
100
AcDbText
  0
TEXT
  5
6E18
330
1E
100
AcDbEntity
  8
図枠
 62
     7
100
AcDbText
 10
1715.749442297124
 20
558.9949769465452
 30
0.0
 40
5.0
  1
〃
100
AcDbText
  0
TEXT
  5
6E19
330
1E
100
AcDbEntity
  8
図枠
 62
     7
100
AcDbText
 10
1715.749442297124
 20
549.9949769465453
 30
0.0
 40
5.0
  1
〃
100
AcDbText
  0
TEXT
  5
6E1A
330
1E
100
AcDbEntity
  8
図枠
 62
     7
100
AcDbText
 10
1715.749442297124
 20
540.9949769465453
 30
0.0
 40
5.0
  1
〃
100
AcDbText
  0
TEXT
  5
6E1B
330
1E
100
AcDbEntity
  8
図枠
 62
     7
100
AcDbText
 10
1715.749442297124
 20
531.9949769465454
 30
0.0
 40
5.0
  1
〃
100
AcDbText
  0
TEXT
  5
6E1C
330
1E
100
AcDbEntity
  8
図枠
 62
     7
100
AcDbText
 10
1715.749442297124
 20
522.9949769465454
 30
0.0
 40
5.0
  1
〃
100
AcDbText
  0
TEXT
  5
6E1D
330
1E
100
AcDbEntity
  8
図枠
 62
     7
100
AcDbText
 10
1715.749442297124
 20
513.9949769465454
 30
0.0
 40
5.0
  1
〃
100
AcDbText
  0
TEXT
  5
6E1E
330
1E
100
AcDbEntity
  8
図枠
 62
     7
100
AcDbText
 10
1715.749442297124
 20
504.9949769465453
 30
0.0
 40
5.0
  1
枚
100
AcDbText
  0
TEXT
  5
6E1F
330
1E
100
AcDbEntity
  8
図枠
 62
     7
100
AcDbText
 10
1715.749442297124
 20
495.9949769465453
 30
0.0
 40
5.0
  1
〃
100
AcDbText
  0
TEXT
  5
6E20
330
1E
100
AcDbEntity
  8
図枠
 62
     7
100
AcDbText
 10
1715.749442297124
 20
486.9949769465453
 30
0.0
 40
5.0
  1
巻
100
AcDbText
  0
TEXT
  5
6E21
330
1E
100
AcDbEntity
  8
図枠
 62
     7
100
AcDbText
 10
1712.249442297124
 20
684.9949769465454
 30
0.0
 40
5.0
  1
単位
100
AcDbText
  0
TEXT
  5
6E22
330
1E
100
AcDbEntity
  8
図枠
 62
     7
100
AcDbText
 10
1644.249442297124
 20
684.9949769465454
 30
0.0
 40
5.0
  1
単位
100
AcDbText
  0
TEXT
  5
6E23
330
1E
100
AcDbEntity
  8
図枠
 62
     7
100
AcDbText
 10
1830.749442297124
 20
666.9949769465453
 30
0.0
 40
5.0
  1
225
100
AcDbText
  0
TEXT
  5
6E24
330
1E
100
AcDbEntity
  8
図枠
 62
     7
100
AcDbText
 10
1860.749442297124
 20
666.9949769465453
 30
0.0
 40
5.0
  1
210
100
AcDbText
  0
TEXT
  5
6E25
330
1E
100
AcDbEntity
  8
図枠
 62
     7
100
AcDbText
 10
1757.249442297124
 20
657.9949769465454
 30
0.0
 40
5.0
  1
　　 〃　 　250
100
AcDbText
  0
TEXT
  5
6E26
330
1E
100
AcDbEntity
  8
図枠
 62
     7
100
AcDbText
 10
1830.749442297124
 20
657.9949769465454
 30
0.0
 40
5.0
  1
250
100
AcDbText
  0
TEXT
  5
6E27
330
1E
100
AcDbEntity
  8
図枠
 62
     7
100
AcDbText
 10
1860.749442297124
 20
657.9949769465454
 30
0.0
 40
5.0
  1
235
100
AcDbText
  0
TEXT
  5
6E28
330
1E
100
AcDbEntity
  8
図枠
 62
     7
100
AcDbText
 10
1757.249442297124
 20
648.9949769465454
 30
0.0
 40
5.0
  1
　　 〃　 　275
100
AcDbText
  0
TEXT
  5
6E29
330
1E
100
AcDbEntity
  8
図枠
 62
     7
100
AcDbText
 10
1830.749442297124
 20
648.9949769465454
 30
0.0
 40
5.0
  1
275
100
AcDbText
  0
TEXT
  5
6E2A
330
1E
100
AcDbEntity
  8
図枠
 62
     7
100
AcDbText
 10
1860.749442297124
 20
648.9949769465454
 30
0.0
 40
5.0
  1
260
100
AcDbText
  0
TEXT
  5
6E2B
330
1E
100
AcDbEntity
  8
図枠
 62
     7
100
AcDbText
 10
1757.249442297124
 20
639.9949769465454
 30
0.0
 40
5.0
  1
　　 〃　 　300
100
AcDbText
  0
TEXT
  5
6E2C
330
1E
100
AcDbEntity
  8
図枠
 62
     7
100
AcDbText
 10
1830.749442297124
 20
639.9949769465454
 30
0.0
 40
5.0
  1
300
100
AcDbText
  0
TEXT
  5
6E2D
330
1E
100
AcDbEntity
  8
図枠
 62
     7
100
AcDbText
 10
1860.749442297124
 20
639.9949769465454
 30
0.0
 40
5.0
  1
285
100
AcDbText
  0
TEXT
  5
6E2E
330
1E
100
AcDbEntity
  8
図枠
 62
     7
100
AcDbText
 10
1757.249442297124
 20
630.9949769465454
 30
0.0
 40
5.0
  1
　　 〃　 　325
100
AcDbText
  0
TEXT
  5
6E2F
330
1E
100
AcDbEntity
  8
図枠
 62
     7
100
AcDbText
 10
1830.749442297124
 20
630.9949769465454
 30
0.0
 40
5.0
  1
325
100
AcDbText
  0
TEXT
  5
6E30
330
1E
100
AcDbEntity
  8
図枠
 62
     7
100
AcDbText
 10
1860.749442297124
 20
630.9949769465454
 30
0.0
 40
5.0
  1
310
100
AcDbText
  0
TEXT
  5
6E31
330
1E
100
AcDbEntity
  8
図枠
 62
     7
100
AcDbText
 10
1757.249442297124
 20
621.9949769465454
 30
0.0
 40
5.0
  1
　　 〃　 　350
100
AcDbText
  0
TEXT
  5
6E32
330
1E
100
AcDbEntity
  8
図枠
 62
     7
100
AcDbText
 10
1830.749442297124
 20
621.9949769465454
 30
0.0
 40
5.0
  1
350
100
AcDbText
  0
TEXT
  5
6E33
330
1E
100
AcDbEntity
  8
図枠
 62
     7
100
AcDbText
 10
1860.749442297124
 20
621.9949769465454
 30
0.0
 40
5.0
  1
335
100
AcDbText
  0
TEXT
  5
6E34
330
1E
100
AcDbEntity
  8
図枠
 62
     7
100
AcDbText
 10
1757.249442297124
 20
612.9949769465454
 30
0.0
 40
5.0
  1
　　 〃　 　375
100
AcDbText
  0
TEXT
  5
6E35
330
1E
100
AcDbEntity
  8
図枠
 62
     7
100
AcDbText
 10
1830.749442297124
 20
612.9949769465454
 30
0.0
 40
5.0
  1
375
100
AcDbText
  0
TEXT
  5
6E36
330
1E
100
AcDbEntity
  8
図枠
 62
     7
100
AcDbText
 10
1860.749442297124
 20
612.9949769465454
 30
0.0
 40
5.0
  1
360
100
AcDbText
  0
TEXT
  5
6E37
330
1E
100
AcDbEntity
  8
図枠
 62
     7
100
AcDbText
 10
1757.249442297124
 20
603.9949769465454
 30
0.0
 40
5.0
  1
　　 〃　 　400
100
AcDbText
  0
TEXT
  5
6E38
330
1E
100
AcDbEntity
  8
図枠
 62
     7
100
AcDbText
 10
1830.749442297124
 20
603.9949769465454
 30
0.0
 40
5.0
  1
400
100
AcDbText
  0
TEXT
  5
6E39
330
1E
100
AcDbEntity
  8
図枠
 62
     7
100
AcDbText
 10
1860.749442297124
 20
603.9949769465454
 30
0.0
 40
5.0
  1
385
100
AcDbText
  0
TEXT
  5
6E3A
330
1E
100
AcDbEntity
  8
図枠
 62
     7
100
AcDbText
 10
1757.249442297124
 20
594.9949769465454
 30
0.0
 40
5.0
  1
　　 〃　 　425
100
AcDbText
  0
TEXT
  5
6E3B
330
1E
100
AcDbEntity
  8
図枠
 62
     7
100
AcDbText
 10
1830.749442297124
 20
594.9949769465454
 30
0.0
 40
5.0
  1
425
100
AcDbText
  0
TEXT
  5
6E3C
330
1E
100
AcDbEntity
  8
図枠
 62
     7
100
AcDbText
 10
1860.749442297124
 20
594.9949769465454
 30
0.0
 40
5.0
  1
410
100
AcDbText
  0
TEXT
  5
6E3D
330
1E
100
AcDbEntity
  8
図枠
 62
     7
100
AcDbText
 10
1757.249442297124
 20
585.9949769465454
 30
0.0
 40
5.0
  1
　　 〃　 　450
100
AcDbText
  0
TEXT
  5
6E3E
330
1E
100
AcDbEntity
  8
図枠
 62
     7
100
AcDbText
 10
1830.749442297124
 20
585.9949769465454
 30
0.0
 40
5.0
  1
450
100
AcDbText
  0
TEXT
  5
6E3F
330
1E
100
AcDbEntity
  8
図枠
 62
     7
100
AcDbText
 10
1860.749442297124
 20
585.9949769465454
 30
0.0
 40
5.0
  1
435
100
AcDbText
  0
TEXT
  5
6E40
330
1E
100
AcDbEntity
  8
図枠
 62
     7
100
AcDbText
 10
1757.249442297124
 20
576.9949769465453
 30
0.0
 40
5.0
  1
　　 〃　 　475
100
AcDbText
  0
TEXT
  5
6E41
330
1E
100
AcDbEntity
  8
図枠
 62
     7
100
AcDbText
 10
1830.749442297124
 20
576.9949769465453
 30
0.0
 40
5.0
  1
475
100
AcDbText
  0
TEXT
  5
6E42
330
1E
100
AcDbEntity
  8
図枠
 62
     7
100
AcDbText
 10
1860.749442297124
 20
576.9949769465453
 30
0.0
 40
5.0
  1
460
100
AcDbText
  0
TEXT
  5
6E43
330
1E
100
AcDbEntity
  8
図枠
 62
     7
100
AcDbText
 10
1922.499442297124
 20
666.9949769465453
 30
0.0
 40
5.0
  1
55
100
AcDbText
  0
TEXT
  5
6E44
330
1E
100
AcDbEntity
  8
図枠
 62
     7
100
AcDbText
 10
1950.749442297124
 20
666.9949769465453
 30
0.0
 40
5.0
  1
114
100
AcDbText
  0
TEXT
  5
6E45
330
1E
100
AcDbEntity
  8
図枠
 62
     7
100
AcDbText
 10
1922.499442297124
 20
657.9949769465454
 30
0.0
 40
5.0
  1
57
100
AcDbText
  0
TEXT
  5
6E46
330
1E
100
AcDbEntity
  8
図枠
 62
     7
100
AcDbText
 10
1950.749442297124
 20
657.9949769465454
 30
0.0
 40
5.0
  1
115
100
AcDbText
  0
TEXT
  5
6E47
330
1E
100
AcDbEntity
  8
図枠
 62
     7
100
AcDbText
 10
1922.499442297124
 20
648.9949769465454
 30
0.0
 40
5.0
  1
58
100
AcDbText
  0
TEXT
  5
6E48
330
1E
100
AcDbEntity
  8
図枠
 62
     7
100
AcDbText
 10
1950.749442297124
 20
648.9949769465454
 30
0.0
 40
5.0
  1
117
100
AcDbText
  0
TEXT
  5
6E49
330
1E
100
AcDbEntity
  8
図枠
 62
     7
100
AcDbText
 10
1922.499442297124
 20
639.9949769465454
 30
0.0
 40
5.0
  1
59
100
AcDbText
  0
TEXT
  5
6E4A
330
1E
100
AcDbEntity
  8
図枠
 62
     7
100
AcDbText
 10
1950.749442297124
 20
639.9949769465454
 30
0.0
 40
5.0
  1
118
100
AcDbText
  0
TEXT
  5
6E4B
330
1E
100
AcDbEntity
  8
図枠
 62
     7
100
AcDbText
 10
1922.499442297124
 20
630.9949769465454
 30
0.0
 40
5.0
  1
61
100
AcDbText
  0
TEXT
  5
6E4C
330
1E
100
AcDbEntity
  8
図枠
 62
     7
100
AcDbText
 10
1950.749442297124
 20
630.9949769465454
 30
0.0
 40
5.0
  1
119
100
AcDbText
  0
TEXT
  5
6E4D
330
1E
100
AcDbEntity
  8
図枠
 62
     7
100
AcDbText
 10
1922.499442297124
 20
621.9949769465454
 30
0.0
 40
5.0
  1
62
100
AcDbText
  0
TEXT
  5
6E4E
330
1E
100
AcDbEntity
  8
図枠
 62
     7
100
AcDbText
 10
1950.749442297124
 20
621.9949769465454
 30
0.0
 40
5.0
  1
121
100
AcDbText
  0
TEXT
  5
6E4F
330
1E
100
AcDbEntity
  8
図枠
 62
     7
100
AcDbText
 10
1922.499442297124
 20
612.9949769465454
 30
0.0
 40
5.0
  1
63
100
AcDbText
  0
TEXT
  5
6E50
330
1E
100
AcDbEntity
  8
図枠
 62
     7
100
AcDbText
 10
1950.749442297124
 20
612.9949769465454
 30
0.0
 40
5.0
  1
122
100
AcDbText
  0
TEXT
  5
6E51
330
1E
100
AcDbEntity
  8
図枠
 62
     7
100
AcDbText
 10
1922.499442297124
 20
603.9949769465454
 30
0.0
 40
5.0
  1
64
100
AcDbText
  0
TEXT
  5
6E52
330
1E
100
AcDbEntity
  8
図枠
 62
     7
100
AcDbText
 10
1950.749442297124
 20
603.9949769465454
 30
0.0
 40
5.0
  1
123
100
AcDbText
  0
TEXT
  5
6E53
330
1E
100
AcDbEntity
  8
図枠
 62
     7
100
AcDbText
 10
1922.499442297124
 20
594.9949769465454
 30
0.0
 40
5.0
  1
66
100
AcDbText
  0
TEXT
  5
6E54
330
1E
100
AcDbEntity
  8
図枠
 62
     7
100
AcDbText
 10
1950.749442297124
 20
594.9949769465454
 30
0.0
 40
5.0
  1
124
100
AcDbText
  0
TEXT
  5
6E55
330
1E
100
AcDbEntity
  8
図枠
 62
     7
100
AcDbText
 10
1922.499442297124
 20
585.9949769465454
 30
0.0
 40
5.0
  1
67
100
AcDbText
  0
TEXT
  5
6E56
330
1E
100
AcDbEntity
  8
図枠
 62
     7
100
AcDbText
 10
1950.749442297124
 20
585.9949769465454
 30
0.0
 40
5.0
  1
126
100
AcDbText
  0
TEXT
  5
6E57
330
1E
100
AcDbEntity
  8
図枠
 62
     7
100
AcDbText
 10
1922.499442297124
 20
576.9949769465453
 30
0.0
 40
5.0
  1
68
100
AcDbText
  0
TEXT
  5
6E58
330
1E
100
AcDbEntity
  8
図枠
 62
     7
100
AcDbText
 10
1950.749442297124
 20
576.9949769465453
 30
0.0
 40
5.0
  1
127
100
AcDbText
  0
LINE
  5
6E59
330
1E
100
AcDbEntity
  8
図枠
  6
Continuous
 62
     7
100
AcDbLine
 10
1970.749442297124
 20
665.4949769465454
 30
0.0
 11
1745.749442297124
 21
665.4949769465454
 31
0.0
  0
LINE
  5
6E5A
330
1E
100
AcDbEntity
  8
図枠
  6
Continuous
 62
     7
100
AcDbLine
 10
1970.749442297124
 20
656.4949769465454
 30
0.0
 11
1745.749442297124
 21
656.4949769465454
 31
0.0
  0
LINE
  5
6E5B
330
1E
100
AcDbEntity
  8
図枠
  6
Continuous
 62
     7
100
AcDbLine
 10
1970.749442297124
 20
647.4949769465454
 30
0.0
 11
1745.749442297124
 21
647.4949769465454
 31
0.0
  0
LINE
  5
6E5C
330
1E
100
AcDbEntity
  8
図枠
  6
Continuous
 62
     7
100
AcDbLine
 10
1970.749442297124
 20
638.4949769465454
 30
0.0
 11
1745.749442297124
 21
638.4949769465454
 31
0.0
  0
LINE
  5
6E5D
330
1E
100
AcDbEntity
  8
図枠
  6
Continuous
 62
     7
100
AcDbLine
 10
1970.749442297124
 20
629.4949769465453
 30
0.0
 11
1745.749442297124
 21
629.4949769465453
 31
0.0
  0
LINE
  5
6E5E
330
1E
100
AcDbEntity
  8
図枠
  6
Continuous
 62
     7
100
AcDbLine
 10
1970.749442297124
 20
620.4949769465454
 30
0.0
 11
1745.749442297124
 21
620.4949769465454
 31
0.0
  0
LINE
  5
6E5F
330
1E
100
AcDbEntity
  8
図枠
  6
Continuous
 62
     7
100
AcDbLine
 10
1970.749442297124
 20
611.4949769465454
 30
0.0
 11
1745.749442297124
 21
611.4949769465454
 31
0.0
  0
LINE
  5
6E60
330
1E
100
AcDbEntity
  8
図枠
  6
Continuous
 62
     7
100
AcDbLine
 10
1970.749442297124
 20
602.4949769465454
 30
0.0
 11
1745.749442297124
 21
602.4949769465454
 31
0.0
  0
LINE
  5
6E61
330
1E
100
AcDbEntity
  8
図枠
  6
Continuous
 62
     7
100
AcDbLine
 10
1970.749442297124
 20
593.4949769465454
 30
0.0
 11
1745.749442297124
 21
593.4949769465454
 31
0.0
  0
LINE
  5
6E62
330
1E
100
AcDbEntity
  8
図枠
  6
Continuous
 62
     7
100
AcDbLine
 10
1970.749442297124
 20
584.4949769465454
 30
0.0
 11
1745.749442297124
 21
584.4949769465454
 31
0.0
  0
LINE
  5
6E63
330
1E
100
AcDbEntity
  8
図枠
  6
Continuous
 62
     7
100
AcDbLine
 10
1970.749442297124
 20
575.4949769465453
 30
0.0
 11
1745.749442297124
 21
575.4949769465453
 31
0.0
  0
TEXT
  5
6E64
330
1E
100
AcDbEntity
  8
図枠
 62
     7
100
AcDbText
 10
1766.249442297124
 20
684.9949769465454
 30
0.0
 40
5.0
  1
タ　イ　プ
100
AcDbText
  0
TEXT
  5
6E65
330
1E
100
AcDbEntity
  8
図枠
 62
     7
100
AcDbText
 10
1832.749442297124
 20
684.9949769465454
 30
0.0
 40
5.0
  1
Ｗ
100
AcDbText
  0
TEXT
  5
6E66
330
1E
100
AcDbEntity
  8
図枠
 62
     7
100
AcDbText
 10
1862.749442297124
 20
684.9949769465454
 30
0.0
 40
5.0
  1
Ａ
100
AcDbText
  0
TEXT
  5
6E67
330
1E
100
AcDbEntity
  8
図枠
 62
     7
100
AcDbText
 10
1892.749442297124
 20
684.9949769465454
 30
0.0
 40
5.0
  1
Ｃ
100
AcDbText
  0
TEXT
  5
6E68
330
1E
100
AcDbEntity
  8
図枠
 62
     7
100
AcDbText
 10
1922.749442297124
 20
684.9949769465454
 30
0.0
 40
5.0
  1
Ｄ
100
AcDbText
  0
TEXT
  5
6E69
330
1E
100
AcDbEntity
  8
図枠
 62
     7
100
AcDbText
 10
1952.749442297124
 20
684.9949769465454
 30
0.0
 40
5.0
  1
Ｅ
100
AcDbText
  0
LINE
  5
6E6A
330
1E
100
AcDbEntity
  8
図枠
  6
Continuous
 62
     7
100
AcDbLine
 10
1970.749442297124
 20
692.4949769465454
 30
0.0
 11
1745.749442297124
 21
692.4949769465454
 31
0.0
  0
LINE
  5
6E6B
330
1E
100
AcDbEntity
  8
図枠
  6
Continuous
 62
     7
100
AcDbLine
 10
1970.749442297124
 20
683.4949769465453
 30
0.0
 11
1745.749442297124
 21
683.4949769465453
 31
0.0
  0
LINE
  5
6E6C
330
1E
100
AcDbEntity
  8
図枠
  6
Continuous
 62
     7
100
AcDbLine
 10
1970.749442297124
 20
674.4949769465454
 30
0.0
 11
1745.749442297124
 21
674.4949769465454
 31
0.0
  0
TEXT
  5
6E6D
330
1E
100
AcDbEntity
  8
図枠
 62
     7
100
AcDbText
 10
1860.749442297124
 20
675.9949769465452
 30
0.0
 40
5.0
  1
185
100
AcDbText
  0
TEXT
  5
6E6E
330
1E
100
AcDbEntity
  8
図枠
 62
     7
100
AcDbText
 10
1830.749442297124
 20
675.9949769465452
 30
0.0
 40
5.0
  1
200
100
AcDbText
  0
TEXT
  5
6E6F
330
1E
100
AcDbEntity
  8
図枠
 62
     7
100
AcDbText
 10
1922.499442297124
 20
675.9949769465452
 30
0.0
 40
5.0
  1
54
100
AcDbText
  0
TEXT
  5
6E70
330
1E
100
AcDbEntity
  8
図枠
 62
     7
100
AcDbText
 10
1950.749442297124
 20
675.9949769465452
 30
0.0
 40
5.0
  1
113
100
AcDbText
  0
TEXT
  5
6E71
330
1E
100
AcDbEntity
  8
図枠
 62
     7
100
AcDbText
 10
1890.749442297124
 20
675.9949769465452
 30
0.0
 40
5.0
  1
100
100
AcDbText
  0
TEXT
  5
6E72
330
1E
100
AcDbEntity
  8
図枠
 62
     7
100
AcDbText
 10
1890.749442297124
 20
666.9949769465453
 30
0.0
 40
5.0
  1
125
100
AcDbText
  0
TEXT
  5
6E73
330
1E
100
AcDbEntity
  8
図枠
 62
     7
100
AcDbText
 10
1890.749442297124
 20
657.9949769465454
 30
0.0
 40
5.0
  1
150
100
AcDbText
  0
TEXT
  5
6E74
330
1E
100
AcDbEntity
  8
図枠
 62
     7
100
AcDbText
 10
1890.749442297124
 20
648.9949769465454
 30
0.0
 40
5.0
  1
175
100
AcDbText
  0
TEXT
  5
6E75
330
1E
100
AcDbEntity
  8
図枠
 62
     7
100
AcDbText
 10
1890.749442297124
 20
639.9949769465454
 30
0.0
 40
5.0
  1
200
100
AcDbText
  0
TEXT
  5
6E76
330
1E
100
AcDbEntity
  8
図枠
 62
     7
100
AcDbText
 10
1890.749442297124
 20
630.9949769465454
 30
0.0
 40
5.0
  1
225
100
AcDbText
  0
TEXT
  5
6E77
330
1E
100
AcDbEntity
  8
図枠
 62
     7
100
AcDbText
 10
1890.749442297124
 20
621.9949769465454
 30
0.0
 40
5.0
  1
250
100
AcDbText
  0
TEXT
  5
6E78
330
1E
100
AcDbEntity
  8
図枠
 62
     7
100
AcDbText
 10
1890.749442297124
 20
612.9949769465454
 30
0.0
 40
5.0
  1
275
100
AcDbText
  0
TEXT
  5
6E79
330
1E
100
AcDbEntity
  8
図枠
 62
     7
100
AcDbText
 10
1890.749442297124
 20
603.9949769465454
 30
0.0
 40
5.0
  1
300
100
AcDbText
  0
TEXT
  5
6E7A
330
1E
100
AcDbEntity
  8
図枠
 62
     7
100
AcDbText
 10
1890.749442297124
 20
594.9949769465454
 30
0.0
 40
5.0
  1
325
100
AcDbText
  0
TEXT
  5
6E7B
330
1E
100
AcDbEntity
  8
図枠
 62
     7
100
AcDbText
 10
1890.749442297124
 20
585.9949769465454
 30
0.0
 40
5.0
  1
350
100
AcDbText
  0
TEXT
  5
6E7C
330
1E
100
AcDbEntity
  8
図枠
 62
     7
100
AcDbText
 10
1890.749442297124
 20
576.9949769465453
 30
0.0
 40
5.0
  1
375
100
AcDbText
  0
TEXT
  5
6E7D
330
1E
100
AcDbEntity
  8
図枠
 62
     7
100
AcDbText
 10
1757.249442297124
 20
675.9949769465452
 30
0.0
 40
5.0
  1
50ＦＹＫ－Ａ200
100
AcDbText
  0
TEXT
  5
6E7E
330
1E
100
AcDbEntity
  8
図枠
 62
     7
100
AcDbText
 10
1757.249442297124
 20
666.9949769465453
 30
0.0
 40
5.0
  1
　　 〃　 　225
100
AcDbText
  0
LINE
  5
6E7F
330
1E
100
AcDbEntity
  8
図枠
  6
Continuous
 62
     7
100
AcDbLine
 10
1745.749442297124
 20
692.4949769465454
 30
0.0
 11
1745.749442297124
 21
575.4949769465453
 31
0.0
  0
LINE
  5
6E80
330
1E
100
AcDbEntity
  8
図枠
  6
Continuous
 62
     7
100
AcDbLine
 10
1970.749442297124
 20
692.4949769465454
 30
0.0
 11
1970.749442297124
 21
575.4949769465453
 31
0.0
  0
LINE
  5
6E81
330
1E
100
AcDbEntity
  8
図枠
  6
Continuous
 62
     7
100
AcDbLine
 10
1850.749442297124
 20
692.4949769465454
 30
0.0
 11
1850.749442297124
 21
575.4949769465453
 31
0.0
  0
LINE
  5
6E82
330
1E
100
AcDbEntity
  8
図枠
  6
Continuous
 62
     7
100
AcDbLine
 10
1820.749442297124
 20
692.4949769465454
 30
0.0
 11
1820.749442297124
 21
575.4949769465453
 31
0.0
  0
LINE
  5
6E83
330
1E
100
AcDbEntity
  8
図枠
  6
Continuous
 62
     7
100
AcDbLine
 10
1880.749442297124
 20
692.4949769465454
 30
0.0
 11
1880.749442297124
 21
575.4949769465453
 31
0.0
  0
LINE
  5
6E84
330
1E
100
AcDbEntity
  8
図枠
  6
Continuous
 62
     7
100
AcDbLine
 10
1910.749442297124
 20
692.4949769465454
 30
0.0
 11
1910.749442297124
 21
575.4949769465453
 31
0.0
  0
LINE
  5
6E85
330
1E
100
AcDbEntity
  8
図枠
  6
Continuous
 62
     7
100
AcDbLine
 10
1940.749442297124
 20
692.4949769465454
 30
0.0
 11
1940.749442297124
 21
575.4949769465453
 31
0.0
  0
TEXT
  5
6E86
330
1E
100
AcDbEntity
  8
図枠
 62
     7
100
AcDbText
 10
1499.749442297123
 20
675.9949769465452
 30
0.0
 40
5.0
  1
50ＦＹＫ－Ａ200～475
100
AcDbText
  0
TEXT
  5
6E87
330
1E
100
AcDbEntity
  8
図枠
 62
     7
100
AcDbText
 10
1499.749442297123
 20
630.9949769465454
 30
0.0
 40
5.0
  1
50ＦＹＫＨ－200～475
100
AcDbText
  0
TEXT
  5
6E88
330
1E
100
AcDbEntity
  8
図枠
 62
     7
100
AcDbText
 10
1499.749442297123
 20
603.9949769465454
 30
0.0
 40
5.0
  1
50ＦＹＫＪ－200～475
100
AcDbText
  0
LINE
  5
6E89
330
1E
100
AcDbEntity
  8
躯体と製品
  6
Continuous
 62
     4
100
AcDbLine
 10
1621.753271075645
 20
878.8185447578005
 30
0.0
 11
1619.410189035823
 21
881.1616267976219
 31
0.0
  0
LINE
  5
6E8A
330
1E
100
AcDbEntity
  8
躯体と製品
  6
Continuous
 62
     4
100
AcDbLine
 10
1621.8236960513
 20
880.162333344518
 30
0.0
 11
1620.902617457516
 21
881.0834119383018
 31
0.0
  0
LINE
  5
6E8B
330
1E
100
AcDbEntity
  8
躯体と製品
  6
Continuous
 62
     4
100
AcDbLine
 10
1621.682846099989
 20
877.4747561710823
 30
0.0
 11
1617.91776061413
 21
881.2398416569417
 31
0.0
  0
LINE
  5
6E8C
330
1E
100
AcDbEntity
  8
躯体と製品
  6
Continuous
 62
     4
100
AcDbLine
 10
1620.652350203371
 20
877.0910385053278
 30
0.0
 11
1616.425332192437
 21
881.3180565162612
 31
0.0
  0
LINE
  5
6E8D
330
1E
100
AcDbEntity
  8
躯体と製品
  6
Continuous
 62
     4
100
AcDbLine
 10
1619.15992178168
 20
877.1692533646474
 30
0.0
 11
1614.932903770746
 21
881.3962713755813
 31
0.0
  0
LINE
  5
6E8E
330
1E
100
AcDbEntity
  8
躯体と製品
  6
Continuous
 62
     4
100
AcDbLine
 10
1617.667493359986
 20
877.2474682239671
 30
0.0
 11
1613.440475349052
 21
881.4744862349012
 31
0.0
  0
LINE
  5
6E8F
330
1E
100
AcDbEntity
  8
躯体と製品
  6
Continuous
 62
     4
100
AcDbLine
 10
1616.175064938293
 20
877.325683083287
 30
0.0
 11
1611.948046927359
 21
881.5527010942208
 31
0.0
  0
LINE
  5
6E90
330
1E
100
AcDbEntity
  8
躯体と製品
  6
Continuous
 62
     4
100
AcDbLine
 10
1614.6826365166
 20
877.4038979426068
 30
0.0
 11
1610.455618505666
 21
881.6309159535407
 31
0.0
  0
LINE
  5
6E91
330
1E
100
AcDbEntity
  8
躯体と製品
  6
Continuous
 62
     4
100
AcDbLine
 10
1613.190208094907
 20
877.4821128019267
 30
0.0
 11
1608.963190083973
 21
881.7091308128604
 31
0.0
  0
LINE
  5
6E92
330
1E
100
AcDbEntity
  8
躯体と製品
  6
Continuous
 62
     4
100
AcDbLine
 10
1611.697779673214
 20
877.5603276612461
 30
0.0
 11
1607.47076166228
 21
881.7873456721804
 31
0.0
  0
LINE
  5
6E93
330
1E
100
AcDbEntity
  8
躯体と製品
  6
Continuous
 62
     4
100
AcDbLine
 10
1610.205351251521
 20
877.6385425205665
 30
0.0
 11
1606.846855873375
 21
880.9970378987124
 31
0.0
  0
LINE
  5
6E94
330
1E
100
AcDbEntity
  8
躯体と製品
  6
Continuous
 62
     4
100
AcDbLine
 10
1608.712922829827
 20
877.7167573798864
 30
0.0
 11
1606.776430897719
 21
879.6532493119951
 31
0.0
  0
LINE
  5
6E95
330
1E
100
AcDbEntity
  8
躯体と製品
  6
Continuous
 62
     4
100
AcDbLine
 10
1607.220494408136
 20
877.7949722392062
 30
0.0
 11
1606.706005922063
 21
878.3094607252788
 31
0.0
  0
LINE
  5
6E96
330
1E
100
AcDbEntity
  8
躯体と製品
  6
Continuous
 62
     4
100
AcDbLine
 10
1607.456006211229
 20
882.2888051456013
 30
0.0
 11
1606.941517725156
 21
882.8032936316745
 31
0.0
  0
LINE
  5
6E97
330
1E
100
AcDbEntity
  8
躯体と製品
  6
DASHED1
 62
     7
100
AcDbLine
 10
1605.581470706432
 20
856.8520505656479
 30
0.0
 11
1610.574618380204
 21
856.5903707844329
 31
0.0
  0
LINE
  5
6E98
330
1E
100
AcDbEntity
  8
躯体と製品
  6
DASHED1
 62
     7
100
AcDbLine
 10
1610.574618380204
 20
856.5903707844329
 30
0.0
 11
1610.626954336447
 21
857.5890003191876
 31
0.0
  0
LINE
  5
6E99
330
1E
100
AcDbEntity
  8
躯体と製品
  6
DASHED1
 62
     7
100
AcDbLine
 10
1610.626954336447
 20
857.5890003191876
 30
0.0
 11
1630.599545031539
 21
856.5422811943287
 31
0.0
  0
LINE
  5
6E9A
330
1E
100
AcDbEntity
  8
躯体と製品
  6
DASHED1
 62
     7
100
AcDbLine
 10
1630.547209075296
 20
855.5436516595744
 30
0.0
 11
1630.599545031539
 21
856.5422811943287
 31
0.0
  0
LINE
  5
6E9B
330
1E
100
AcDbEntity
  8
躯体と製品
  6
DASHED1
 62
     7
100
AcDbLine
 10
1630.547209075296
 20
855.5436516595744
 30
0.0
 11
1634.042412446937
 21
855.3604758127239
 31
0.0
  0
ARC
  5
6E9C
330
1E
100
AcDbEntity
  8
躯体と製品
  6
DASHED1
 62
     7
100
AcDbCircle
 10
1634.120916381301
 20
856.8584201148556
 30
0.0
 40
1.500000000000001
100
AcDbArc
 50
266.9999999999944
 51
86.99999999999441
  0
LINE
  5
6E9D
330
1E
100
AcDbEntity
  8
躯体と製品
  6
DASHED1
 62
     7
100
AcDbLine
 10
1605.738478575161
 20
859.8479391699115
 30
0.0
 11
1634.199420315666
 21
858.3563644169876
 31
0.0
  0
LINE
  5
6E9E
330
1E
100
AcDbEntity
  8
躯体と製品
  6
Continuous
 62
     3
100
AcDbLine
 10
1584.049442297124
 20
906.3818573023628
 30
0.0
 11
1584.049442297124
 21
904.8666268198548
 31
0.0
  0
LINE
  5
6E9F
330
1E
100
AcDbEntity
  8
躯体と製品
  6
Continuous
 62
     3
100
AcDbLine
 10
1580.405233889588
 20
908.4642621066684
 30
0.0
 11
1584.049442297124
 21
906.3818573023628
 31
0.0
  0
ARC
  5
6EA0
330
1E
100
AcDbEntity
  8
躯体と製品
  6
Continuous
 62
     3
100
AcDbCircle
 10
1581.149442297124
 20
909.7666268198549
 30
0.0
 40
1.5
100
AcDbArc
 50
180.0
 51
240.2551187030594
  0
LINE
  5
6EA1
330
1E
100
AcDbEntity
  8
躯体と製品
  6
Continuous
 62
     3
100
AcDbLine
 10
1579.649442297124
 20
909.7666268198549
 30
0.0
 11
1579.649442297124
 21
913.016626819855
 31
0.0
  0
ARC
  5
6EA2
330
1E
100
AcDbEntity
  8
躯体と製品
  6
Continuous
 62
     3
100
AcDbCircle
 10
1597.249442297124
 20
859.2914583634987
 30
0.0
 40
2.0
100
AcDbArc
 50
180.0
 51
266.9999999999944
  0
LINE
  5
6EA3
330
1E
100
AcDbEntity
  8
躯体と製品
  6
Continuous
 62
     3
100
AcDbLine
 10
1597.144770384638
 20
857.2941992939895
 30
0.0
 11
1603.584211636922
 21
856.9567224781335
 31
0.0
  0
LINE
  5
6EA4
330
1E
100
AcDbEntity
  8
躯体と製品
  6
Continuous
 62
     3
100
AcDbLine
 10
1595.249442297124
 20
859.2914583634987
 30
0.0
 11
1595.249442297124
 21
866.766626819855
 31
0.0
  0
ARC
  5
6EA5
330
1E
100
AcDbEntity
  8
躯体と製品
  6
Continuous
 62
     3
100
AcDbCircle
 10
1598.749442297124
 20
861.2155913865699
 30
0.0
 40
1.0
100
AcDbArc
 50
180.0
 51
266.9999999999944
  0
LINE
  5
6EA6
330
1E
100
AcDbEntity
  8
躯体と製品
  6
Continuous
 62
     3
100
AcDbLine
 10
1598.697106340881
 20
860.2169618518153
 30
0.0
 11
1603.741219505651
 21
859.9526110823974
 31
0.0
  0
LINE
  5
6EA7
330
1E
100
AcDbEntity
  8
躯体と製品
  6
Continuous
 62
     3
100
AcDbLine
 10
1597.749442297124
 20
861.2155913865699
 30
0.0
 11
1597.749442297124
 21
868.2666268198547
 31
0.0
  0
ARC
  5
6EA8
330
1E
100
AcDbEntity
  8
躯体と製品
  6
Continuous
 62
     3
100
AcDbCircle
 10
1603.558043658801
 20
856.4574077107565
 30
0.0
 40
0.5
100
AcDbArc
 50
357.0000000000011
 51
86.99999999999441
  0
LINE
  5
6EA9
330
1E
100
AcDbEntity
  8
躯体と製品
  6
Continuous
 62
     3
100
AcDbLine
 10
1604.057358426178
 20
856.431239732635
 30
0.0
 11
1604.005022469935
 21
855.4326101978803
 31
0.0
  0
ARC
  5
6EAA
330
1E
100
AcDbEntity
  8
躯体と製品
  6
Continuous
 62
     3
100
AcDbCircle
 10
1604.504337237313
 20
855.4064422197589
 30
0.0
 40
0.5
100
AcDbArc
 50
177.0000000000011
 51
266.9999999999944
  0
LINE
  5
6EAB
330
1E
100
AcDbEntity
  8
躯体と製品
  6
Continuous
 62
     3
100
AcDbLine
 10
1604.478169259191
 20
854.9071274523814
 30
0.0
 11
1604.977484026569
 21
854.8809594742602
 31
0.0
  0
ARC
  5
6EAC
330
1E
100
AcDbEntity
  8
躯体と製品
  6
Continuous
 62
     3
100
AcDbCircle
 10
1605.00365200469
 20
855.3802742416372
 30
0.0
 40
0.5
100
AcDbArc
 50
266.9999999999944
 51
357.0000000000011
  0
LINE
  5
6EAD
330
1E
100
AcDbEntity
  8
躯体と製品
  6
Continuous
 62
     3
100
AcDbLine
 10
1605.450630815824
 20
854.3554767287616
 30
0.0
 11
1606.916037590627
 21
882.3171037018896
 31
0.0
  0
ARC
  5
6EAE
330
1E
100
AcDbEntity
  8
躯体と製品
  6
Continuous
 62
     3
100
AcDbCircle
 10
1603.767387483773
 20
860.4519258497745
 30
0.0
 40
0.5
100
AcDbArc
 50
266.9999999999944
 51
357.0000000000011
  0
LINE
  5
6EAF
330
1E
100
AcDbEntity
  8
躯体と製品
  6
Continuous
 62
     3
100
AcDbLine
 10
1604.26670225115
 20
860.4257578716532
 30
0.0
 11
1604.371374163636
 21
862.4230169411623
 31
0.0
  0
ARC
  5
6EB0
330
1E
100
AcDbEntity
  8
躯体と製品
  6
Continuous
 62
     3
100
AcDbCircle
 10
1604.870688931013
 20
862.3968489630406
 30
0.0
 40
0.5
100
AcDbArc
 50
86.99999999999441
 51
177.0000000000011
  0
LINE
  5
6EB1
330
1E
100
AcDbEntity
  8
躯体と製品
  6
Continuous
 62
     3
100
AcDbLine
 10
1604.896856909135
 20
862.8961637304181
 30
0.0
 11
1605.396171676512
 21
862.8699957522966
 31
0.0
  0
ARC
  5
6EB2
330
1E
100
AcDbEntity
  8
躯体と製品
  6
Continuous
 62
     3
100
AcDbCircle
 10
1605.37000369839
 20
862.3706809849194
 30
0.0
 40
0.5
100
AcDbArc
 50
357.0000000000011
 51
86.99999999999441
  0
LINE
  5
6EB3
330
1E
100
AcDbEntity
  8
躯体と製品
  6
Continuous
 62
     3
100
AcDbLine
 10
1585.749442297124
 20
906.2666268198549
 30
0.0
 11
1591.249442297123
 21
906.2666268198549
 31
0.0
  0
LINE
  5
6EB4
330
1E
100
AcDbEntity
  8
躯体と製品
  6
Continuous
 62
     3
100
AcDbLine
 10
1592.249442297124
 20
907.766626819855
 30
0.0
 11
1584.649442297124
 21
907.766626819855
 31
0.0
  0
ARC
  5
6EB5
330
1E
100
AcDbEntity
  8
躯体と製品
  6
Continuous
 62
     3
100
AcDbCircle
 10
1585.749442297124
 20
905.766626819855
 30
0.0
 40
0.5
100
AcDbArc
 50
90.0
 51
180.0
  0
LINE
  5
6EB6
330
1E
100
AcDbEntity
  8
躯体と製品
  6
Continuous
 62
     3
100
AcDbLine
 10
1585.249442297124
 20
905.766626819855
 30
0.0
 11
1585.249442297124
 21
904.8666268198548
 31
0.0
  0
LINE
  5
6EB7
330
1E
100
AcDbEntity
  8
躯体と製品
  6
Continuous
 62
     3
100
AcDbLine
 10
1581.149442297124
 20
909.7666268198549
 30
0.0
 11
1584.649442297124
 21
907.766626819855
 31
0.0
  0
LINE
  5
6EB8
330
1E
100
AcDbEntity
  8
躯体と製品
  6
Continuous
 62
     3
100
AcDbLine
 10
1581.149442297124
 20
913.016626819855
 30
0.0
 11
1581.149442297124
 21
909.7666268198549
 31
0.0
  0
ARC
  5
6EB9
330
1E
100
AcDbEntity
  8
躯体と製品
  6
Continuous
 62
     3
100
AcDbCircle
 10
1580.399442297124
 20
913.016626819855
 30
0.0
 40
0.75
100
AcDbArc
 50
0.0
 51
180.0
  0
ARC
  5
6EBA
330
1E
100
AcDbEntity
  8
躯体と製品
  6
Continuous
 62
     3
100
AcDbCircle
 10
1584.649442297124
 20
904.8666268198548
 30
0.0
 40
0.5999999999999998
100
AcDbArc
 50
180.0
 51
0.0
  0
LINE
  5
6EBB
330
1E
100
AcDbEntity
  8
躯体と製品
  6
Continuous
 62
     3
100
AcDbLine
 10
1593.249442297124
 20
893.266626819855
 30
0.0
 11
1593.249442297124
 21
906.766626819855
 31
0.0
  0
ARC
  5
6EBC
330
1E
100
AcDbEntity
  8
躯体と製品
  6
Continuous
 62
     3
100
AcDbCircle
 10
1590.749442297124
 20
902.266626819855
 30
0.0
 40
1.0
100
AcDbArc
 50
270.0
 51
0.0
  0
LINE
  5
6EBD
330
1E
100
AcDbEntity
  8
躯体と製品
  6
Continuous
 62
     3
100
AcDbLine
 10
1594.249442297124
 20
867.7666268198549
 30
0.0
 11
1583.749442297124
 21
867.7666268198549
 31
0.0
  0
LINE
  5
6EBE
330
1E
100
AcDbEntity
  8
躯体と製品
  6
Continuous
 62
     3
100
AcDbLine
 10
1590.749442297124
 20
901.266626819855
 30
0.0
 11
1586.249442297124
 21
901.266626819855
 31
0.0
  0
LINE
  5
6EBF
330
1E
100
AcDbEntity
  8
躯体と製品
  6
Continuous
 62
     3
100
AcDbLine
 10
1595.749442297124
 20
870.266626819855
 30
0.0
 11
1587.749442297124
 21
870.266626819855
 31
0.0
  0
LINE
  5
6EC0
330
1E
100
AcDbEntity
  8
躯体と製品
  6
Continuous
 62
     3
100
AcDbLine
 10
1587.249442297124
 20
899.766626819855
 30
0.0
 11
1591.249442297123
 21
899.766626819855
 31
0.0
  0
ARC
  5
6EC1
330
1E
100
AcDbEntity
  8
躯体と製品
  6
Continuous
 62
     3
100
AcDbCircle
 10
1595.749442297124
 20
868.2666268198547
 30
0.0
 40
2.0
100
AcDbArc
 50
0.0
 51
90.0
  0
ARC
  5
6EC2
330
1E
100
AcDbEntity
  8
躯体と製品
  6
Continuous
 62
     3
100
AcDbCircle
 10
1594.249442297124
 20
866.766626819855
 30
0.0
 40
1.0
100
AcDbArc
 50
0.0
 51
90.0
  0
LINE
  5
6EC3
330
1E
100
AcDbEntity
  8
躯体と製品
  6
Continuous
 62
     3
100
AcDbLine
 10
1592.749442297124
 20
892.7666268198549
 30
0.0
 11
1591.749442297124
 21
892.7666268198549
 31
0.0
  0
ARC
  5
6EC4
330
1E
100
AcDbEntity
  8
躯体と製品
  6
Continuous
 62
     3
100
AcDbCircle
 10
1592.749442297124
 20
893.266626819855
 30
0.0
 40
0.5
100
AcDbArc
 50
270.0
 51
0.0
  0
LINE
  5
6EC5
330
1E
100
AcDbEntity
  8
躯体と製品
  6
Continuous
 62
     3
100
AcDbLine
 10
1591.749442297124
 20
899.2666268198549
 30
0.0
 11
1591.749442297124
 21
894.7666268198549
 31
0.0
  0
ARC
  5
6EC6
330
1E
100
AcDbEntity
  8
躯体と製品
  6
Continuous
 62
     3
100
AcDbCircle
 10
1591.249442297123
 20
899.2666268198549
 30
0.0
 40
0.5
100
AcDbArc
 50
0.0
 51
90.0
  0
ARC
  5
6EC7
330
1E
100
AcDbEntity
  8
躯体と製品
  6
Continuous
 62
     3
100
AcDbCircle
 10
1591.749442297124
 20
893.7666268198549
 30
0.0
 40
1.0
100
AcDbArc
 50
90.0
 51
270.0
  0
ARC
  5
6EC8
330
1E
100
AcDbEntity
  8
躯体と製品
  6
Continuous
 62
     3
100
AcDbCircle
 10
1592.249442297124
 20
906.766626819855
 30
0.0
 40
1.0
100
AcDbArc
 50
0.0
 51
90.0
  0
LINE
  5
6EC9
330
1E
100
AcDbEntity
  8
躯体と製品
  6
Continuous
 62
     3
100
AcDbLine
 10
1591.749442297124
 20
902.266626819855
 30
0.0
 11
1591.749442297124
 21
905.766626819855
 31
0.0
  0
ARC
  5
6ECA
330
1E
100
AcDbEntity
  8
躯体と製品
  6
Continuous
 62
     3
100
AcDbCircle
 10
1591.249442297123
 20
905.766626819855
 30
0.0
 40
0.5
100
AcDbArc
 50
0.0
 51
90.0
  0
ARC
  5
6ECB
330
1E
100
AcDbEntity
  8
躯体と製品
  6
Continuous
 62
     3
100
AcDbCircle
 10
1587.749442297124
 20
871.266626819855
 30
0.0
 40
1.0
100
AcDbArc
 50
180.0
 51
270.0
  0
ARC
  5
6ECC
330
1E
100
AcDbEntity
  8
躯体と製品
  6
Continuous
 62
     3
100
AcDbCircle
 10
1587.249442297124
 20
899.2666268198549
 30
0.0
 40
0.5
100
AcDbArc
 50
90.0
 51
180.0
  0
LINE
  5
6ECD
330
1E
100
AcDbEntity
  8
躯体と製品
  6
Continuous
 62
     3
100
AcDbLine
 10
1586.749442297124
 20
871.266626819855
 30
0.0
 11
1586.749442297124
 21
899.2666268198549
 31
0.0
  0
LINE
  5
6ECE
330
1E
100
AcDbEntity
  8
躯体と製品
  6
Continuous
 62
     3
100
AcDbLine
 10
1584.249442297124
 20
869.2666268198548
 30
0.0
 11
1582.749442297124
 21
869.2666268198548
 31
0.0
  0
ARC
  5
6ECF
330
1E
100
AcDbEntity
  8
躯体と製品
  6
Continuous
 62
     3
100
AcDbCircle
 10
1584.249442297124
 20
869.7666268198549
 30
0.0
 40
0.5
100
AcDbArc
 50
270.0
 51
0.0
  0
LINE
  5
6ED0
330
1E
100
AcDbEntity
  8
躯体と製品
  6
Continuous
 62
     3
100
AcDbLine
 10
1584.749442297123
 20
869.7666268198549
 30
0.0
 11
1584.749442297123
 21
899.766626819855
 31
0.0
  0
ARC
  5
6ED1
330
1E
100
AcDbEntity
  8
躯体と製品
  6
Continuous
 62
     3
100
AcDbCircle
 10
1586.249442297124
 20
899.766626819855
 30
0.0
 40
1.5
100
AcDbArc
 50
90.0
 51
180.0
  0
ARC
  5
6ED2
330
1E
100
AcDbEntity
  8
躯体と製品
  6
Continuous
 62
     3
100
AcDbCircle
 10
1583.749442297124
 20
867.266626819855
 30
0.0
 40
0.5
100
AcDbArc
 50
90.0
 51
180.0
  0
LINE
  5
6ED3
330
1E
100
AcDbEntity
  8
躯体と製品
  6
Continuous
 62
     3
100
AcDbLine
 10
1583.249442297124
 20
867.266626819855
 30
0.0
 11
1583.249442297124
 21
866.0166268198548
 31
0.0
  0
ARC
  5
6ED4
330
1E
100
AcDbEntity
  8
躯体と製品
  6
Continuous
 62
     3
100
AcDbCircle
 10
1582.499442297124
 20
866.0166268198548
 30
0.0
 40
0.75
100
AcDbArc
 50
180.0
 51
0.0
  0
ARC
  5
6ED5
330
1E
100
AcDbEntity
  8
躯体と製品
  6
Continuous
 62
     3
100
AcDbCircle
 10
1582.749442297124
 20
868.2666268198547
 30
0.0
 40
1.0
100
AcDbArc
 50
90.0
 51
180.0
  0
LINE
  5
6ED6
330
1E
100
AcDbEntity
  8
躯体と製品
  6
Continuous
 62
     3
100
AcDbLine
 10
1581.749442297124
 20
868.2666268198547
 30
0.0
 11
1581.749442297124
 21
866.0166268198548
 31
0.0
  0
LINE
  5
6ED7
330
1E
100
AcDbEntity
  8
躯体と製品
  6
Continuous
 62
     7
100
AcDbLine
 10
1621.659968808852
 20
877.0382314518499
 30
0.0
 11
1621.869312633824
 21
881.0327495908682
 31
0.0
  0
LINE
  5
6ED8
330
1E
100
AcDbEntity
  8
躯体と製品
  6
Continuous
 62
     7
100
AcDbLine
 10
1606.889869612505
 20
881.8177889345122
 30
0.0
 11
1621.869312633824
 21
881.0327495908682
 31
0.0
  0
LINE
  5
6ED9
330
1E
100
AcDbEntity
  8
躯体と製品
  6
Continuous
 62
     7
100
AcDbLine
 10
1598.749442297124
 20
890.766626819855
 30
0.0
 11
1607.749442297124
 21
890.766626819855
 31
0.0
  0
ARC
  5
6EDA
330
1E
100
AcDbEntity
  8
躯体と製品
  6
Continuous
 62
     7
100
AcDbCircle
 10
1607.249442297124
 20
891.2666268198549
 30
0.0
 40
0.5
100
AcDbArc
 50
0.0
 51
90.0
  0
LINE
  5
6EDB
330
1E
100
AcDbEntity
  8
躯体と製品
  6
Continuous
 62
     7
100
AcDbLine
 10
1607.749442297124
 20
891.2666268198549
 30
0.0
 11
1607.749442297124
 21
890.766626819855
 31
0.0
  0
LINE
  5
6EDC
330
1E
100
AcDbEntity
  8
躯体と製品
  6
Continuous
 62
     7
100
AcDbLine
 10
1599.049442297124
 20
891.766626819855
 30
0.0
 11
1607.249442297124
 21
891.766626819855
 31
0.0
  0
ARC
  5
6EDD
330
1E
100
AcDbEntity
  8
躯体と製品
  6
Continuous
 62
     7
100
AcDbCircle
 10
1598.749442297124
 20
891.766626819855
 30
0.0
 40
1.0
100
AcDbArc
 50
180.0
 51
270.0
  0
ARC
  5
6EDE
330
1E
100
AcDbEntity
  8
躯体と製品
  6
Continuous
 62
     7
100
AcDbCircle
 10
1599.049442297124
 20
892.0666268198552
 30
0.0
 40
0.2999999999999999
100
AcDbArc
 50
180.0
 51
270.0
  0
LINE
  5
6EDF
330
1E
100
AcDbEntity
  8
躯体と製品
  6
Continuous
 62
     3
100
AcDbLine
 10
1579.249442297124
 20
884.266626819855
 30
0.0
 11
1579.249442297124
 21
902.2666268198547
 31
0.0
  0
LINE
  5
6EE0
330
1E
100
AcDbEntity
  8
躯体と製品
  6
Continuous
 62
     3
100
AcDbLine
 10
1576.749442297123
 20
904.266626819855
 30
0.0
 11
1576.749442297123
 21
902.7666268198547
 31
0.0
  0
LINE
  5
6EE1
330
1E
100
AcDbEntity
  8
躯体と製品
  6
Continuous
 62
     3
100
AcDbLine
 10
1576.749442297123
 20
864.7666268198547
 30
0.0
 11
1576.749442297123
 21
863.2666268198549
 31
0.0
  0
LINE
  5
6EE2
330
1E
100
AcDbEntity
  8
躯体と製品
  6
Continuous
 62
     3
100
AcDbLine
 10
1585.499442297124
 20
856.766626819855
 30
0.0
 11
1584.249442297124
 21
856.766626819855
 31
0.0
  0
LINE
  5
6EE3
330
1E
100
AcDbEntity
  8
躯体と製品
  6
Continuous
 62
     3
100
AcDbLine
 10
1585.499442297124
 20
852.7666268198549
 30
0.0
 11
1584.249442297124
 21
852.7666268198549
 31
0.0
  0
ARC
  5
6EE4
330
1E
100
AcDbEntity
  8
躯体と製品
  6
Continuous
 62
     3
100
AcDbCircle
 10
1577.249442297124
 20
862.766626819855
 30
0.0
 40
0.5
100
AcDbArc
 50
0.0
 51
90.0
  0
LINE
  5
6EE5
330
1E
100
AcDbEntity
  8
躯体と製品
  6
Continuous
 62
     3
100
AcDbLine
 10
1577.249442297124
 20
863.2666268198549
 30
0.0
 11
1576.749442297123
 21
863.2666268198549
 31
0.0
  0
LINE
  5
6EE6
330
1E
100
AcDbEntity
  8
躯体と製品
  6
Continuous
 62
     3
100
AcDbLine
 10
1585.499442297124
 20
851.2666268198547
 30
0.0
 11
1576.749442297123
 21
851.2666268198547
 31
0.0
  0
LINE
  5
6EE7
330
1E
100
AcDbEntity
  8
躯体と製品
  6
Continuous
 62
     3
100
AcDbLine
 10
1576.749442297123
 20
851.2666268198547
 30
0.0
 11
1576.749442297123
 21
852.7666268198549
 31
0.0
  0
LINE
  5
6EE8
330
1E
100
AcDbEntity
  8
躯体と製品
  6
Continuous
 62
     3
100
AcDbLine
 10
1577.249442297124
 20
852.7666268198549
 30
0.0
 11
1576.749442297123
 21
852.7666268198549
 31
0.0
  0
ARC
  5
6EE9
330
1E
100
AcDbEntity
  8
躯体と製品
  6
Continuous
 62
     3
100
AcDbCircle
 10
1577.249442297124
 20
853.2666268198548
 30
0.0
 40
0.5
100
AcDbArc
 50
270.0
 51
0.0
  0
LINE
  5
6EEA
330
1E
100
AcDbEntity
  8
躯体と製品
  6
Continuous
 62
     3
100
AcDbLine
 10
1577.749442297124
 20
853.2666268198548
 30
0.0
 11
1577.749442297124
 21
862.766626819855
 31
0.0
  0
LINE
  5
6EEB
330
1E
100
AcDbEntity
  8
躯体と製品
  6
Continuous
 62
     3
100
AcDbLine
 10
1579.249442297124
 20
853.2666268198548
 30
0.0
 11
1579.249442297124
 21
856.2666268198549
 31
0.0
  0
LINE
  5
6EEC
330
1E
100
AcDbEntity
  8
躯体と製品
  6
Continuous
 62
     3
100
AcDbLine
 10
1584.249442297124
 20
852.7666268198549
 30
0.0
 11
1584.249442297124
 21
852.266626819855
 31
0.0
  0
LINE
  5
6EED
330
1E
100
AcDbEntity
  8
躯体と製品
  6
Continuous
 62
     3
100
AcDbLine
 10
1583.249442297124
 20
852.7666268198549
 30
0.0
 11
1584.249442297124
 21
852.266626819855
 31
0.0
  0
LINE
  5
6EEE
330
1E
100
AcDbEntity
  8
躯体と製品
  6
Continuous
 62
     3
100
AcDbLine
 10
1583.249442297124
 20
852.7666268198549
 30
0.0
 11
1583.249442297124
 21
852.266626819855
 31
0.0
  0
LINE
  5
6EEF
330
1E
100
AcDbEntity
  8
躯体と製品
  6
Continuous
 62
     3
100
AcDbLine
 10
1582.249442297124
 20
852.7666268198549
 30
0.0
 11
1583.249442297124
 21
852.266626819855
 31
0.0
  0
ARC
  5
6EF0
330
1E
100
AcDbEntity
  8
躯体と製品
  6
Continuous
 62
     3
100
AcDbCircle
 10
1585.499442297124
 20
852.0166268198549
 30
0.0
 40
0.75
100
AcDbArc
 50
270.0
 51
90.0
  0
LINE
  5
6EF1
330
1E
100
AcDbEntity
  8
躯体と製品
  6
Continuous
 62
     3
100
AcDbLine
 10
1579.749442297124
 20
852.7666268198549
 30
0.0
 11
1582.249442297124
 21
852.7666268198549
 31
0.0
  0
ARC
  5
6EF2
330
1E
100
AcDbEntity
  8
躯体と製品
  6
Continuous
 62
     3
100
AcDbCircle
 10
1579.749442297124
 20
853.2666268198548
 30
0.0
 40
0.5
100
AcDbArc
 50
180.0
 51
270.0
  0
ARC
  5
6EF3
330
1E
100
AcDbEntity
  8
躯体と製品
  6
Continuous
 62
     3
100
AcDbCircle
 10
1590.499442297124
 20
864.016626819855
 30
0.0
 40
0.75
100
AcDbArc
 50
270.0
 51
90.0
  0
LINE
  5
6EF4
330
1E
100
AcDbEntity
  8
躯体と製品
  6
Continuous
 62
     3
100
AcDbLine
 10
1579.749442297124
 20
864.7666268198547
 30
0.0
 11
1590.499442297124
 21
864.7666268198547
 31
0.0
  0
ARC
  5
6EF5
330
1E
100
AcDbEntity
  8
躯体と製品
  6
Continuous
 62
     3
100
AcDbCircle
 10
1579.749442297124
 20
865.2666268198547
 30
0.0
 40
0.5
100
AcDbArc
 50
180.0
 51
270.0
  0
LINE
  5
6EF6
330
1E
100
AcDbEntity
  8
躯体と製品
  6
Continuous
 62
     3
100
AcDbLine
 10
1579.249442297124
 20
865.2666268198547
 30
0.0
 11
1579.249442297124
 21
883.2666268198549
 31
0.0
  0
LINE
  5
6EF7
330
1E
100
AcDbEntity
  8
躯体と製品
  6
Continuous
 62
     3
100
AcDbLine
 10
1579.749442297124
 20
863.2666268198549
 30
0.0
 11
1590.499442297124
 21
863.2666268198549
 31
0.0
  0
ARC
  5
6EF8
330
1E
100
AcDbEntity
  8
躯体と製品
  6
Continuous
 62
     3
100
AcDbCircle
 10
1579.749442297124
 20
862.766626819855
 30
0.0
 40
0.5
100
AcDbArc
 50
90.0
 51
180.0
  0
LINE
  5
6EF9
330
1E
100
AcDbEntity
  8
躯体と製品
  6
Continuous
 62
     3
100
AcDbLine
 10
1579.249442297124
 20
862.766626819855
 30
0.0
 11
1579.249442297124
 21
858.766626819855
 31
0.0
  0
LINE
  5
6EFA
330
1E
100
AcDbEntity
  8
躯体と製品
  6
Continuous
 62
     3
100
AcDbLine
 10
1589.249442297124
 20
903.266626819855
 30
0.0
 11
1589.249442297124
 21
903.7666268198549
 31
0.0
  0
ARC
  5
6EFB
330
1E
100
AcDbEntity
  8
躯体と製品
  6
Continuous
 62
     3
100
AcDbCircle
 10
1588.749442297124
 20
903.266626819855
 30
0.0
 40
0.5
100
AcDbArc
 50
270.0
 51
0.0
  0
LINE
  5
6EFC
330
1E
100
AcDbEntity
  8
躯体と製品
  6
Continuous
 62
     3
100
AcDbLine
 10
1588.749442297124
 20
902.7666268198547
 30
0.0
 11
1579.749442297124
 21
902.7666268198547
 31
0.0
  0
ARC
  5
6EFD
330
1E
100
AcDbEntity
  8
躯体と製品
  6
Continuous
 62
     3
100
AcDbCircle
 10
1588.749442297124
 20
903.7666268198549
 30
0.0
 40
0.5
100
AcDbArc
 50
0.0
 51
90.0
  0
ARC
  5
6EFE
330
1E
100
AcDbEntity
  8
躯体と製品
  6
Continuous
 62
     3
100
AcDbCircle
 10
1579.749442297124
 20
902.2666268198547
 30
0.0
 40
0.5
100
AcDbArc
 50
90.0
 51
180.0
  0
ARC
  5
6EFF
330
1E
100
AcDbEntity
  8
躯体と製品
  6
Continuous
 62
     3
100
AcDbCircle
 10
1585.499442297124
 20
857.5166268198547
 30
0.0
 40
0.75
100
AcDbArc
 50
270.0
 51
90.0
  0
LINE
  5
6F00
330
1E
100
AcDbEntity
  8
躯体と製品
  6
Continuous
 62
     3
100
AcDbLine
 10
1584.249442297124
 20
857.2666268198549
 30
0.0
 11
1584.249442297124
 21
856.766626819855
 31
0.0
  0
LINE
  5
6F01
330
1E
100
AcDbEntity
  8
躯体と製品
  6
Continuous
 62
     3
100
AcDbLine
 10
1583.249442297124
 20
856.766626819855
 30
0.0
 11
1584.249442297124
 21
857.2666268198549
 31
0.0
  0
LINE
  5
6F02
330
1E
100
AcDbEntity
  8
躯体と製品
  6
Continuous
 62
     3
100
AcDbLine
 10
1583.249442297124
 20
857.2666268198549
 30
0.0
 11
1583.249442297124
 21
856.766626819855
 31
0.0
  0
LINE
  5
6F03
330
1E
100
AcDbEntity
  8
躯体と製品
  6
Continuous
 62
     3
100
AcDbLine
 10
1582.249442297124
 20
856.766626819855
 30
0.0
 11
1583.249442297124
 21
857.2666268198549
 31
0.0
  0
LINE
  5
6F04
330
1E
100
AcDbEntity
  8
躯体と製品
  6
Continuous
 62
     3
100
AcDbLine
 10
1579.749442297124
 20
856.766626819855
 30
0.0
 11
1582.249442297124
 21
856.766626819855
 31
0.0
  0
ARC
  5
6F05
330
1E
100
AcDbEntity
  8
躯体と製品
  6
Continuous
 62
     3
100
AcDbCircle
 10
1579.749442297124
 20
856.2666268198549
 30
0.0
 40
0.5
100
AcDbArc
 50
90.0
 51
180.0
  0
ARC
  5
6F06
330
1E
100
AcDbEntity
  8
躯体と製品
  6
Continuous
 62
     3
100
AcDbCircle
 10
1579.749442297124
 20
858.766626819855
 30
0.0
 40
0.5
100
AcDbArc
 50
180.0
 51
270.0
  0
LINE
  5
6F07
330
1E
100
AcDbEntity
  8
躯体と製品
  6
Continuous
 62
     3
100
AcDbLine
 10
1579.749442297124
 20
858.2666268198549
 30
0.0
 11
1585.499442297124
 21
858.2666268198549
 31
0.0
  0
LINE
  5
6F08
330
1E
100
AcDbEntity
  8
躯体と製品
  6
Continuous
 62
     3
100
AcDbLine
 10
1579.749442297124
 20
904.266626819855
 30
0.0
 11
1588.749442297124
 21
904.266626819855
 31
0.0
  0
ARC
  5
6F09
330
1E
100
AcDbEntity
  8
躯体と製品
  6
Continuous
 62
     3
100
AcDbCircle
 10
1579.749442297124
 20
904.766626819855
 30
0.0
 40
0.5
100
AcDbArc
 50
180.0
 51
270.0
  0
LINE
  5
6F0A
330
1E
100
AcDbEntity
  8
躯体と製品
  6
Continuous
 62
     3
100
AcDbLine
 10
1577.249442297124
 20
864.7666268198547
 30
0.0
 11
1576.749442297123
 21
864.7666268198547
 31
0.0
  0
LINE
  5
6F0B
330
1E
100
AcDbEntity
  8
躯体と製品
  6
Continuous
 62
     3
100
AcDbLine
 10
1577.249442297124
 20
878.7666268198549
 30
0.0
 11
1577.249442297124
 21
864.7666268198547
 31
0.0
  0
LINE
  5
6F0C
330
1E
100
AcDbEntity
  8
躯体と製品
  6
Continuous
 62
     3
100
AcDbLine
 10
1577.249442297124
 20
902.7666268198547
 30
0.0
 11
1577.249442297124
 21
888.7666268198547
 31
0.0
  0
LINE
  5
6F0D
330
1E
100
AcDbEntity
  8
躯体と製品
  6
Continuous
 62
     3
100
AcDbLine
 10
1576.749442297123
 20
902.7666268198547
 30
0.0
 11
1577.249442297124
 21
902.7666268198547
 31
0.0
  0
LINE
  5
6F0E
330
1E
100
AcDbEntity
  8
躯体と製品
  6
Continuous
 62
     3
100
AcDbLine
 10
1577.249442297124
 20
904.266626819855
 30
0.0
 11
1576.749442297123
 21
904.266626819855
 31
0.0
  0
LINE
  5
6F0F
330
1E
100
AcDbEntity
  8
躯体と製品
  6
Continuous
 62
     3
100
AcDbLine
 10
1579.249442297124
 20
904.766626819855
 30
0.0
 11
1579.249442297124
 21
915.2666268198547
 31
0.0
  0
LINE
  5
6F10
330
1E
100
AcDbEntity
  8
躯体と製品
  6
Continuous
 62
     3
100
AcDbLine
 10
1577.249442297124
 20
915.766626819855
 30
0.0
 11
1577.249442297124
 21
904.266626819855
 31
0.0
  0
ARC
  5
6F11
330
1E
100
AcDbEntity
  8
躯体と製品
  6
Continuous
 62
     3
100
AcDbCircle
 10
1587.149442297124
 20
936.8666268198548
 30
0.0
 40
0.5999999999999999
100
AcDbArc
 50
270.0
 51
90.0
  0
ARC
  5
6F12
330
1E
100
AcDbEntity
  8
躯体と製品
  6
Continuous
 62
     3
100
AcDbCircle
 10
1587.149442297124
 20
931.6666268198551
 30
0.0
 40
0.5999999999999999
100
AcDbArc
 50
270.0
 51
90.0
  0
LINE
  5
6F13
330
1E
100
AcDbEntity
  8
躯体と製品
  6
Continuous
 62
     3
100
AcDbLine
 10
1576.749442297123
 20
917.266626819855
 30
0.0
 11
1576.749442297123
 21
915.766626819855
 31
0.0
  0
LINE
  5
6F14
330
1E
100
AcDbEntity
  8
躯体と製品
  6
Continuous
 62
     3
100
AcDbLine
 10
1585.749442297124
 20
937.466626819855
 30
0.0
 11
1587.149442297124
 21
937.466626819855
 31
0.0
  0
LINE
  5
6F15
330
1E
100
AcDbEntity
  8
躯体と製品
  6
Continuous
 62
     3
100
AcDbLine
 10
1586.449442297124
 20
925.5666268198551
 30
0.0
 11
1586.449442297124
 21
931.0666268198552
 31
0.0
  0
LINE
  5
6F16
330
1E
100
AcDbEntity
  8
躯体と製品
  6
Continuous
 62
     3
100
AcDbLine
 10
1586.449442297124
 20
931.0666268198552
 30
0.0
 11
1587.149442297124
 21
931.0666268198552
 31
0.0
  0
LINE
  5
6F17
330
1E
100
AcDbEntity
  8
躯体と製品
  6
Continuous
 62
     3
100
AcDbLine
 10
1585.749442297124
 20
938.2666268198549
 30
0.0
 11
1585.749442297124
 21
937.466626819855
 31
0.0
  0
LINE
  5
6F18
330
1E
100
AcDbEntity
  8
躯体と製品
  6
Continuous
 62
     3
100
AcDbLine
 10
1576.749442297123
 20
937.766626819855
 30
0.0
 11
1576.749442297123
 21
930.2666268198549
 31
0.0
  0
ARC
  5
6F19
330
1E
100
AcDbEntity
  8
躯体と製品
  6
Continuous
 62
     3
100
AcDbCircle
 10
1577.249442297124
 20
937.766626819855
 30
0.0
 40
0.5
100
AcDbArc
 50
90.0
 51
180.0
  0
LINE
  5
6F1A
330
1E
100
AcDbEntity
  8
躯体と製品
  6
Continuous
 62
     3
100
AcDbLine
 10
1577.249442297124
 20
938.2666268198549
 30
0.0
 11
1585.749442297124
 21
938.2666268198549
 31
0.0
  0
LINE
  5
6F1B
330
1E
100
AcDbEntity
  8
躯体と製品
  6
Continuous
 62
     3
100
AcDbLine
 10
1580.249442297124
 20
932.766626819855
 30
0.0
 11
1579.749442297124
 21
932.2666268198549
 31
0.0
  0
LINE
  5
6F1C
330
1E
100
AcDbEntity
  8
躯体と製品
  6
Continuous
 62
     3
100
AcDbLine
 10
1580.749442297124
 20
932.2666268198549
 30
0.0
 11
1580.249442297124
 21
932.766626819855
 31
0.0
  0
LINE
  5
6F1D
330
1E
100
AcDbEntity
  8
躯体と製品
  6
Continuous
 62
     3
100
AcDbLine
 10
1581.249442297124
 20
932.766626819855
 30
0.0
 11
1580.749442297124
 21
932.2666268198549
 31
0.0
  0
LINE
  5
6F1E
330
1E
100
AcDbEntity
  8
躯体と製品
  6
Continuous
 62
     3
100
AcDbLine
 10
1581.749442297124
 20
932.2666268198549
 30
0.0
 11
1581.249442297124
 21
932.766626819855
 31
0.0
  0
LINE
  5
6F1F
330
1E
100
AcDbEntity
  8
躯体と製品
  6
Continuous
 62
     3
100
AcDbLine
 10
1582.249442297124
 20
932.766626819855
 30
0.0
 11
1581.749442297124
 21
932.2666268198549
 31
0.0
  0
LINE
  5
6F20
330
1E
100
AcDbEntity
  8
躯体と製品
  6
Continuous
 62
     3
100
AcDbLine
 10
1582.749442297124
 20
932.2666268198549
 30
0.0
 11
1582.249442297124
 21
932.766626819855
 31
0.0
  0
LINE
  5
6F21
330
1E
100
AcDbEntity
  8
躯体と製品
  6
Continuous
 62
     3
100
AcDbLine
 10
1583.249442297124
 20
932.766626819855
 30
0.0
 11
1582.749442297124
 21
932.2666268198549
 31
0.0
  0
LINE
  5
6F22
330
1E
100
AcDbEntity
  8
躯体と製品
  6
Continuous
 62
     3
100
AcDbLine
 10
1583.749442297124
 20
932.2666268198549
 30
0.0
 11
1583.249442297124
 21
932.766626819855
 31
0.0
  0
LINE
  5
6F23
330
1E
100
AcDbEntity
  8
躯体と製品
  6
Continuous
 62
     3
100
AcDbLine
 10
1584.249442297124
 20
932.766626819855
 30
0.0
 11
1583.749442297124
 21
932.2666268198549
 31
0.0
  0
LINE
  5
6F24
330
1E
100
AcDbEntity
  8
躯体と製品
  6
Continuous
 62
     3
100
AcDbLine
 10
1584.749442297123
 20
932.2666268198549
 30
0.0
 11
1584.249442297124
 21
932.766626819855
 31
0.0
  0
LINE
  5
6F25
330
1E
100
AcDbEntity
  8
躯体と製品
  6
Continuous
 62
     3
100
AcDbLine
 10
1580.249442297124
 20
935.7666268198547
 30
0.0
 11
1579.749442297124
 21
936.266626819855
 31
0.0
  0
LINE
  5
6F26
330
1E
100
AcDbEntity
  8
躯体と製品
  6
Continuous
 62
     3
100
AcDbLine
 10
1580.749442297124
 20
936.266626819855
 30
0.0
 11
1580.249442297124
 21
935.7666268198547
 31
0.0
  0
LINE
  5
6F27
330
1E
100
AcDbEntity
  8
躯体と製品
  6
Continuous
 62
     3
100
AcDbLine
 10
1581.249442297124
 20
935.7666268198547
 30
0.0
 11
1580.749442297124
 21
936.266626819855
 31
0.0
  0
LINE
  5
6F28
330
1E
100
AcDbEntity
  8
躯体と製品
  6
Continuous
 62
     3
100
AcDbLine
 10
1581.749442297124
 20
936.266626819855
 30
0.0
 11
1581.249442297124
 21
935.7666268198547
 31
0.0
  0
LINE
  5
6F29
330
1E
100
AcDbEntity
  8
躯体と製品
  6
Continuous
 62
     3
100
AcDbLine
 10
1582.249442297124
 20
935.7666268198547
 30
0.0
 11
1581.749442297124
 21
936.266626819855
 31
0.0
  0
LINE
  5
6F2A
330
1E
100
AcDbEntity
  8
躯体と製品
  6
Continuous
 62
     3
100
AcDbLine
 10
1582.749442297124
 20
936.266626819855
 30
0.0
 11
1582.249442297124
 21
935.7666268198547
 31
0.0
  0
LINE
  5
6F2B
330
1E
100
AcDbEntity
  8
躯体と製品
  6
Continuous
 62
     3
100
AcDbLine
 10
1583.249442297124
 20
935.7666268198547
 30
0.0
 11
1582.749442297124
 21
936.266626819855
 31
0.0
  0
LINE
  5
6F2C
330
1E
100
AcDbEntity
  8
躯体と製品
  6
Continuous
 62
     3
100
AcDbLine
 10
1583.749442297124
 20
936.266626819855
 30
0.0
 11
1583.249442297124
 21
935.7666268198547
 31
0.0
  0
LINE
  5
6F2D
330
1E
100
AcDbEntity
  8
躯体と製品
  6
Continuous
 62
     3
100
AcDbLine
 10
1584.249442297124
 20
935.7666268198547
 30
0.0
 11
1583.749442297124
 21
936.266626819855
 31
0.0
  0
LINE
  5
6F2E
330
1E
100
AcDbEntity
  8
躯体と製品
  6
Continuous
 62
     3
100
AcDbLine
 10
1584.749442297123
 20
936.266626819855
 30
0.0
 11
1584.249442297124
 21
935.7666268198547
 31
0.0
  0
LINE
  5
6F2F
330
1E
100
AcDbEntity
  8
躯体と製品
  6
Continuous
 62
     3
100
AcDbLine
 10
1584.749442297123
 20
932.2666268198549
 30
0.0
 11
1587.249442297124
 21
932.2666268198549
 31
0.0
  0
LINE
  5
6F30
330
1E
100
AcDbEntity
  8
躯体と製品
  6
Continuous
 62
     3
100
AcDbLine
 10
1584.749442297123
 20
936.266626819855
 30
0.0
 11
1587.249442297124
 21
936.266626819855
 31
0.0
  0
ARC
  5
6F31
330
1E
100
AcDbEntity
  8
躯体と製品
  6
Continuous
 62
     3
100
AcDbCircle
 10
1578.549442297124
 20
935.966626819855
 30
0.0
 40
0.2999999999999999
100
AcDbArc
 50
90.0
 51
180.0
  0
LINE
  5
6F32
330
1E
100
AcDbEntity
  8
躯体と製品
  6
Continuous
 62
     3
100
AcDbLine
 10
1578.549442297124
 20
936.266626819855
 30
0.0
 11
1579.749442297124
 21
936.266626819855
 31
0.0
  0
LINE
  5
6F33
330
1E
100
AcDbEntity
  8
躯体と製品
  6
Continuous
 62
     3
100
AcDbLine
 10
1578.549442297124
 20
932.2666268198549
 30
0.0
 11
1579.749442297124
 21
932.2666268198549
 31
0.0
  0
ARC
  5
6F34
330
1E
100
AcDbEntity
  8
躯体と製品
  6
Continuous
 62
     3
100
AcDbCircle
 10
1578.549442297124
 20
932.5666268198551
 30
0.0
 40
0.2999999999999999
100
AcDbArc
 50
180.0
 51
270.0
  0
LINE
  5
6F35
330
1E
100
AcDbEntity
  8
躯体と製品
  6
Continuous
 62
     3
100
AcDbLine
 10
1578.249442297124
 20
932.5666268198551
 30
0.0
 11
1578.249442297124
 21
935.966626819855
 31
0.0
  0
ARC
  5
6F36
330
1E
100
AcDbEntity
  8
躯体と製品
  6
Continuous
 62
     3
100
AcDbCircle
 10
1582.849442297124
 20
910.3666268198551
 30
0.0
 40
0.5999999999999999
100
AcDbArc
 50
90.0
 51
270.0
  0
ARC
  5
6F37
330
1E
100
AcDbEntity
  8
躯体と製品
  6
Continuous
 62
     3
100
AcDbCircle
 10
1583.749442297124
 20
911.4666268198551
 30
0.0
 40
0.5
100
AcDbArc
 50
270.0
 51
0.0
  0
LINE
  5
6F38
330
1E
100
AcDbEntity
  8
躯体と製品
  6
Continuous
 62
     3
100
AcDbLine
 10
1583.749442297124
 20
910.966626819855
 30
0.0
 11
1582.849442297124
 21
910.966626819855
 31
0.0
  0
LINE
  5
6F39
330
1E
100
AcDbEntity
  8
躯体と製品
  6
Continuous
 62
     3
100
AcDbLine
 10
1583.749442297124
 20
915.766626819855
 30
0.0
 11
1579.749442297124
 21
915.766626819855
 31
0.0
  0
ARC
  5
6F3A
330
1E
100
AcDbEntity
  8
躯体と製品
  6
Continuous
 62
     3
100
AcDbCircle
 10
1583.749442297124
 20
915.2666268198547
 30
0.0
 40
0.5
100
AcDbArc
 50
0.0
 51
90.0
  0
LINE
  5
6F3B
330
1E
100
AcDbEntity
  8
躯体と製品
  6
Continuous
 62
     3
100
AcDbLine
 10
1584.249442297124
 20
915.2666268198547
 30
0.0
 11
1584.249442297124
 21
911.4666268198551
 31
0.0
  0
LINE
  5
6F3C
330
1E
100
AcDbEntity
  8
躯体と製品
  6
Continuous
 62
     3
100
AcDbLine
 10
1584.749442297123
 20
909.7666268198548
 30
0.0
 11
1582.849442297124
 21
909.7666268198548
 31
0.0
  0
ARC
  5
6F3D
330
1E
100
AcDbEntity
  8
躯体と製品
  6
Continuous
 62
     3
100
AcDbCircle
 10
1584.749442297123
 20
910.7666268198547
 30
0.0
 40
1.0
100
AcDbArc
 50
270.0
 51
0.0
  0
LINE
  5
6F3E
330
1E
100
AcDbEntity
  8
躯体と製品
  6
Continuous
 62
     3
100
AcDbLine
 10
1585.749442297124
 20
910.7666268198547
 30
0.0
 11
1585.749442297124
 21
916.766626819855
 31
0.0
  0
ARC
  5
6F3F
330
1E
100
AcDbEntity
  8
躯体と製品
  6
Continuous
 62
     3
100
AcDbCircle
 10
1585.249442297124
 20
916.766626819855
 30
0.0
 40
0.5
100
AcDbArc
 50
0.0
 51
90.0
  0
LINE
  5
6F40
330
1E
100
AcDbEntity
  8
躯体と製品
  6
Continuous
 62
     3
100
AcDbLine
 10
1585.249442297124
 20
917.266626819855
 30
0.0
 11
1579.749442297124
 21
917.266626819855
 31
0.0
  0
ARC
  5
6F41
330
1E
100
AcDbEntity
  8
躯体と製品
  6
Continuous
 62
     3
100
AcDbCircle
 10
1579.749442297124
 20
917.7666268198549
 30
0.0
 40
0.5
100
AcDbArc
 50
180.0
 51
270.0
  0
ARC
  5
6F42
330
1E
100
AcDbEntity
  8
躯体と製品
  6
Continuous
 62
     3
100
AcDbCircle
 10
1579.749442297124
 20
915.2666268198547
 30
0.0
 40
0.5
100
AcDbArc
 50
90.0
 51
180.0
  0
ARC
  5
6F43
330
1E
100
AcDbEntity
  8
躯体と製品
  6
Continuous
 62
     3
100
AcDbCircle
 10
1591.349442297124
 20
924.666626819855
 30
0.0
 40
0.5999999999999999
100
AcDbArc
 50
270.0
 51
90.0
  0
LINE
  5
6F44
330
1E
100
AcDbEntity
  8
躯体と製品
  6
Continuous
 62
     3
100
AcDbLine
 10
1579.249442297124
 20
929.766626819855
 30
0.0
 11
1579.249442297124
 21
917.7666268198549
 31
0.0
  0
ARC
  5
6F45
330
1E
100
AcDbEntity
  8
躯体と製品
  6
Continuous
 62
     3
100
AcDbCircle
 10
1579.749442297124
 20
929.766626819855
 30
0.0
 40
0.5
100
AcDbArc
 50
90.0
 51
180.0
  0
LINE
  5
6F46
330
1E
100
AcDbEntity
  8
躯体と製品
  6
Continuous
 62
     3
100
AcDbLine
 10
1584.749442297123
 20
930.2666268198549
 30
0.0
 11
1579.749442297124
 21
930.2666268198549
 31
0.0
  0
ARC
  5
6F47
330
1E
100
AcDbEntity
  8
躯体と製品
  6
Continuous
 62
     3
100
AcDbCircle
 10
1584.749442297123
 20
929.766626819855
 30
0.0
 40
0.5
100
AcDbArc
 50
0.0
 51
90.0
  0
LINE
  5
6F48
330
1E
100
AcDbEntity
  8
躯体と製品
  6
Continuous
 62
     3
100
AcDbLine
 10
1586.249442297124
 20
924.0666268198552
 30
0.0
 11
1591.349442297124
 21
924.0666268198552
 31
0.0
  0
ARC
  5
6F49
330
1E
100
AcDbEntity
  8
躯体と製品
  6
Continuous
 62
     3
100
AcDbCircle
 10
1586.249442297124
 20
925.0666268198552
 30
0.0
 40
1.0
100
AcDbArc
 50
180.0
 51
270.0
  0
LINE
  5
6F4A
330
1E
100
AcDbEntity
  8
躯体と製品
  6
Continuous
 62
     3
100
AcDbLine
 10
1585.249442297124
 20
925.0666268198552
 30
0.0
 11
1585.249442297124
 21
929.766626819855
 31
0.0
  0
LINE
  5
6F4B
330
1E
100
AcDbEntity
  8
躯体と製品
  6
Continuous
 62
     3
100
AcDbLine
 10
1586.749442297124
 20
925.266626819855
 30
0.0
 11
1591.349442297124
 21
925.266626819855
 31
0.0
  0
ARC
  5
6F4C
330
1E
100
AcDbEntity
  8
躯体と製品
  6
Continuous
 62
     3
100
AcDbCircle
 10
1586.749442297124
 20
925.5666268198551
 30
0.0
 40
0.2999999999999999
100
AcDbArc
 50
180.0
 51
270.0
  0
LINE
  5
6F4D
330
1E
100
AcDbEntity
  8
躯体と製品
  6
Continuous
 62
     3
100
AcDbLine
 10
1576.749442297123
 20
915.766626819855
 30
0.0
 11
1577.249442297124
 21
915.766626819855
 31
0.0
  0
LINE
  5
6F4E
330
1E
100
AcDbEntity
  8
躯体と製品
  6
Continuous
 62
     3
100
AcDbLine
 10
1577.249442297124
 20
917.266626819855
 30
0.0
 11
1576.749442297123
 21
917.266626819855
 31
0.0
  0
LINE
  5
6F4F
330
1E
100
AcDbEntity
  8
躯体と製品
  6
Continuous
 62
     3
100
AcDbLine
 10
1577.249442297124
 20
930.2666268198549
 30
0.0
 11
1577.249442297124
 21
917.266626819855
 31
0.0
  0
LINE
  5
6F50
330
1E
100
AcDbEntity
  8
躯体と製品
  6
Continuous
 62
     3
100
AcDbLine
 10
1576.749442297123
 20
930.2666268198549
 30
0.0
 11
1577.249442297124
 21
930.2666268198549
 31
0.0
  0
LINE
  5
6F51
330
1E
100
AcDbEntity
  8
躯体と製品
  6
Continuous
 62
     3
100
AcDbLine
 10
1576.749442297123
 20
888.7666268198547
 30
0.0
 11
1576.749442297123
 21
878.7666268198549
 31
0.0
  0
LINE
  5
6F52
330
1E
100
AcDbEntity
  8
躯体と製品
  6
Continuous
 62
     3
100
AcDbLine
 10
1579.249442297124
 20
883.2666268198549
 30
0.0
 11
1578.749442297123
 21
883.766626819855
 31
0.0
  0
LINE
  5
6F53
330
1E
100
AcDbEntity
  8
躯体と製品
  6
Continuous
 62
     3
100
AcDbLine
 10
1579.249442297124
 20
884.266626819855
 30
0.0
 11
1578.749442297123
 21
883.766626819855
 31
0.0
  0
LINE
  5
6F54
330
1E
100
AcDbEntity
  8
躯体と製品
  6
Continuous
 62
     3
100
AcDbLine
 10
1576.749442297123
 20
878.7666268198549
 30
0.0
 11
1577.249442297124
 21
878.7666268198549
 31
0.0
  0
LINE
  5
6F55
330
1E
100
AcDbEntity
  8
躯体と製品
  6
Continuous
 62
     3
100
AcDbLine
 10
1576.749442297123
 20
888.7666268198547
 30
0.0
 11
1577.249442297124
 21
888.7666268198547
 31
0.0
  0
LINE
  5
6F56
330
1E
100
AcDbEntity
  8
躯体と製品
  6
Continuous
 62
     3
100
AcDbLine
 10
1588.949442297124
 20
934.266626819855
 30
0.0
 11
1589.249442297124
 21
934.5666268198552
 31
0.0
  0
LINE
  5
6F57
330
1E
100
AcDbEntity
  8
躯体と製品
  6
Continuous
 62
     3
100
AcDbLine
 10
1588.249442297124
 20
939.7666268198547
 30
0.0
 11
1580.249442297124
 21
939.7666268198547
 31
0.0
  0
ARC
  5
6F58
330
1E
100
AcDbEntity
  8
躯体と製品
  6
Continuous
 62
     3
100
AcDbCircle
 10
1588.249442297124
 20
938.7666268198547
 30
0.0
 40
1.0
100
AcDbArc
 50
0.0
 51
90.0
  0
ARC
  5
6F59
330
1E
100
AcDbEntity
  8
躯体と製品
  6
Continuous
 62
     3
100
AcDbCircle
 10
1580.249442297124
 20
939.2666268198547
 30
0.0
 40
0.5
100
AcDbArc
 50
90.0
 51
180.0
  0
LINE
  5
6F5A
330
1E
100
AcDbEntity
  8
躯体と製品
  6
Continuous
 62
     3
100
AcDbLine
 10
1579.749442297124
 20
939.2666268198547
 30
0.0
 11
1579.749442297124
 21
938.7666268198547
 31
0.0
  0
ARC
  5
6F5B
330
1E
100
AcDbEntity
  8
躯体と製品
  6
Continuous
 62
     3
100
AcDbCircle
 10
1587.249442297124
 20
937.766626819855
 30
0.0
 40
0.5
100
AcDbArc
 50
0.0
 51
90.0
  0
LINE
  5
6F5C
330
1E
100
AcDbEntity
  8
躯体と製品
  6
Continuous
 62
     3
100
AcDbLine
 10
1580.249442297124
 20
938.2666268198549
 30
0.0
 11
1587.249442297124
 21
938.2666268198549
 31
0.0
  0
LINE
  5
6F5D
330
1E
100
AcDbEntity
  8
躯体と製品
  6
Continuous
 62
     3
100
AcDbLine
 10
1588.949442297124
 20
934.266626819855
 30
0.0
 11
1589.249442297124
 21
933.9666268198548
 31
0.0
  0
ARC
  5
6F5E
330
1E
100
AcDbEntity
  8
躯体と製品
  6
Continuous
 62
     3
100
AcDbCircle
 10
1580.249442297124
 20
938.7666268198547
 30
0.0
 40
0.5
100
AcDbArc
 50
180.0
 51
270.0
  0
LINE
  5
6F5F
330
1E
100
AcDbEntity
  8
躯体と製品
  6
Continuous
 62
     3
100
AcDbLine
 10
1589.249442297124
 20
938.7666268198547
 30
0.0
 11
1589.249442297124
 21
934.5666268198552
 31
0.0
  0
LINE
  5
6F60
330
1E
100
AcDbEntity
  8
躯体と製品
  6
Continuous
 62
     3
100
AcDbLine
 10
1589.249442297124
 20
933.9666268198548
 30
0.0
 11
1589.249442297124
 21
928.266626819855
 31
0.0
  0
LINE
  5
6F61
330
1E
100
AcDbEntity
  8
躯体と製品
  6
Continuous
 62
     3
100
AcDbLine
 10
1587.749442297124
 20
927.2666268198547
 30
0.0
 11
1587.749442297124
 21
937.766626819855
 31
0.0
  0
ARC
  5
6F62
330
1E
100
AcDbEntity
  8
躯体と製品
  6
Continuous
 62
     3
100
AcDbCircle
 10
1607.249442297124
 20
925.7666268198549
 30
0.0
 40
0.5
100
AcDbArc
 50
0.0
 51
90.0
  0
LINE
  5
6F63
330
1E
100
AcDbEntity
  8
躯体と製品
  6
Continuous
 62
     3
100
AcDbLine
 10
1607.749442297124
 20
925.7666268198549
 30
0.0
 11
1607.749442297124
 21
893.7666268198547
 31
0.0
  0
ARC
  5
6F64
330
1E
100
AcDbEntity
  8
躯体と製品
  6
Continuous
 62
     3
100
AcDbCircle
 10
1608.249442297124
 20
926.7666268198547
 30
0.0
 40
1.0
100
AcDbArc
 50
0.0
 51
90.0
  0
LINE
  5
6F65
330
1E
100
AcDbEntity
  8
躯体と製品
  6
Continuous
 62
     3
100
AcDbLine
 10
1609.249442297124
 20
926.7666268198547
 30
0.0
 11
1609.249442297124
 21
892.7666268198549
 31
0.0
  0
ARC
  5
6F66
330
1E
100
AcDbEntity
  8
躯体と製品
  6
Continuous
 62
     3
100
AcDbCircle
 10
1607.249442297124
 20
893.7666268198547
 30
0.0
 40
0.5
100
AcDbArc
 50
270.0
 51
0.0
  0
ARC
  5
6F67
330
1E
100
AcDbEntity
  8
躯体と製品
  6
Continuous
 62
     3
100
AcDbCircle
 10
1608.249442297124
 20
892.7666268198549
 30
0.0
 40
1.0
100
AcDbArc
 50
270.0
 51
0.0
  0
LINE
  5
6F68
330
1E
100
AcDbEntity
  8
躯体と製品
  6
Continuous
 62
     3
100
AcDbLine
 10
1589.749442297124
 20
927.7666268198547
 30
0.0
 11
1608.249442297124
 21
927.7666268198547
 31
0.0
  0
LINE
  5
6F69
330
1E
100
AcDbEntity
  8
躯体と製品
  6
Continuous
 62
     3
100
AcDbLine
 10
1607.249442297124
 20
893.2666268198547
 30
0.0
 11
1599.249442297123
 21
893.2666268198547
 31
0.0
  0
LINE
  5
6F6A
330
1E
100
AcDbEntity
  8
躯体と製品
  6
Continuous
 62
     3
100
AcDbLine
 10
1608.249442297124
 20
891.766626819855
 30
0.0
 11
1599.249442297123
 21
891.766626819855
 31
0.0
  0
LINE
  5
6F6B
330
1E
100
AcDbEntity
  8
躯体と製品
  6
Continuous
 62
     3
100
AcDbLine
 10
1588.749442297124
 20
926.2666268198547
 30
0.0
 11
1607.249442297124
 21
926.2666268198547
 31
0.0
  0
ARC
  5
6F6C
330
1E
100
AcDbEntity
  8
躯体と製品
  6
Continuous
 62
     3
100
AcDbCircle
 10
1589.749442297124
 20
928.266626819855
 30
0.0
 40
0.5
100
AcDbArc
 50
180.0
 51
270.0
  0
ARC
  5
6F6D
330
1E
100
AcDbEntity
  8
躯体と製品
  6
Continuous
 62
     3
100
AcDbCircle
 10
1599.249442297123
 20
892.266626819855
 30
0.0
 40
0.5
100
AcDbArc
 50
180.0
 51
270.0
  0
LINE
  5
6F6E
330
1E
100
AcDbEntity
  8
躯体と製品
  6
Continuous
 62
     3
100
AcDbLine
 10
1598.749442297124
 20
892.266626819855
 30
0.0
 11
1598.749442297124
 21
892.7666268198549
 31
0.0
  0
ARC
  5
6F6F
330
1E
100
AcDbEntity
  8
躯体と製品
  6
Continuous
 62
     3
100
AcDbCircle
 10
1599.249442297123
 20
892.7666268198549
 30
0.0
 40
0.5
100
AcDbArc
 50
90.0
 51
180.0
  0
ARC
  5
6F70
330
1E
100
AcDbEntity
  8
躯体と製品
  6
Continuous
 62
     3
100
AcDbCircle
 10
1588.749442297124
 20
927.2666268198547
 30
0.0
 40
1.0
100
AcDbArc
 50
180.0
 51
270.0
  0
LINE
  5
6F71
330
1E
100
AcDbEntity
  8
躯体と製品
  6
Continuous
 62
     7
100
AcDbLine
 10
1587.249443297124
 20
926.5666288198547
 30
0.0
 11
1587.249443297124
 21
930.0666268198547
 31
0.0
  0
ARC
  5
6F72
330
1E
100
AcDbEntity
  8
躯体と製品
  6
Continuous
 62
     7
100
AcDbCircle
 10
1587.749444297124
 20
926.5666288198547
 30
0.0
 40
0.5000010000000002
100
AcDbArc
 50
180.0
 51
270.0
  0
ARC
  5
6F73
330
1E
100
AcDbEntity
  8
躯体と製品
  6
Continuous
 62
     7
100
AcDbCircle
 10
1587.749444297124
 20
926.5666288198547
 30
0.0
 40
1.299998999999999
100
AcDbArc
 50
180.0
 51
270.0
  0
LINE
  5
6F74
330
1E
100
AcDbEntity
  8
躯体と製品
  6
Continuous
 62
     7
100
AcDbLine
 10
1586.449442297124
 20
930.0666268198547
 30
0.0
 11
1587.249443297124
 21
930.0666268198547
 31
0.0
  0
LINE
  5
6F75
330
1E
100
AcDbEntity
  8
躯体と製品
  6
Continuous
 62
     7
100
AcDbLine
 10
1606.149443297124
 20
926.0666278198549
 30
0.0
 11
1587.749444297124
 21
926.0666278198549
 31
0.0
  0
ARC
  5
6F76
330
1E
100
AcDbEntity
  8
躯体と製品
  6
Continuous
 62
     7
100
AcDbCircle
 10
1606.149443297124
 20
924.7666288198548
 30
0.0
 40
1.299998999999999
100
AcDbArc
 50
0.0
 51
90.0
  0
ARC
  5
6F77
330
1E
100
AcDbEntity
  8
躯体と製品
  6
Continuous
 62
     7
100
AcDbCircle
 10
1606.149443297124
 20
924.7666288198548
 30
0.0
 40
0.5000010000000002
100
AcDbArc
 50
0.0
 51
90.0
  0
LINE
  5
6F78
330
1E
100
AcDbEntity
  8
躯体と製品
  6
Continuous
 62
     7
100
AcDbLine
 10
1606.649444297124
 20
924.7666288198548
 30
0.0
 11
1606.649444297124
 21
896.0666278198548
 31
0.0
  0
LINE
  5
6F79
330
1E
100
AcDbEntity
  8
躯体と製品
  6
Continuous
 62
     7
100
AcDbLine
 10
1607.449442297124
 20
924.7666288198548
 30
0.0
 11
1607.449442297124
 21
896.0666278198548
 31
0.0
  0
LINE
  5
6F7A
330
1E
100
AcDbEntity
  8
躯体と製品
  6
Continuous
 62
     7
100
AcDbLine
 10
1606.649444297124
 20
896.0666278198548
 30
0.0
 11
1607.449442297124
 21
896.0666278198548
 31
0.0
  0
LINE
  5
6F7B
330
1E
100
AcDbEntity
  8
躯体と製品
  6
Continuous
 62
     7
100
AcDbLine
 10
1606.149443297124
 20
925.2666268198547
 30
0.0
 11
1587.749444297124
 21
925.2666268198547
 31
0.0
  0
LINE
  5
6F7C
330
1E
100
AcDbEntity
  8
躯体と製品
  6
Continuous
 62
     7
100
AcDbLine
 10
1586.449442297124
 20
930.0666268198547
 30
0.0
 11
1586.449445297124
 21
926.5666288198547
 31
0.0
  0
LINE
  5
6F7D
330
1E
100
AcDbEntity
  8
躯体と製品
  6
Continuous
 62
     4
100
AcDbLine
 10
1606.649444297123
 20
896.3161709818686
 30
0.0
 11
1607.449442297124
 21
897.1161689818696
 31
0.0
  0
LINE
  5
6F7E
330
1E
100
AcDbEntity
  8
躯体と製品
  6
Continuous
 62
     4
100
AcDbLine
 10
1606.649444297123
 20
897.730384544242
 30
0.0
 11
1607.449442297124
 21
898.5303825442427
 31
0.0
  0
LINE
  5
6F7F
330
1E
100
AcDbEntity
  8
躯体と製品
  6
Continuous
 62
     4
100
AcDbLine
 10
1606.649444297124
 20
899.1445981066162
 30
0.0
 11
1607.449442297124
 21
899.9445961066157
 31
0.0
  0
LINE
  5
6F80
330
1E
100
AcDbEntity
  8
躯体と製品
  6
Continuous
 62
     4
100
AcDbLine
 10
1606.649444297124
 20
900.5588116689896
 30
0.0
 11
1607.449442297124
 21
901.3588096689893
 31
0.0
  0
LINE
  5
6F81
330
1E
100
AcDbEntity
  8
躯体と製品
  6
Continuous
 62
     4
100
AcDbLine
 10
1606.649444297124
 20
901.9730252313628
 30
0.0
 11
1607.449442297124
 21
902.7730232313624
 31
0.0
  0
LINE
  5
6F82
330
1E
100
AcDbEntity
  8
躯体と製品
  6
Continuous
 62
     4
100
AcDbLine
 10
1606.649444297124
 20
903.3872387937359
 30
0.0
 11
1607.449442297124
 21
904.1872367937356
 31
0.0
  0
LINE
  5
6F83
330
1E
100
AcDbEntity
  8
躯体と製品
  6
Continuous
 62
     4
100
AcDbLine
 10
1606.649444297124
 20
904.8014523561093
 30
0.0
 11
1607.449442297124
 21
905.601450356109
 31
0.0
  0
LINE
  5
6F84
330
1E
100
AcDbEntity
  8
躯体と製品
  6
Continuous
 62
     4
100
AcDbLine
 10
1606.649444297124
 20
906.2156659184827
 30
0.0
 11
1607.449442297124
 21
907.0156639184823
 31
0.0
  0
LINE
  5
6F85
330
1E
100
AcDbEntity
  8
躯体と製品
  6
Continuous
 62
     4
100
AcDbLine
 10
1606.649444297124
 20
907.6298794808558
 30
0.0
 11
1607.449442297123
 21
908.4298774808553
 31
0.0
  0
LINE
  5
6F86
330
1E
100
AcDbEntity
  8
躯体と製品
  6
Continuous
 62
     4
100
AcDbLine
 10
1606.649444297124
 20
909.0440930432292
 30
0.0
 11
1607.449442297123
 21
909.8440910432286
 31
0.0
  0
LINE
  5
6F87
330
1E
100
AcDbEntity
  8
躯体と製品
  6
Continuous
 62
     4
100
AcDbLine
 10
1606.649444297124
 20
910.4583066056022
 30
0.0
 11
1607.449442297124
 21
911.258304605603
 31
0.0
  0
LINE
  5
6F88
330
1E
100
AcDbEntity
  8
躯体と製品
  6
Continuous
 62
     4
100
AcDbLine
 10
1606.649444297123
 20
911.8725201679756
 30
0.0
 11
1607.449442297124
 21
912.6725181679763
 31
0.0
  0
LINE
  5
6F89
330
1E
100
AcDbEntity
  8
躯体と製品
  6
Continuous
 62
     4
100
AcDbLine
 10
1606.649444297123
 20
913.2867337303487
 30
0.0
 11
1607.449442297124
 21
914.0867317303493
 31
0.0
  0
LINE
  5
6F8A
330
1E
100
AcDbEntity
  8
躯体と製品
  6
Continuous
 62
     4
100
AcDbLine
 10
1606.649444297123
 20
914.7009472927221
 30
0.0
 11
1607.449442297124
 21
915.5009452927227
 31
0.0
  0
LINE
  5
6F8B
330
1E
100
AcDbEntity
  8
躯体と製品
  6
Continuous
 62
     4
100
AcDbLine
 10
1606.649444297123
 20
916.1151608550953
 30
0.0
 11
1607.449442297124
 21
916.915158855096
 31
0.0
  0
LINE
  5
6F8C
330
1E
100
AcDbEntity
  8
躯体と製品
  6
Continuous
 62
     4
100
AcDbLine
 10
1606.649444297123
 20
917.5293744174647
 30
0.0
 11
1607.449442297124
 21
918.3293724174653
 31
0.0
  0
LINE
  5
6F8D
330
1E
100
AcDbEntity
  8
躯体と製品
  6
Continuous
 62
     4
100
AcDbLine
 10
1606.649444297123
 20
918.9435879798379
 30
0.0
 11
1607.449442297124
 21
919.7435859798387
 31
0.0
  0
LINE
  5
6F8E
330
1E
100
AcDbEntity
  8
躯体と製品
  6
Continuous
 62
     4
100
AcDbLine
 10
1606.649444297125
 20
920.3578015422131
 30
0.0
 11
1607.449442297124
 21
921.1577995422127
 31
0.0
  0
LINE
  5
6F8F
330
1E
100
AcDbEntity
  8
躯体と製品
  6
Continuous
 62
     4
100
AcDbLine
 10
1606.649444297125
 20
921.7720151045861
 30
0.0
 11
1607.449442297124
 21
922.5720131045861
 31
0.0
  0
LINE
  5
6F90
330
1E
100
AcDbEntity
  8
躯体と製品
  6
Continuous
 62
     4
100
AcDbLine
 10
1606.649444297125
 20
923.1862286669597
 30
0.0
 11
1607.449442297124
 21
923.9862266669591
 31
0.0
  0
LINE
  5
6F91
330
1E
100
AcDbEntity
  8
躯体と製品
  6
Continuous
 62
     4
100
AcDbLine
 10
1606.649444297124
 20
924.6004422293328
 30
0.0
 11
1607.339302651658
 21
925.2903005838668
 31
0.0
  0
LINE
  5
6F92
330
1E
100
AcDbEntity
  8
躯体と製品
  6
Continuous
 62
     4
100
AcDbLine
 10
1605.901415325274
 20
925.2666268198554
 30
0.0
 11
1606.615140372087
 21
925.9803518666686
 31
0.0
  0
LINE
  5
6F93
330
1E
100
AcDbEntity
  8
躯体と製品
  6
Continuous
 62
     4
100
AcDbLine
 10
1604.487201762899
 20
925.2666268198545
 30
0.0
 11
1605.287202762899
 21
926.0666278198543
 31
0.0
  0
LINE
  5
6F94
330
1E
100
AcDbEntity
  8
躯体と製品
  6
Continuous
 62
     4
100
AcDbLine
 10
1603.072988200526
 20
925.2666268198547
 30
0.0
 11
1603.872989200526
 21
926.0666278198543
 31
0.0
  0
LINE
  5
6F95
330
1E
100
AcDbEntity
  8
躯体と製品
  6
Continuous
 62
     4
100
AcDbLine
 10
1601.658774638153
 20
925.266626819855
 30
0.0
 11
1602.458775638153
 21
926.0666278198549
 31
0.0
  0
LINE
  5
6F96
330
1E
100
AcDbEntity
  8
躯体と製品
  6
Continuous
 62
     4
100
AcDbLine
 10
1600.24456107578
 20
925.2666268198552
 30
0.0
 11
1601.04456207578
 21
926.0666278198549
 31
0.0
  0
LINE
  5
6F97
330
1E
100
AcDbEntity
  8
躯体と製品
  6
Continuous
 62
     4
100
AcDbLine
 10
1598.830347513406
 20
925.2666268198543
 30
0.0
 11
1599.630348513407
 21
926.066627819855
 31
0.0
  0
LINE
  5
6F98
330
1E
100
AcDbEntity
  8
躯体と製品
  6
Continuous
 62
     4
100
AcDbLine
 10
1597.416133951033
 20
925.2666268198545
 30
0.0
 11
1598.216134951034
 21
926.066627819855
 31
0.0
  0
LINE
  5
6F99
330
1E
100
AcDbEntity
  8
躯体と製品
  6
Continuous
 62
     4
100
AcDbLine
 10
1596.001920388659
 20
925.2666268198542
 30
0.0
 11
1596.80192138866
 21
926.0666278198549
 31
0.0
  0
LINE
  5
6F9A
330
1E
100
AcDbEntity
  8
躯体と製品
  6
Continuous
 62
     4
100
AcDbLine
 10
1594.587706826286
 20
925.2666268198543
 30
0.0
 11
1595.387707826286
 21
926.066627819854
 31
0.0
  0
LINE
  5
6F9B
330
1E
100
AcDbEntity
  8
躯体と製品
  6
Continuous
 62
     4
100
AcDbLine
 10
1593.173493263913
 20
925.2666268198543
 30
0.0
 11
1593.973494263912
 21
926.066627819854
 31
0.0
  0
LINE
  5
6F9C
330
1E
100
AcDbEntity
  8
躯体と製品
  6
Continuous
 62
     4
100
AcDbLine
 10
1591.75927970154
 20
925.2666268198547
 30
0.0
 11
1592.559280701539
 21
926.0666278198543
 31
0.0
  0
LINE
  5
6F9D
330
1E
100
AcDbEntity
  8
躯体と製品
  6
Continuous
 62
     4
100
AcDbLine
 10
1590.34506613917
 20
925.266626819855
 30
0.0
 11
1591.14506713917
 21
926.0666278198549
 31
0.0
  0
LINE
  5
6F9E
330
1E
100
AcDbEntity
  8
躯体と製品
  6
Continuous
 62
     4
100
AcDbLine
 10
1588.930852576797
 20
925.2666268198552
 30
0.0
 11
1589.730853576797
 21
926.0666278198549
 31
0.0
  0
LINE
  5
6F9F
330
1E
100
AcDbEntity
  8
躯体と製品
  6
Continuous
 62
     4
100
AcDbLine
 10
1587.534529802407
 20
925.2845176078388
 30
0.0
 11
1588.316640014423
 21
926.066627819855
 31
0.0
  0
LINE
  5
6FA0
330
1E
100
AcDbEntity
  8
躯体と製品
  6
Continuous
 62
     4
100
AcDbLine
 10
1586.673221342016
 20
925.8374227098206
 30
0.0
 11
1587.26788502276
 21
926.4320863905648
 31
0.0
  0
LINE
  5
6FA1
330
1E
100
AcDbEntity
  8
躯体と製品
  6
Continuous
 62
     4
100
AcDbLine
 10
1586.449444901783
 20
927.0278598319608
 30
0.0
 11
1587.249443297124
 21
927.8278582273015
 31
0.0
  0
LINE
  5
6FA2
330
1E
100
AcDbEntity
  8
躯体と製品
  6
Continuous
 62
     4
100
AcDbLine
 10
1586.4494436896
 20
928.4420721821517
 30
0.0
 11
1587.249443297124
 21
929.2420717896751
 31
0.0
  0
LINE
  5
6FA3
330
1E
100
AcDbEntity
  8
躯体と製品
  6
Continuous
 62
     4
100
AcDbLine
 10
1586.449442477418
 20
929.8562845323424
 30
0.0
 11
1586.65978476493
 21
930.0666268198545
 31
0.0
  0
LINE
  5
6FA4
330
1E
100
AcDbEntity
  8
躯体と製品
  6
Continuous
 62
     7
100
AcDbLine
 10
1579.249442297124
 20
932.766626819855
 30
0.0
 11
1579.749442297124
 21
932.2666268198549
 31
0.0
  0
LINE
  5
6FA5
330
1E
100
AcDbEntity
  8
躯体と製品
  6
Continuous
 62
     7
100
AcDbLine
 10
1579.249442297124
 20
935.7666268198547
 30
0.0
 11
1579.749442297124
 21
936.266626819855
 31
0.0
  0
LINE
  5
6FA6
330
1E
100
AcDbEntity
  8
躯体と製品
  6
Continuous
 62
     7
100
AcDbLine
 10
1579.249442297124
 20
935.7666268198547
 30
0.0
 11
1579.249442297124
 21
932.766626819855
 31
0.0
  0
LINE
  5
6FA7
330
1E
100
AcDbEntity
  8
躯体と製品
  6
Continuous
 62
     4
100
AcDbLine
 10
1579.749442297124
 20
936.266626819855
 30
0.0
 11
1579.749442297124
 21
932.2666268198549
 31
0.0
  0
LINE
  5
6FA8
330
1E
100
AcDbEntity
  8
躯体と製品
  6
Continuous
 62
     7
100
AcDbLine
 10
1587.749442297124
 20
936.266626819855
 30
0.0
 11
1584.749442297123
 21
936.266626819855
 31
0.0
  0
LINE
  5
6FA9
330
1E
100
AcDbEntity
  8
躯体と製品
  6
Continuous
 62
     4
100
AcDbLine
 10
1587.749442297124
 20
935.7666268198547
 30
0.0
 11
1579.249442297124
 21
935.7666268198547
 31
0.0
  0
LINE
  5
6FAA
330
1E
100
AcDbEntity
  8
躯体と製品
  6
Continuous
 62
     4
100
AcDbLine
 10
1587.749442297124
 20
932.766626819855
 30
0.0
 11
1579.249442297124
 21
932.766626819855
 31
0.0
  0
LINE
  5
6FAB
330
1E
100
AcDbEntity
  8
躯体と製品
  6
Continuous
 62
     7
100
AcDbLine
 10
1587.749442297124
 20
932.2666268198549
 30
0.0
 11
1584.749442297123
 21
932.2666268198549
 31
0.0
  0
ARC
  5
6FAC
330
1E
100
AcDbEntity
  8
躯体と製品
  6
Continuous
 62
     7
100
AcDbCircle
 10
1590.249442297124
 20
928.7666268198549
 30
0.0
 40
1.0
100
AcDbArc
 50
180.0
 51
270.0
  0
ARC
  5
6FAD
330
1E
100
AcDbEntity
  8
躯体と製品
  6
Continuous
 62
     7
100
AcDbCircle
 10
1592.249442297124
 20
928.7666268198549
 30
0.0
 40
1.0
100
AcDbArc
 50
270.0
 51
0.0
  0
LINE
  5
6FAE
330
1E
100
AcDbEntity
  8
躯体と製品
  6
Continuous
 62
     7
100
AcDbLine
 10
1590.249442297124
 20
927.7666268198547
 30
0.0
 11
1592.249442297124
 21
927.7666268198547
 31
0.0
  0
ARC
  5
6FAF
330
1E
100
AcDbEntity
  8
躯体と製品
  6
Continuous
 62
     7
100
AcDbCircle
 10
1591.315161871778
 20
933.3461480964507
 30
0.0
 40
0.4204787234042585
100
AcDbArc
 50
345.9042107558272
 51
90.0
  0
ARC
  5
6FB0
330
1E
100
AcDbEntity
  8
躯体と製品
  6
Continuous
 62
     7
100
AcDbCircle
 10
1589.249442297124
 20
935.7451982484262
 30
0.0
 40
2.021428571428586
100
AcDbArc
 50
42.74124453868362
 51
90.0
  0
ARC
  5
6FB1
330
1E
100
AcDbEntity
  8
躯体と製品
  6
Continuous
 62
     7
100
AcDbCircle
 10
1589.249442297124
 20
932.7880553912835
 30
0.0
 40
2.021428571428568
100
AcDbArc
 50
270.0
 51
317.2587554613163
  0
ARC
  5
6FB2
330
1E
100
AcDbEntity
  8
躯体と製品
  6
Continuous
 62
     7
100
AcDbCircle
 10
1591.315161871778
 20
935.1871055432591
 30
0.0
 40
0.4204787234042585
100
AcDbArc
 50
270.0
 51
14.0957892441728
  0
LINE
  5
6FB3
330
1E
100
AcDbEntity
  8
躯体と製品
  6
Continuous
 62
     7
100
AcDbLine
 10
1591.315161871778
 20
934.7666268198548
 30
0.0
 11
1591.315161871778
 21
933.766626819855
 31
0.0
  0
ARC
  5
6FB4
330
1E
100
AcDbEntity
  8
躯体と製品
  6
Continuous
 62
     7
100
AcDbCircle
 10
1587.649442297124
 20
934.266626819855
 30
0.0
 40
4.2
100
AcDbArc
 50
317.2587554613163
 51
345.9042107558272
  0
ARC
  5
6FB5
330
1E
100
AcDbEntity
  8
躯体と製品
  6
Continuous
 62
     7
100
AcDbCircle
 10
1587.649442297124
 20
934.266626819855
 30
0.0
 40
4.2
100
AcDbArc
 50
14.0957892441728
 51
42.74124453868362
  0
LINE
  5
6FB6
330
1E
100
AcDbEntity
  8
躯体と製品
  6
DASHED1
 62
     7
100
AcDbLine
 10
1561.834796297124
 20
881.506999819855
 30
0.0
 11
1562.749442297124
 21
879.7666248198551
 31
0.0
  0
LINE
  5
6FB7
330
1E
100
AcDbEntity
  8
躯体と製品
  6
DASHED1
 62
     7
100
AcDbLine
 10
1562.749442297124
 20
879.7666248198551
 30
0.0
 11
1574.749442297124
 21
879.7666248198551
 31
0.0
  0
LINE
  5
6FB8
330
1E
100
AcDbEntity
  8
躯体と製品
  6
DASHED1
 62
     7
100
AcDbLine
 10
1554.949061297124
 20
887.3256828198551
 30
0.0
 11
1559.949062297124
 21
889.145533819855
 31
0.0
  0
LINE
  5
6FB9
330
1E
100
AcDbEntity
  8
躯体と製品
  6
DASHED1
 62
     7
100
AcDbLine
 10
1554.949061297124
 20
888.3898608198549
 30
0.0
 11
1559.607041297123
 21
890.085226819855
 31
0.0
  0
LINE
  5
6FBA
330
1E
100
AcDbEntity
  8
躯体と製品
  6
DASHED1
 62
     7
100
AcDbLine
 10
1554.949061297124
 20
880.207567819855
 30
0.0
 11
1559.949062297124
 21
878.387716819855
 31
0.0
  0
LINE
  5
6FBB
330
1E
100
AcDbEntity
  8
躯体と製品
  6
DASHED1
 62
     7
100
AcDbLine
 10
1559.607041297123
 20
877.4480238198551
 30
0.0
 11
1566.410663297124
 21
876.4556688198551
 31
0.0
  0
ARC
  5
6FBC
330
1E
100
AcDbEntity
  8
躯体と製品
  6
DASHED1
 62
     7
100
AcDbCircle
 10
1566.468395297123
 20
876.8514798198548
 30
0.0
 40
0.3999990000000001
100
AcDbArc
 50
261.7015340000029
 51
351.8698979999985
  0
LINE
  5
6FBD
330
1E
100
AcDbEntity
  8
躯体と製品
  6
DASHED1
 62
     7
100
AcDbLine
 10
1566.864377297124
 20
876.7949118198549
 30
0.0
 11
1566.892493297124
 21
876.9917388198548
 31
0.0
  0
ARC
  5
6FBE
330
1E
100
AcDbEntity
  8
躯体と製品
  6
DASHED1
 62
     7
100
AcDbCircle
 10
1566.496514297124
 20
877.0483068198551
 30
0.0
 40
0.3999990000000001
100
AcDbArc
 50
351.8698979999985
 51
81.86989800000221
  0
LINE
  5
6FBF
330
1E
100
AcDbEntity
  8
躯体と製品
  6
DASHED1
 62
     7
100
AcDbLine
 10
1566.553082297124
 20
877.4442858198552
 30
0.0
 11
1559.949062297124
 21
878.387716819855
 31
0.0
  0
LINE
  5
6FC0
330
1E
100
AcDbEntity
  8
躯体と製品
  6
DASHED1
 62
     7
100
AcDbLine
 10
1559.607041297123
 20
890.085226819855
 30
0.0
 11
1566.410663297124
 21
891.0775818198551
 31
0.0
  0
ARC
  5
6FC1
330
1E
100
AcDbEntity
  8
躯体と製品
  6
DASHED1
 62
     7
100
AcDbCircle
 10
1566.468395297123
 20
890.681770819855
 30
0.0
 40
0.3999990000000001
100
AcDbArc
 50
8.130102000001478
 51
98.29846599999713
  0
LINE
  5
6FC2
330
1E
100
AcDbEntity
  8
躯体と製品
  6
DASHED1
 62
     7
100
AcDbLine
 10
1566.864377297124
 20
890.7383388198551
 30
0.0
 11
1566.892493297124
 21
890.5415148198551
 31
0.0
  0
ARC
  5
6FC3
330
1E
100
AcDbEntity
  8
躯体と製品
  6
DASHED1
 62
     7
100
AcDbCircle
 10
1566.496514297124
 20
890.4849438198551
 30
0.0
 40
0.3999990000000001
100
AcDbArc
 50
278.1301019999978
 51
8.130102000001478
  0
LINE
  5
6FC4
330
1E
100
AcDbEntity
  8
躯体と製品
  6
DASHED1
 62
     7
100
AcDbLine
 10
1566.749441297124
 20
884.266624819855
 30
0.0
 11
1566.749441297124
 21
883.2666258198552
 31
0.0
  0
LINE
  5
6FC5
330
1E
100
AcDbEntity
  8
躯体と製品
  6
DASHED1
 62
     7
100
AcDbLine
 10
1562.749442297124
 20
887.7666258198551
 30
0.0
 11
1561.834796297124
 21
886.026250819855
 31
0.0
  0
LINE
  5
6FC6
330
1E
100
AcDbEntity
  8
躯体と製品
  6
DASHED1
 62
     7
100
AcDbLine
 10
1574.749442297124
 20
888.766624819855
 30
0.0
 11
1569.749441297124
 21
887.7666258198551
 31
0.0
  0
LINE
  5
6FC7
330
1E
100
AcDbEntity
  8
躯体と製品
  6
DASHED1
 62
     7
100
AcDbLine
 10
1574.749442297124
 20
884.7666258198549
 30
0.0
 11
1569.749441297124
 21
883.766626819855
 31
0.0
  0
LINE
  5
6FC8
330
1E
100
AcDbEntity
  8
躯体と製品
  6
DASHED1
 62
     7
100
AcDbLine
 10
1574.749442297124
 20
882.766624819855
 30
0.0
 11
1569.749441297124
 21
883.766626819855
 31
0.0
  0
LINE
  5
6FC9
330
1E
100
AcDbEntity
  8
躯体と製品
  6
DASHED1
 62
     7
100
AcDbLine
 10
1569.749441297124
 20
883.766626819855
 30
0.0
 11
1574.749442297124
 21
883.766626819855
 31
0.0
  0
LINE
  5
6FCA
330
1E
100
AcDbEntity
  8
躯体と製品
  6
DASHED1
 62
     7
100
AcDbLine
 10
1540.618886297124
 20
885.636070819855
 30
0.0
 11
1538.749442297124
 21
883.766626819855
 31
0.0
  0
LINE
  5
6FCB
330
1E
100
AcDbEntity
  8
躯体と製品
  6
DASHED1
 62
     7
100
AcDbLine
 10
1561.834796297124
 20
886.026250819855
 30
0.0
 11
1559.837537297124
 21
886.1309208198552
 31
0.0
  0
LINE
  5
6FCC
330
1E
100
AcDbEntity
  8
躯体と製品
  6
DASHED1
 62
     7
100
AcDbLine
 10
1559.837537297124
 20
886.1309208198552
 30
0.0
 11
1559.942210297124
 21
888.1281798198552
 31
0.0
  0
LINE
  5
6FCD
330
1E
100
AcDbEntity
  8
躯体と製品
  6
DASHED1
 62
     7
100
AcDbLine
 10
1559.942210297124
 20
888.1281798198552
 30
0.0
 11
1557.944951297124
 21
888.232852819855
 31
0.0
  0
LINE
  5
6FCE
330
1E
100
AcDbEntity
  8
躯体と製品
  6
DASHED1
 62
     7
100
AcDbLine
 10
1537.789184297124
 20
885.7843668198549
 30
0.0
 11
1537.972361297124
 21
889.279570819855
 31
0.0
  0
LINE
  5
6FCF
330
1E
100
AcDbEntity
  8
躯体と製品
  6
DASHED1
 62
     7
100
AcDbLine
 10
1537.972361297124
 20
889.279570819855
 30
0.0
 11
1535.870429297124
 21
887.386984819855
 31
0.0
  0
LINE
  5
6FD0
330
1E
100
AcDbEntity
  8
躯体と製品
  6
DASHED1
 62
     7
100
AcDbLine
 10
1535.870429297124
 20
887.386984819855
 30
0.0
 11
1535.791925297124
 21
885.889039819855
 31
0.0
  0
LINE
  5
6FD1
330
1E
100
AcDbEntity
  8
躯体と製品
  6
DASHED1
 62
     7
100
AcDbLine
 10
1535.791925297124
 20
885.889039819855
 30
0.0
 11
1566.749441297124
 21
884.266624819855
 31
0.0
  0
LINE
  5
6FD2
330
1E
100
AcDbEntity
  8
躯体と製品
  6
DASHED1
 62
     7
100
AcDbLine
 10
1557.944951297124
 20
888.232852819855
 30
0.0
 11
1556.841650297124
 21
886.287928819855
 31
0.0
  0
LINE
  5
6FD3
330
1E
100
AcDbEntity
  8
躯体と製品
  6
DASHED1
 62
     7
100
AcDbLine
 10
1556.841650297124
 20
886.287928819855
 30
0.0
 11
1554.844391297124
 21
886.3926018198549
 31
0.0
  0
LINE
  5
6FD4
330
1E
100
AcDbEntity
  8
躯体と製品
  6
DASHED1
 62
     7
100
AcDbLine
 10
1554.844391297124
 20
886.3926018198549
 30
0.0
 11
1554.949061297124
 21
888.3898608198549
 31
0.0
  0
LINE
  5
6FD5
330
1E
100
AcDbEntity
  8
躯体と製品
  6
DASHED1
 62
     7
100
AcDbLine
 10
1554.949061297124
 20
888.3898608198549
 30
0.0
 11
1552.951802297124
 21
888.4945308198551
 31
0.0
  0
LINE
  5
6FD6
330
1E
100
AcDbEntity
  8
躯体と製品
  6
DASHED1
 62
     7
100
AcDbLine
 10
1552.951802297124
 20
888.4945308198551
 30
0.0
 11
1551.848501297124
 21
886.549609819855
 31
0.0
  0
LINE
  5
6FD7
330
1E
100
AcDbEntity
  8
躯体と製品
  6
DASHED1
 62
     7
100
AcDbLine
 10
1551.848501297124
 20
886.549609819855
 30
0.0
 11
1549.851242297124
 21
886.6542798198549
 31
0.0
  0
LINE
  5
6FD8
330
1E
100
AcDbEntity
  8
躯体と製品
  6
DASHED1
 62
     7
100
AcDbLine
 10
1549.851242297124
 20
886.6542798198549
 30
0.0
 11
1549.955915297124
 21
888.6515388198549
 31
0.0
  0
LINE
  5
6FD9
330
1E
100
AcDbEntity
  8
躯体と製品
  6
DASHED1
 62
     7
100
AcDbLine
 10
1549.955915297124
 20
888.6515388198549
 30
0.0
 11
1547.958656297123
 21
888.756211819855
 31
0.0
  0
LINE
  5
6FDA
330
1E
100
AcDbEntity
  8
躯体と製品
  6
DASHED1
 62
     7
100
AcDbLine
 10
1547.958656297123
 20
888.756211819855
 30
0.0
 11
1546.855355297124
 21
886.8112878198548
 31
0.0
  0
LINE
  5
6FDB
330
1E
100
AcDbEntity
  8
躯体と製品
  6
DASHED1
 62
     7
100
AcDbLine
 10
1546.855355297124
 20
886.8112878198548
 30
0.0
 11
1544.858096297124
 21
886.915960819855
 31
0.0
  0
LINE
  5
6FDC
330
1E
100
AcDbEntity
  8
躯体と製品
  6
DASHED1
 62
     7
100
AcDbLine
 10
1544.858096297124
 20
886.915960819855
 30
0.0
 11
1544.962766297124
 21
888.913219819855
 31
0.0
  0
LINE
  5
6FDD
330
1E
100
AcDbEntity
  8
躯体と製品
  6
DASHED1
 62
     7
100
AcDbLine
 10
1544.962766297124
 20
888.913219819855
 30
0.0
 11
1542.965507297124
 21
889.0178928198549
 31
0.0
  0
LINE
  5
6FDE
330
1E
100
AcDbEntity
  8
躯体と製品
  6
DASHED1
 62
     7
100
AcDbLine
 10
1542.965507297124
 20
889.0178928198549
 30
0.0
 11
1541.862206297124
 21
887.0729688198549
 31
0.0
  0
LINE
  5
6FDF
330
1E
100
AcDbEntity
  8
躯体と製品
  6
DASHED1
 62
     7
100
AcDbLine
 10
1541.862206297124
 20
887.0729688198549
 30
0.0
 11
1539.864947297124
 21
887.1776418198548
 31
0.0
  0
LINE
  5
6FE0
330
1E
100
AcDbEntity
  8
躯体と製品
  6
DASHED1
 62
     7
100
AcDbLine
 10
1539.864947297124
 20
887.1776418198548
 30
0.0
 11
1539.969620297124
 21
889.1749008198551
 31
0.0
  0
LINE
  5
6FE1
330
1E
100
AcDbEntity
  8
躯体と製品
  6
DASHED1
 62
     7
100
AcDbLine
 10
1539.969620297124
 20
889.1749008198551
 30
0.0
 11
1537.972361297124
 21
889.279570819855
 31
0.0
  0
LINE
  5
6FE2
330
1E
100
AcDbEntity
  8
躯体と製品
  6
DASHED1
 62
     7
100
AcDbLine
 10
1574.749442297124
 20
878.7666258198552
 30
0.0
 11
1569.749441297124
 21
879.7666248198551
 31
0.0
  0
LINE
  5
6FE3
330
1E
100
AcDbEntity
  8
躯体と製品
  6
DASHED1
 62
     7
100
AcDbLine
 10
1561.834796297124
 20
881.506999819855
 30
0.0
 11
1559.837537297124
 21
881.402329819855
 31
0.0
  0
LINE
  5
6FE4
330
1E
100
AcDbEntity
  8
躯体と製品
  6
DASHED1
 62
     7
100
AcDbLine
 10
1559.837537297124
 20
881.402329819855
 30
0.0
 11
1559.942210297124
 21
879.405070819855
 31
0.0
  0
LINE
  5
6FE5
330
1E
100
AcDbEntity
  8
躯体と製品
  6
DASHED1
 62
     7
100
AcDbLine
 10
1559.942210297124
 20
879.405070819855
 30
0.0
 11
1557.944951297124
 21
879.3003978198552
 31
0.0
  0
LINE
  5
6FE6
330
1E
100
AcDbEntity
  8
躯体と製品
  6
DASHED1
 62
     7
100
AcDbLine
 10
1537.789184297124
 20
881.7488838198551
 30
0.0
 11
1537.972361297124
 21
878.2536798198551
 31
0.0
  0
LINE
  5
6FE7
330
1E
100
AcDbEntity
  8
躯体と製品
  6
DASHED1
 62
     7
100
AcDbLine
 10
1537.972361297124
 20
878.2536798198551
 30
0.0
 11
1535.870429297124
 21
880.1462658198547
 31
0.0
  0
LINE
  5
6FE8
330
1E
100
AcDbEntity
  8
躯体と製品
  6
DASHED1
 62
     7
100
AcDbLine
 10
1535.870429297124
 20
880.1462658198547
 30
0.0
 11
1535.791925297124
 21
881.6442108198549
 31
0.0
  0
LINE
  5
6FE9
330
1E
100
AcDbEntity
  8
躯体と製品
  6
DASHED1
 62
     7
100
AcDbLine
 10
1535.791925297124
 20
881.6442108198549
 30
0.0
 11
1566.749441297124
 21
883.2666258198552
 31
0.0
  0
LINE
  5
6FEA
330
1E
100
AcDbEntity
  8
躯体と製品
  6
DASHED1
 62
     7
100
AcDbLine
 10
1557.944951297124
 20
879.3003978198552
 30
0.0
 11
1556.841650297124
 21
881.2453218198552
 31
0.0
  0
LINE
  5
6FEB
330
1E
100
AcDbEntity
  8
躯体と製品
  6
DASHED1
 62
     7
100
AcDbLine
 10
1556.841650297124
 20
881.2453218198552
 30
0.0
 11
1554.844391297124
 21
881.1406488198551
 31
0.0
  0
LINE
  5
6FEC
330
1E
100
AcDbEntity
  8
躯体と製品
  6
DASHED1
 62
     7
100
AcDbLine
 10
1554.844391297124
 20
881.1406488198551
 30
0.0
 11
1554.949061297124
 21
879.1433898198549
 31
0.0
  0
LINE
  5
6FED
330
1E
100
AcDbEntity
  8
躯体と製品
  6
DASHED1
 62
     7
100
AcDbLine
 10
1554.949061297124
 20
879.1433898198549
 30
0.0
 11
1552.951802297124
 21
879.0387198198551
 31
0.0
  0
LINE
  5
6FEE
330
1E
100
AcDbEntity
  8
躯体と製品
  6
DASHED1
 62
     7
100
AcDbLine
 10
1552.951802297124
 20
879.0387198198551
 30
0.0
 11
1551.848501297124
 21
880.9836408198551
 31
0.0
  0
LINE
  5
6FEF
330
1E
100
AcDbEntity
  8
躯体と製品
  6
DASHED1
 62
     7
100
AcDbLine
 10
1551.848501297124
 20
880.9836408198551
 30
0.0
 11
1549.851242297124
 21
880.8789708198551
 31
0.0
  0
LINE
  5
6FF0
330
1E
100
AcDbEntity
  8
躯体と製品
  6
DASHED1
 62
     7
100
AcDbLine
 10
1549.851242297124
 20
880.8789708198551
 30
0.0
 11
1549.955915297124
 21
878.8817118198549
 31
0.0
  0
LINE
  5
6FF1
330
1E
100
AcDbEntity
  8
躯体と製品
  6
DASHED1
 62
     7
100
AcDbLine
 10
1549.955915297124
 20
878.8817118198549
 30
0.0
 11
1547.958656297123
 21
878.777038819855
 31
0.0
  0
LINE
  5
6FF2
330
1E
100
AcDbEntity
  8
躯体と製品
  6
DASHED1
 62
     7
100
AcDbLine
 10
1547.958656297123
 20
878.777038819855
 30
0.0
 11
1546.855355297124
 21
880.721962819855
 31
0.0
  0
LINE
  5
6FF3
330
1E
100
AcDbEntity
  8
躯体と製品
  6
DASHED1
 62
     7
100
AcDbLine
 10
1546.855355297124
 20
880.721962819855
 30
0.0
 11
1544.858096297124
 21
880.617289819855
 31
0.0
  0
LINE
  5
6FF4
330
1E
100
AcDbEntity
  8
躯体と製品
  6
DASHED1
 62
     7
100
AcDbLine
 10
1544.858096297124
 20
880.617289819855
 30
0.0
 11
1544.962766297124
 21
878.6200308198552
 31
0.0
  0
LINE
  5
6FF5
330
1E
100
AcDbEntity
  8
躯体と製品
  6
DASHED1
 62
     7
100
AcDbLine
 10
1544.962766297124
 20
878.6200308198552
 30
0.0
 11
1542.965507297124
 21
878.5153578198549
 31
0.0
  0
LINE
  5
6FF6
330
1E
100
AcDbEntity
  8
躯体と製品
  6
DASHED1
 62
     7
100
AcDbLine
 10
1542.965507297124
 20
878.5153578198549
 30
0.0
 11
1541.862206297124
 21
880.4602818198549
 31
0.0
  0
LINE
  5
6FF7
330
1E
100
AcDbEntity
  8
躯体と製品
  6
DASHED1
 62
     7
100
AcDbLine
 10
1541.862206297124
 20
880.4602818198549
 30
0.0
 11
1539.864947297124
 21
880.3556088198549
 31
0.0
  0
LINE
  5
6FF8
330
1E
100
AcDbEntity
  8
躯体と製品
  6
DASHED1
 62
     7
100
AcDbLine
 10
1539.864947297124
 20
880.3556088198549
 30
0.0
 11
1539.969620297124
 21
878.358349819855
 31
0.0
  0
LINE
  5
6FF9
330
1E
100
AcDbEntity
  8
躯体と製品
  6
DASHED1
 62
     7
100
AcDbLine
 10
1539.969620297124
 20
878.358349819855
 30
0.0
 11
1537.972361297124
 21
878.2536798198551
 31
0.0
  0
LINE
  5
6FFA
330
1E
100
AcDbEntity
  8
躯体と製品
  6
DASHED1
 62
     7
100
AcDbLine
 10
1540.618886297124
 20
881.8971798198552
 30
0.0
 11
1538.749442297124
 21
883.766626819855
 31
0.0
  0
LINE
  5
6FFB
330
1E
100
AcDbEntity
  8
躯体と製品
  6
DASHED1
 62
     7
100
AcDbLine
 10
1566.553082297124
 20
890.088964819855
 30
0.0
 11
1559.949062297124
 21
889.145533819855
 31
0.0
  0
LINE
  5
6FFC
330
1E
100
AcDbEntity
  8
躯体と製品
  6
DASHED1
 62
     7
100
AcDbLine
 10
1554.949061297124
 20
879.1433898198549
 30
0.0
 11
1559.607041297123
 21
877.4480238198551
 31
0.0
  0
LINE
  5
6FFD
330
1E
100
AcDbEntity
  8
躯体と製品
  6
DASHED1
 62
     7
100
AcDbLine
 10
1562.749442297124
 20
887.7666258198551
 30
0.0
 11
1574.749442297124
 21
887.7666258198551
 31
0.0
  0
POINT
  5
6FFE
330
1E
100
AcDbEntity
  8
躯体と製品
 62
     4
100
AcDbPoint
 10
1609.249442297124
 20
927.7666268198547
 30
0.0
  0
POINT
  5
6FFF
330
1E
100
AcDbEntity
  8
躯体と製品
 62
     4
100
AcDbPoint
 10
1609.249442297124
 20
891.766626819855
 30
0.0
  0
ARC
  5
7000
330
1E
100
AcDbEntity
  8
躯体と製品
  6
Continuous
 62
     7
100
AcDbCircle
 10
1604.296264604171
 20
894.7829711118634
 30
0.0
 40
0.5
100
AcDbArc
 50
268.0950670994443
 51
358.0950670957424
  0
ARC
  5
7001
330
1E
100
AcDbEntity
  8
躯体と製品
  6
Continuous
 62
     7
100
AcDbCircle
 10
1605.312332575014
 20
895.2494535644419
 30
0.0
 40
0.4999999999354556
100
AcDbArc
 50
358.0950670994413
 51
178.0950670994412
  0
LINE
  5
7002
330
1E
100
AcDbEntity
  8
躯体と製品
  6
Continuous
 62
     7
100
AcDbLine
 10
1605.778815027589
 20
894.2333855935023
 30
0.0
 11
1605.812056253944
 21
895.2328329512955
 31
0.0
  0
ARC
  5
7003
330
1E
100
AcDbEntity
  8
躯体と製品
  6
Continuous
 62
     7
100
AcDbCircle
 10
1604.77936766986
 20
894.2666268198548
 30
0.0
 40
1.0
100
AcDbArc
 50
268.0950670994443
 51
358.0950670957424
  0
LINE
  5
7004
330
1E
100
AcDbEntity
  8
躯体と製品
  6
Continuous
 62
     7
100
AcDbLine
 10
1604.795988283036
 20
894.766350498687
 30
0.0
 11
1604.812608896213
 21
895.2660741775837
 31
0.0
  0
LINE
  5
7005
330
1E
100
AcDbEntity
  8
躯体と製品
  6
Continuous
 62
     7
100
AcDbLine
 10
1598.782683523412
 20
894.4660741775859
 30
0.0
 11
1604.279643991027
 21
894.283247432998
 31
0.0
  0
ARC
  5
7006
330
1E
100
AcDbEntity
  8
躯体と製品
  6
Continuous
 62
     7
100
AcDbCircle
 10
1598.749442297124
 20
893.4666268198547
 30
0.0
 40
1.0
100
AcDbArc
 50
88.09506709944431
 51
180.0
  0
LINE
  5
7007
330
1E
100
AcDbEntity
  8
躯体と製品
  6
Continuous
 62
     7
100
AcDbLine
 10
1599.05941466501
 20
893.456317260733
 30
0.0
 11
1604.746126443572
 21
893.2671794621242
 31
0.0
  0
ARC
  5
7008
330
1E
100
AcDbEntity
  8
躯体と製品
  6
Continuous
 62
     7
100
AcDbCircle
 10
1599.049442297124
 20
893.1564830534137
 30
0.0
 40
0.2999999999999999
100
AcDbArc
 50
88.09506709944431
 51
180.0
  0
LINE
  5
7009
330
1E
100
AcDbEntity
  8
躯体と製品
  6
Continuous
 62
     7
100
AcDbLine
 10
1597.749442297124
 20
893.4666268198547
 30
0.0
 11
1597.749442297124
 21
891.766626819855
 31
0.0
  0
LINE
  5
700A
330
1E
100
AcDbEntity
  8
躯体と製品
  6
Continuous
 62
     7
100
AcDbLine
 10
1598.749442297124
 20
893.1564830534137
 30
0.0
 11
1598.749442297124
 21
892.0666268198552
 31
0.0
  0
LINE
  5
700B
330
1E
100
AcDbEntity
  8
躯体と製品
  6
Continuous
 62
     4
100
AcDbLine
 10
1746.581962919967
 20
872.2765502274326
 30
0.0
 11
1744.238880880145
 21
874.6196322672538
 31
0.0
  0
LINE
  5
700C
330
1E
100
AcDbEntity
  8
躯体と製品
  6
Continuous
 62
     4
100
AcDbLine
 10
1746.652387895622
 20
873.6203388141499
 30
0.0
 11
1745.731309301838
 21
874.5414174079339
 31
0.0
  0
LINE
  5
700D
330
1E
100
AcDbEntity
  8
躯体と製品
  6
Continuous
 62
     4
100
AcDbLine
 10
1746.511537944312
 20
870.9327616407145
 30
0.0
 11
1742.746452458452
 21
874.6978471265737
 31
0.0
  0
LINE
  5
700E
330
1E
100
AcDbEntity
  8
躯体と製品
  6
Continuous
 62
     4
100
AcDbLine
 10
1745.481042047693
 20
870.5490439749599
 30
0.0
 11
1741.254024036759
 21
874.7760619858937
 31
0.0
  0
LINE
  5
700F
330
1E
100
AcDbEntity
  8
躯体と製品
  6
Continuous
 62
     4
100
AcDbLine
 10
1743.988613626002
 20
870.6272588342796
 30
0.0
 11
1739.761595615068
 21
874.8542768452132
 31
0.0
  0
LINE
  5
7010
330
1E
100
AcDbEntity
  8
躯体と製品
  6
Continuous
 62
     4
100
AcDbLine
 10
1742.496185204309
 20
870.7054736935992
 30
0.0
 11
1738.269167193375
 21
874.9324917045329
 31
0.0
  0
LINE
  5
7011
330
1E
100
AcDbEntity
  8
躯体と製品
  6
Continuous
 62
     4
100
AcDbLine
 10
1741.003756782615
 20
870.7836885529191
 30
0.0
 11
1736.776738771682
 21
875.010706563853
 31
0.0
  0
LINE
  5
7012
330
1E
100
AcDbEntity
  8
躯体と製品
  6
Continuous
 62
     4
100
AcDbLine
 10
1739.511328360922
 20
870.8619034122389
 30
0.0
 11
1735.284310349988
 21
875.0889214231728
 31
0.0
  0
LINE
  5
7013
330
1E
100
AcDbEntity
  8
躯体と製品
  6
Continuous
 62
     4
100
AcDbLine
 10
1738.018899939229
 20
870.9401182715586
 30
0.0
 11
1733.791881928295
 21
875.1671362824925
 31
0.0
  0
LINE
  5
7014
330
1E
100
AcDbEntity
  8
躯体と製品
  6
Continuous
 62
     4
100
AcDbLine
 10
1736.526471517536
 20
871.0183331308783
 30
0.0
 11
1732.299453506603
 21
875.2453511418122
 31
0.0
  0
LINE
  5
7015
330
1E
100
AcDbEntity
  8
躯体と製品
  6
Continuous
 62
     4
100
AcDbLine
 10
1735.034043095843
 20
871.0965479901984
 30
0.0
 11
1731.675547717697
 21
874.4550433683443
 31
0.0
  0
LINE
  5
7016
330
1E
100
AcDbEntity
  8
躯体と製品
  6
Continuous
 62
     4
100
AcDbLine
 10
1733.541614674149
 20
871.1747628495187
 30
0.0
 11
1731.605122742041
 21
873.111254781627
 31
0.0
  0
LINE
  5
7017
330
1E
100
AcDbEntity
  8
躯体と製品
  6
Continuous
 62
     7
100
AcDbLine
 10
1731.509217631855
 20
871.281276265126
 30
0.0
 11
1731.718561456827
 21
875.2757944041443
 31
0.0
  0
LINE
  5
7018
330
1E
100
AcDbEntity
  8
躯体と製品
  6
Continuous
 62
     7
100
AcDbLine
 10
1746.698004478146
 20
874.4907550605002
 30
0.0
 11
1731.718561456827
 21
875.2757944041443
 31
0.0
  0
LINE
  5
7019
330
1E
100
AcDbEntity
  8
躯体と製品
  6
Continuous
 62
     4
100
AcDbLine
 10
1732.049186252458
 20
871.2529777088382
 30
0.0
 11
1731.534697766386
 21
871.7674661949109
 31
0.0
  0
ARC
  5
701A
330
1E
100
AcDbEntity
  8
躯体と製品
  6
Continuous
 62
     3
100
AcDbCircle
 10
1755.524389598109
 20
845.7452656071781
 30
0.0
 40
0.5999999999999984
100
AcDbArc
 50
166.9999999999997
 51
346.9999999999997
  0
ARC
  5
701B
330
1E
100
AcDbEntity
  8
躯体と製品
  6
Continuous
 62
     3
100
AcDbCircle
 10
1755.035775069765
 20
848.5187961966751
 30
0.0
 40
0.5
100
AcDbArc
 50
346.9999999999997
 51
86.99999999999441
  0
ARC
  5
701C
330
1E
100
AcDbEntity
  8
躯体と製品
  6
Continuous
 62
     3
100
AcDbCircle
 10
1757.109529337165
 20
848.6103898099411
 30
0.0
 40
0.2999999999999999
100
AcDbArc
 50
86.99999999999441
 51
166.9999999999997
  0
ARC
  5
701D
330
1E
100
AcDbEntity
  8
躯体と製品
  6
Continuous
 62
     3
100
AcDbCircle
 10
1759.791770576615
 20
800.5835299960123
 30
0.0
 40
0.6000000000000015
100
AcDbArc
 50
90.0
 51
270.0
  0
LINE
  5
701E
330
1E
100
AcDbEntity
  8
躯体と製品
  6
Continuous
 62
     3
100
AcDbLine
 10
1770.95924485457
 20
792.8682172902154
 30
0.0
 11
1770.95924485457
 21
789.1835299960123
 31
0.0
  0
LINE
  5
701F
330
1E
100
AcDbEntity
  8
躯体と製品
  6
Continuous
 62
     3
100
AcDbLine
 10
1773.95924485457
 20
791.6835299960123
 30
0.0
 11
1773.95924485457
 21
793.1835299960123
 31
0.0
  0
LINE
  5
7020
330
1E
100
AcDbEntity
  8
躯体と製品
  6
Continuous
 62
     3
100
AcDbLine
 10
1771.45924485457
 20
789.1835299960123
 30
0.0
 11
1770.95924485457
 21
789.1835299960123
 31
0.0
  0
ARC
  5
7021
330
1E
100
AcDbEntity
  8
躯体と製品
  6
Continuous
 62
     3
100
AcDbCircle
 10
1771.45924485457
 20
791.6835299960123
 30
0.0
 40
2.5
100
AcDbArc
 50
270.0
 51
0.0
  0
LINE
  5
7022
330
1E
100
AcDbEntity
  8
躯体と製品
  6
Continuous
 62
     3
100
AcDbLine
 10
1764.191770576615
 20
801.1835299960123
 30
0.0
 11
1764.191770576615
 21
802.1835299960125
 31
0.0
  0
LINE
  5
7023
330
1E
100
AcDbEntity
  8
躯体と製品
  6
Continuous
 62
     3
100
AcDbLine
 10
1764.191770576615
 20
802.1835299960125
 30
0.0
 11
1762.191770576615
 21
801.1835299960123
 31
0.0
  0
LINE
  5
7024
330
1E
100
AcDbEntity
  8
躯体と製品
  6
Continuous
 62
     3
100
AcDbLine
 10
1759.791770576615
 20
801.1835299960123
 30
0.0
 11
1762.191770576615
 21
801.1835299960123
 31
0.0
  0
ARC
  5
7025
330
1E
100
AcDbEntity
  8
躯体と製品
  6
Continuous
 62
     3
100
AcDbCircle
 10
1768.574321998347
 20
801.6835299960122
 30
0.0
 40
0.5
100
AcDbArc
 50
270.0
 51
11.99999999999979
  0
LINE
  5
7026
330
1E
100
AcDbEntity
  8
躯体と製品
  6
Continuous
 62
     3
100
AcDbLine
 10
1769.041946434021
 20
799.9835299960125
 30
0.0
 11
1759.791770576615
 21
799.9835299960125
 31
0.0
  0
LINE
  5
7027
330
1E
100
AcDbEntity
  8
躯体と製品
  6
Continuous
 62
     3
100
AcDbLine
 10
1769.531020234389
 20
799.5874858414211
 30
0.0
 11
1770.95924485457
 21
792.8682172902154
 31
0.0
  0
ARC
  5
7028
330
1E
100
AcDbEntity
  8
躯体と製品
  6
Continuous
 62
     3
100
AcDbCircle
 10
1769.041946434021
 20
799.4835299960125
 30
0.0
 40
0.5
100
AcDbArc
 50
11.99999999999979
 51
90.0
  0
ARC
  5
7029
330
1E
100
AcDbEntity
  8
躯体と製品
  6
Continuous
 62
     3
100
AcDbCircle
 10
1745.810416405085
 20
848.0009044113824
 30
0.0
 40
0.5
100
AcDbArc
 50
177.0000000000011
 51
266.9999999999944
  0
LINE
  5
702A
330
1E
100
AcDbEntity
  8
躯体と製品
  6
Continuous
 62
     3
100
AcDbLine
 10
1746.283563194341
 20
847.4754216658835
 30
0.0
 11
1745.784248426963
 21
847.5015896440051
 31
0.0
  0
ARC
  5
702B
330
1E
100
AcDbEntity
  8
躯体と製品
  6
Continuous
 62
     3
100
AcDbCircle
 10
1746.309731172462
 20
847.9747364332611
 30
0.0
 40
0.5
100
AcDbArc
 50
266.9999999999944
 51
357.0000000000011
  0
ARC
  5
702C
330
1E
100
AcDbEntity
  8
躯体と製品
  6
Continuous
 62
     3
100
AcDbCircle
 10
1758.250240599862
 20
847.8496470236617
 30
0.0
 40
1.0
100
AcDbArc
 50
11.99999999999979
 51
86.99999999999441
  0
ARC
  5
702D
330
1E
100
AcDbEntity
  8
躯体と製品
  6
Continuous
 62
     3
100
AcDbCircle
 10
1759.068851949115
 20
848.8081177667492
 30
0.0
 40
3.0
100
AcDbArc
 50
11.99999999999979
 51
86.99999999999441
  0
ARC
  5
702E
330
1E
100
AcDbEntity
  8
躯体と製品
  6
Continuous
 62
     3
100
AcDbCircle
 10
1746.176768098785
 20
854.9913111546644
 30
0.0
 40
0.5
100
AcDbArc
 50
86.99999999999441
 51
177.0000000000011
  0
LINE
  5
702F
330
1E
100
AcDbEntity
  8
躯体と製品
  6
Continuous
 62
     3
100
AcDbLine
 10
1746.702250844284
 20
855.4644579439202
 30
0.0
 11
1746.202936076907
 21
855.4906259220418
 31
0.0
  0
ARC
  5
7030
330
1E
100
AcDbEntity
  8
躯体と製品
  6
Continuous
 62
     3
100
AcDbCircle
 10
1746.676082866163
 20
854.9651431765431
 30
0.0
 40
0.5
100
AcDbArc
 50
357.0000000000011
 51
86.99999999999441
  0
LINE
  5
7031
330
1E
100
AcDbEntity
  8
躯体と製品
  6
Continuous
 62
     3
100
AcDbLine
 10
1762.003294751316
 20
849.4318528392026
 30
0.0
 11
1773.95924485457
 21
793.1835299960123
 31
0.0
  0
LINE
  5
7032
330
1E
100
AcDbEntity
  8
躯体と製品
  6
Continuous
 62
     3
100
AcDbLine
 10
1759.228388200596
 20
848.0575587144794
 30
0.0
 11
1769.063395798714
 21
801.7874858414211
 31
0.0
  0
LINE
  5
7033
330
1E
100
AcDbEntity
  8
躯体と製品
  6
Continuous
 62
     3
100
AcDbLine
 10
1768.574321998347
 20
801.1835299960123
 30
0.0
 11
1764.191770576615
 21
801.1835299960123
 31
0.0
  0
LINE
  5
7034
330
1E
100
AcDbEntity
  8
躯体と製品
  6
Continuous
 62
     3
100
AcDbLine
 10
1747.070725721054
 20
852.9417161289122
 30
0.0
 11
1747.17539763354
 21
854.9389751984215
 31
0.0
  0
LINE
  5
7035
330
1E
100
AcDbEntity
  8
躯体と製品
  6
Continuous
 62
     3
100
AcDbLine
 10
1747.54387251031
 20
852.4162333834135
 30
0.0
 11
1759.225859817844
 21
851.8040063710129
 31
0.0
  0
ARC
  5
7036
330
1E
100
AcDbEntity
  8
躯体と製品
  6
Continuous
 62
     3
100
AcDbCircle
 10
1747.570040488431
 20
852.9155481507908
 30
0.0
 40
0.5
100
AcDbArc
 50
177.0000000000011
 51
266.9999999999944
  0
LINE
  5
7037
330
1E
100
AcDbEntity
  8
躯体と製品
  6
Continuous
 62
     3
100
AcDbLine
 10
1746.861381896082
 20
848.9471979898942
 30
0.0
 11
1746.80904593984
 21
847.9485684551393
 31
0.0
  0
ARC
  5
7038
330
1E
100
AcDbEntity
  8
躯体と製品
  6
Continuous
 62
     3
100
AcDbCircle
 10
1747.36069666346
 20
848.9210300117724
 30
0.0
 40
0.5
100
AcDbArc
 50
86.99999999999441
 51
177.0000000000011
  0
LINE
  5
7039
330
1E
100
AcDbEntity
  8
躯体と製品
  6
Continuous
 62
     3
100
AcDbLine
 10
1756.81721831773
 20
848.6778751262445
 30
0.0
 11
1756.109011636981
 21
845.6102949745721
 31
0.0
  0
LINE
  5
703A
330
1E
100
AcDbEntity
  8
躯体と製品
  6
Continuous
 62
     3
100
AcDbLine
 10
1758.302576556105
 20
848.8482765584162
 30
0.0
 11
1757.125230124038
 21
848.9099786703677
 31
0.0
  0
LINE
  5
703B
330
1E
100
AcDbEntity
  8
躯体と製品
  6
Continuous
 62
     3
100
AcDbLine
 10
1747.386864641581
 20
849.4203447791498
 30
0.0
 11
1755.061943047887
 21
849.0181109640523
 31
0.0
  0
LINE
  5
703C
330
1E
100
AcDbEntity
  8
躯体と製品
  6
Continuous
 62
     3
100
AcDbLine
 10
1755.522960102158
 20
848.4063206695029
 30
0.0
 11
1754.939767559238
 21
845.8802362397848
 31
0.0
  0
LINE
  5
703D
330
1E
100
AcDbEntity
  8
躯体と製品
  6
Continuous
 62
     3
100
AcDbLine
 10
1745.258765681465
 20
847.0284428547493
 30
0.0
 11
1746.724172456267
 21
874.9900698278773
 31
0.0
  0
LINE
  5
703E
330
1E
100
AcDbEntity
  8
躯体と製品
  6
DASHED1
 62
     7
100
AcDbLine
 10
1717.085671700296
 20
854.0124800488236
 30
0.0
 11
1745.546613440801
 21
852.5209052958995
 31
0.0
  0
ARC
  5
703F
330
1E
100
AcDbEntity
  8
躯体と製品
  6
DASHED1
 62
     7
100
AcDbCircle
 10
1717.007167765931
 20
852.5145357466914
 30
0.0
 40
1.5
100
AcDbArc
 50
86.99999999999441
 51
266.9999999999944
  0
LINE
  5
7040
330
1E
100
AcDbEntity
  8
躯体と製品
  6
DASHED1
 62
     7
100
AcDbLine
 10
1716.928663831566
 20
851.0165914445595
 30
0.0
 11
1720.423867203208
 21
850.8334155977092
 31
0.0
  0
LINE
  5
7041
330
1E
100
AcDbEntity
  8
躯体と製品
  6
DASHED1
 62
     7
100
AcDbLine
 10
1720.476203159451
 20
851.832045132464
 30
0.0
 11
1720.423867203208
 21
850.8334155977092
 31
0.0
  0
LINE
  5
7042
330
1E
100
AcDbEntity
  8
躯体と製品
  6
DASHED1
 62
     7
100
AcDbLine
 10
1720.476203159451
 20
851.832045132464
 30
0.0
 11
1740.448793854542
 21
850.7853260076052
 31
0.0
  0
LINE
  5
7043
330
1E
100
AcDbEntity
  8
躯体と製品
  6
DASHED1
 62
     7
100
AcDbLine
 10
1740.448793854542
 20
850.7853260076052
 30
0.0
 11
1740.396457898299
 21
849.7866964728505
 31
0.0
  0
LINE
  5
7044
330
1E
100
AcDbEntity
  8
躯体と製品
  6
DASHED1
 62
     7
100
AcDbLine
 10
1740.396457898299
 20
849.7866964728505
 30
0.0
 11
1745.389605572072
 21
849.5250166916358
 31
0.0
  0
LINE
  5
7045
330
1E
100
AcDbEntity
  8
躯体と製品
  6
Continuous
 62
     4
100
AcDbLine
 10
1732.284698055552
 20
875.7468106152334
 30
0.0
 11
1731.770209569478
 21
876.2612991013064
 31
0.0
  0
LINE
  5
7046
330
1E
100
AcDbEntity
  8
躯体と製品
  6
DASHED1
 62
     4
100
AcDbLine
 10
1710.620747702513
 20
854.8519785317797
 30
0.0
 11
1710.71495242375
 21
856.6495116943379
 31
0.0
  0
LINE
  5
7047
330
1E
100
AcDbEntity
  8
躯体と製品
  6
DASHED1
 62
     4
100
AcDbLine
 10
1640.716680269692
 20
858.5154954687856
 30
0.0
 11
1640.810884990929
 21
860.3130286313438
 31
0.0
  0
LINE
  5
7048
330
1E
100
AcDbEntity
  8
躯体と製品
  6
Continuous
 62
     3
100
AcDbLine
 10
1746.724172456267
 20
874.9900698278773
 30
0.0
 11
1606.916037590627
 21
882.3171037018896
 31
0.0
  0
LINE
  5
7049
330
1E
100
AcDbEntity
  8
躯体と製品
  6
Continuous
 62
     3
100
AcDbLine
 10
1745.258765681465
 20
847.0284428547493
 30
0.0
 11
1605.450630815824
 21
854.3554767287615
 31
0.0
  0
LINE
  5
704A
330
1E
100
AcDbEntity
  8
躯体と製品
  6
Continuous
 62
     3
100
AcDbLine
 10
1746.488660653174
 20
870.496236921482
 30
0.0
 11
1606.680525787534
 21
877.823270795494
 31
0.0
  0
LINE
  5
704B
330
1E
100
AcDbEntity
  8
躯体と製品
  6
Continuous
 62
     3
100
AcDbLine
 10
1746.41015671881
 20
868.9982926193499
 30
0.0
 11
1606.602021853169
 21
876.3253264933622
 31
0.0
  0
LINE
  5
704C
330
1E
100
AcDbEntity
  8
躯体と製品
  6
DASHED1
 62
     4
100
AcDbLine
 10
1745.66698614016
 20
854.817753225835
 30
0.0
 11
1605.858851274519
 21
862.1447870998473
 31
0.0
  0
LINE
  5
704D
330
1E
100
AcDbEntity
  8
躯体と製品
  6
DASHED1
 62
     4
100
AcDbLine
 10
1745.572781418922
 20
853.0202200632766
 30
0.0
 11
1605.764646553282
 21
860.3472539372889
 31
0.0
  0
LINE
  5
704E
330
1E
100
AcDbEntity
  8
躯体と製品
  6
DASHED1
 62
     4
100
AcDbLine
 10
1745.389605572072
 20
849.5250166916358
 30
0.0
 11
1605.581470706432
 21
856.8520505656479
 31
0.0
  0
LINE
  5
704F
330
1E
100
AcDbEntity
  8
躯体と製品
  6
DASHED1
 62
     4
100
AcDbLine
 10
1745.311101637708
 20
848.0270723895038
 30
0.0
 11
1605.502966772067
 21
855.354106263516
 31
0.0
  0
LINE
  5
7050
330
1E
100
AcDbEntity
  8
躯体と製品
  6
DASHED1
 62
     4
100
AcDbLine
 10
1731.666225500584
 20
874.2771648693896
 30
0.0
 11
1621.816976677581
 21
880.0341200561135
 31
0.0
  0
ARC
  5
7051
330
1E
100
AcDbEntity
  8
躯体と製品
  6
Continuous
 62
     7
100
AcDbCircle
 10
1624.778002071023
 20
827.8055793421605
 30
0.0
 40
1.0
100
AcDbArc
 50
91.63657704161829
 51
175.0000000000005
  0
LINE
  5
7052
330
1E
100
AcDbEntity
  8
躯体と製品
  6
DASHED1
 62
     7
100
AcDbLine
 10
1671.75355369286
 20
848.8856937252366
 30
0.0
 11
1671.565144250385
 21
845.2906274001202
 31
0.0
  0
LINE
  5
7053
330
1E
100
AcDbEntity
  8
躯体と製品
  6
DASHED1
 62
     7
100
AcDbLine
 10
1677.745330901387
 20
848.571677987779
 30
0.0
 11
1677.556921458913
 21
844.9766116626628
 31
0.0
  0
LINE
  5
7054
330
1E
100
AcDbEntity
  8
躯体と製品
  6
Continuous
 62
     4
100
AcDbLine
 10
1688.749442297124
 20
839.3051714286212
 30
0.0
 11
1688.749442297124
 21
837.7051714286212
 31
0.0
  0
LINE
  5
7055
330
1E
100
AcDbEntity
  8
躯体と製品
  6
Continuous
 62
     4
100
AcDbLine
 10
1660.749442297124
 20
839.3051714286212
 30
0.0
 11
1660.749442297124
 21
837.7051714286212
 31
0.0
  0
LINE
  5
7056
330
1E
100
AcDbEntity
  8
躯体と製品
  6
Continuous
 62
     3
100
AcDbLine
 10
1683.759347805234
 20
848.2564967172779
 30
0.0
 11
1665.959347805234
 21
849.1893551885159
 31
0.0
  0
LINE
  5
7057
330
1E
100
AcDbEntity
  8
躯体と製品
  6
Continuous
 62
     3
100
AcDbLine
 10
1683.675610275245
 20
846.6586894616705
 30
0.0
 11
1665.875610275245
 21
847.5915479329085
 31
0.0
  0
ARC
  5
7058
330
1E
100
AcDbEntity
  8
躯体と製品
  6
Continuous
 62
     3
100
AcDbCircle
 10
1680.205694205518
 20
845.8391677111857
 30
0.0
 40
1.0
100
AcDbArc
 50
86.99999999999441
 51
177.0000000000011
  0
LINE
  5
7059
330
1E
100
AcDbEntity
  8
躯体と製品
  6
Continuous
 62
     3
100
AcDbLine
 10
1679.207064670763
 20
845.8915036674284
 30
0.0
 11
1679.15472871452
 21
844.892874132674
 31
0.0
  0
ARC
  5
705A
330
1E
100
AcDbEntity
  8
躯体と製品
  6
Continuous
 62
     3
100
AcDbCircle
 10
1669.021043416266
 20
846.4253304211064
 30
0.0
 40
1.0
100
AcDbArc
 50
357.0000000000011
 51
86.99999999999441
  0
LINE
  5
705B
330
1E
100
AcDbEntity
  8
躯体と製品
  6
Continuous
 62
     3
100
AcDbLine
 10
1670.019672951021
 20
846.3729944648635
 30
0.0
 11
1669.967336994778
 21
845.374364930109
 31
0.0
  0
LINE
  5
705C
330
1E
100
AcDbEntity
  8
躯体と製品
  6
Continuous
 62
     3
100
AcDbLine
 10
1679.15472871452
 20
844.892874132674
 30
0.0
 11
1669.967336994778
 21
845.374364930109
 31
0.0
  0
ARC
  5
705D
330
1E
100
AcDbEntity
  8
躯体と製品
  6
Continuous
 62
     3
100
AcDbCircle
 10
1683.649442297124
 20
846.1593746942932
 30
0.0
 40
2.1
100
AcDbArc
 50
0.0
 51
86.99999999999441
  0
LINE
  5
705E
330
1E
100
AcDbEntity
  8
躯体と製品
  6
Continuous
 62
     3
100
AcDbLine
 10
1685.749442297124
 20
846.1593746942932
 30
0.0
 11
1685.749442297124
 21
839.8051714286212
 31
0.0
  0
ARC
  5
705F
330
1E
100
AcDbEntity
  8
躯体と製品
  6
Continuous
 62
     3
100
AcDbCircle
 10
1665.849442297124
 20
847.0922331655312
 30
0.0
 40
2.1
100
AcDbArc
 50
86.99999999999441
 51
180.0
  0
ARC
  5
7060
330
1E
100
AcDbEntity
  8
躯体と製品
  6
Continuous
 62
     3
100
AcDbCircle
 10
1683.649442297124
 20
846.1593746942932
 30
0.0
 40
0.5
100
AcDbArc
 50
0.0
 51
86.99999999999441
  0
LINE
  5
7061
330
1E
100
AcDbEntity
  8
躯体と製品
  6
Continuous
 62
     3
100
AcDbLine
 10
1684.149442297124
 20
846.1593746942932
 30
0.0
 11
1684.149442297124
 21
839.8051714286212
 31
0.0
  0
ARC
  5
7062
330
1E
100
AcDbEntity
  8
躯体と製品
  6
Continuous
 62
     3
100
AcDbCircle
 10
1665.849442297124
 20
847.0922331655312
 30
0.0
 40
0.5
100
AcDbArc
 50
86.99999999999441
 51
180.0
  0
LINE
  5
7063
330
1E
100
AcDbEntity
  8
躯体と製品
  6
Continuous
 62
     3
100
AcDbLine
 10
1665.349442297124
 20
847.0922331655312
 30
0.0
 11
1665.349442297124
 21
839.8051714286212
 31
0.0
  0
ARC
  5
7064
330
1E
100
AcDbEntity
  8
躯体と製品
  6
Continuous
 62
     3
100
AcDbCircle
 10
1686.249442297124
 20
839.8051714286212
 30
0.0
 40
0.5
100
AcDbArc
 50
180.0
 51
270.0
  0
ARC
  5
7065
330
1E
100
AcDbEntity
  8
躯体と製品
  6
Continuous
 62
     3
100
AcDbCircle
 10
1686.249442297124
 20
839.8051714286212
 30
0.0
 40
2.1
100
AcDbArc
 50
180.0
 51
270.0
  0
LINE
  5
7066
330
1E
100
AcDbEntity
  8
躯体と製品
  6
Continuous
 62
     3
100
AcDbLine
 10
1690.749442297124
 20
839.3051714286212
 30
0.0
 11
1690.749442297124
 21
837.7051714286212
 31
0.0
  0
LINE
  5
7067
330
1E
100
AcDbEntity
  8
躯体と製品
  6
Continuous
 62
     3
100
AcDbLine
 10
1686.249442297124
 20
839.3051714286212
 30
0.0
 11
1690.749442297124
 21
839.3051714286212
 31
0.0
  0
LINE
  5
7068
330
1E
100
AcDbEntity
  8
躯体と製品
  6
Continuous
 62
     3
100
AcDbLine
 10
1690.749442297124
 20
837.7051714286212
 30
0.0
 11
1686.249442297124
 21
837.7051714286212
 31
0.0
  0
ARC
  5
7069
330
1E
100
AcDbEntity
  8
躯体と製品
  6
Continuous
 62
     3
100
AcDbCircle
 10
1663.249442297124
 20
839.8051714286212
 30
0.0
 40
0.5
100
AcDbArc
 50
270.0
 51
0.0
  0
ARC
  5
706A
330
1E
100
AcDbEntity
  8
躯体と製品
  6
Continuous
 62
     3
100
AcDbCircle
 10
1663.249442297124
 20
839.8051714286212
 30
0.0
 40
2.1
100
AcDbArc
 50
270.0
 51
0.0
  0
LINE
  5
706B
330
1E
100
AcDbEntity
  8
躯体と製品
  6
Continuous
 62
     3
100
AcDbLine
 10
1658.749442297124
 20
839.3051714286212
 30
0.0
 11
1663.249442297124
 21
839.3051714286212
 31
0.0
  0
LINE
  5
706C
330
1E
100
AcDbEntity
  8
躯体と製品
  6
Continuous
 62
     3
100
AcDbLine
 10
1658.749442297124
 20
837.7051714286212
 30
0.0
 11
1658.749442297124
 21
839.3051714286212
 31
0.0
  0
LINE
  5
706D
330
1E
100
AcDbEntity
  8
躯体と製品
  6
Continuous
 62
     3
100
AcDbLine
 10
1658.749442297124
 20
837.7051714286212
 30
0.0
 11
1663.249442297124
 21
837.7051714286212
 31
0.0
  0
LINE
  5
706E
330
1E
100
AcDbEntity
  8
躯体と製品
  6
Continuous
 62
     3
100
AcDbLine
 10
1663.749442297123
 20
847.0922331655312
 30
0.0
 11
1663.749442297123
 21
839.8051714286212
 31
0.0
  0
LINE
  5
706F
330
1E
100
AcDbEntity
  8
躯体と製品
  6
Continuous
 62
     4
100
AcDbLine
 10
1689.593127196001
 20
828.8051714286218
 30
0.0
 11
1689.749442297123
 21
828.9614865297439
 31
0.0
  0
LINE
  5
7070
330
1E
100
AcDbEntity
  8
躯体と製品
  6
Continuous
 62
     4
100
AcDbLine
 10
1688.178913633629
 20
828.805171428621
 30
0.0
 11
1689.178913633629
 21
829.8051714286211
 31
0.0
  0
LINE
  5
7071
330
1E
100
AcDbEntity
  8
躯体と製品
  6
Continuous
 62
     4
100
AcDbLine
 10
1686.764700071256
 20
828.8051714286211
 30
0.0
 11
1687.764700071256
 21
829.8051714286215
 31
0.0
  0
LINE
  5
7072
330
1E
100
AcDbEntity
  8
躯体と製品
  6
Continuous
 62
     4
100
AcDbLine
 10
1685.350486508882
 20
828.8051714286213
 30
0.0
 11
1686.350486508883
 21
829.8051714286215
 31
0.0
  0
LINE
  5
7073
330
1E
100
AcDbEntity
  8
躯体と製品
  6
Continuous
 62
     4
100
AcDbLine
 10
1683.936272946509
 20
828.8051714286213
 30
0.0
 11
1684.936272946509
 21
829.8051714286215
 31
0.0
  0
LINE
  5
7074
330
1E
100
AcDbEntity
  8
躯体と製品
  6
Continuous
 62
     4
100
AcDbLine
 10
1682.522059384136
 20
828.8051714286215
 30
0.0
 11
1683.522059384135
 21
829.8051714286211
 31
0.0
  0
LINE
  5
7075
330
1E
100
AcDbEntity
  8
躯体と製品
  6
Continuous
 62
     4
100
AcDbLine
 10
1681.107845821763
 20
828.8051714286215
 30
0.0
 11
1682.107845821763
 21
829.8051714286213
 31
0.0
  0
LINE
  5
7076
330
1E
100
AcDbEntity
  8
躯体と製品
  6
Continuous
 62
     4
100
AcDbLine
 10
1679.693632259389
 20
828.8051714286217
 30
0.0
 11
1680.693632259389
 21
829.8051714286215
 31
0.0
  0
LINE
  5
7077
330
1E
100
AcDbEntity
  8
躯体と製品
  6
Continuous
 62
     4
100
AcDbLine
 10
1678.279418697016
 20
828.8051714286215
 30
0.0
 11
1679.279418697015
 21
829.8051714286211
 31
0.0
  0
LINE
  5
7078
330
1E
100
AcDbEntity
  8
躯体と製品
  6
Continuous
 62
     4
100
AcDbLine
 10
1676.865205134645
 20
828.8051714286217
 30
0.0
 11
1677.865205134645
 21
829.805171428622
 31
0.0
  0
LINE
  5
7079
330
1E
100
AcDbEntity
  8
躯体と製品
  6
Continuous
 62
     4
100
AcDbLine
 10
1675.450991572271
 20
828.8051714286218
 30
0.0
 11
1676.450991572272
 21
829.805171428622
 31
0.0
  0
LINE
  5
707A
330
1E
100
AcDbEntity
  8
躯体と製品
  6
Continuous
 62
     4
100
AcDbLine
 10
1674.036778009898
 20
828.8051714286217
 30
0.0
 11
1675.036778009898
 21
829.8051714286215
 31
0.0
  0
LINE
  5
707B
330
1E
100
AcDbEntity
  8
躯体と製品
  6
Continuous
 62
     4
100
AcDbLine
 10
1672.622564447525
 20
828.8051714286218
 30
0.0
 11
1673.622564447525
 21
829.8051714286215
 31
0.0
  0
LINE
  5
707C
330
1E
100
AcDbEntity
  8
躯体と製品
  6
Continuous
 62
     4
100
AcDbLine
 10
1671.208350885151
 20
828.805171428622
 30
0.0
 11
1672.208350885151
 21
829.8051714286215
 31
0.0
  0
LINE
  5
707D
330
1E
100
AcDbEntity
  8
躯体と製品
  6
Continuous
 62
     4
100
AcDbLine
 10
1669.794137322778
 20
828.805171428622
 30
0.0
 11
1670.794137322778
 21
829.8051714286218
 31
0.0
  0
LINE
  5
707E
330
1E
100
AcDbEntity
  8
躯体と製品
  6
Continuous
 62
     4
100
AcDbLine
 10
1668.379923760405
 20
828.805171428622
 30
0.0
 11
1669.379923760405
 21
829.805171428622
 31
0.0
  0
LINE
  5
707F
330
1E
100
AcDbEntity
  8
躯体と製品
  6
Continuous
 62
     4
100
AcDbLine
 10
1666.965710198031
 20
828.8051714286215
 30
0.0
 11
1667.965710198031
 21
829.8051714286218
 31
0.0
  0
LINE
  5
7080
330
1E
100
AcDbEntity
  8
躯体と製品
  6
Continuous
 62
     4
100
AcDbLine
 10
1665.551496635659
 20
828.8051714286213
 30
0.0
 11
1666.55149663566
 21
829.8051714286215
 31
0.0
  0
LINE
  5
7081
330
1E
100
AcDbEntity
  8
躯体と製品
  6
Continuous
 62
     4
100
AcDbLine
 10
1664.137283073286
 20
828.8051714286215
 30
0.0
 11
1665.137283073287
 21
829.8051714286216
 31
0.0
  0
LINE
  5
7082
330
1E
100
AcDbEntity
  8
躯体と製品
  6
Continuous
 62
     4
100
AcDbLine
 10
1662.723069510913
 20
828.805171428621
 30
0.0
 11
1663.723069510913
 21
829.8051714286213
 31
0.0
  0
LINE
  5
7083
330
1E
100
AcDbEntity
  8
躯体と製品
  6
Continuous
 62
     4
100
AcDbLine
 10
1661.308855948539
 20
828.8051714286211
 30
0.0
 11
1662.308855948539
 21
829.8051714286211
 31
0.0
  0
LINE
  5
7084
330
1E
100
AcDbEntity
  8
躯体と製品
  6
Continuous
 62
     4
100
AcDbLine
 10
1659.894642386166
 20
828.8051714286213
 30
0.0
 11
1660.894642386166
 21
829.8051714286211
 31
0.0
  0
LINE
  5
7085
330
1E
100
AcDbEntity
  8
躯体と製品
  6
DASHED1
 62
     7
100
AcDbLine
 10
1670.699442297124
 20
830.8051714286213
 30
0.0
 11
1670.699442297124
 21
821.5051714286214
 31
0.0
  0
LINE
  5
7086
330
1E
100
AcDbEntity
  8
躯体と製品
  6
DASHED1
 62
     7
100
AcDbLine
 10
1678.799442297124
 20
830.8051714286213
 30
0.0
 11
1678.799442297124
 21
821.5051714286214
 31
0.0
  0
LINE
  5
7087
330
1E
100
AcDbEntity
  8
躯体と製品
  6
DASHED1
 62
     7
100
AcDbLine
 10
1669.999442297124
 20
820.8051714286213
 30
0.0
 11
1670.699442297124
 21
821.5051714286214
 31
0.0
  0
LINE
  5
7088
330
1E
100
AcDbEntity
  8
躯体と製品
  6
DASHED1
 62
     7
100
AcDbLine
 10
1669.999442297124
 20
802.1769974286215
 30
0.0
 11
1669.999442297124
 21
820.8051714286213
 31
0.0
  0
LINE
  5
7089
330
1E
100
AcDbEntity
  8
躯体と製品
  6
DASHED1
 62
     7
100
AcDbLine
 10
1670.249442297124
 20
790.3051714286212
 30
0.0
 11
1670.249442297124
 21
791.1684754286211
 31
0.0
  0
LINE
  5
708A
330
1E
100
AcDbEntity
  8
躯体と製品
  6
DASHED1
 62
     7
100
AcDbLine
 10
1668.124412297124
 20
791.5431754286213
 30
0.0
 11
1669.999442297124
 21
802.1769974286215
 31
0.0
  0
LINE
  5
708B
330
1E
100
AcDbEntity
  8
躯体と製品
  6
DASHED1
 62
     7
100
AcDbLine
 10
1674.249442297124
 20
801.8051714286213
 30
0.0
 11
1675.249442297124
 21
801.8051714286213
 31
0.0
  0
LINE
  5
708C
330
1E
100
AcDbEntity
  8
躯体と製品
  6
DASHED1
 62
     7
100
AcDbLine
 10
1679.499442297124
 20
820.8051714286213
 30
0.0
 11
1678.799442297124
 21
821.5051714286214
 31
0.0
  0
LINE
  5
708D
330
1E
100
AcDbEntity
  8
躯体と製品
  6
DASHED1
 62
     7
100
AcDbLine
 10
1679.499442297124
 20
802.1769974286215
 30
0.0
 11
1679.499442297124
 21
820.8051714286213
 31
0.0
  0
LINE
  5
708E
330
1E
100
AcDbEntity
  8
躯体と製品
  6
DASHED1
 62
     7
100
AcDbLine
 10
1678.249442297124
 20
789.3051714286213
 30
0.0
 11
1671.249442297124
 21
789.3051714286213
 31
0.0
  0
ARC
  5
708F
330
1E
100
AcDbEntity
  8
躯体と製品
  6
DASHED1
 62
     7
100
AcDbCircle
 10
1678.249442297124
 20
790.3051714286212
 30
0.0
 40
1.0
100
AcDbArc
 50
270.0
 51
0.0
  0
LINE
  5
7090
330
1E
100
AcDbEntity
  8
躯体と製品
  6
DASHED1
 62
     7
100
AcDbLine
 10
1679.249442297124
 20
790.3051714286212
 30
0.0
 11
1679.249442297124
 21
791.1684754286211
 31
0.0
  0
LINE
  5
7091
330
1E
100
AcDbEntity
  8
躯体と製品
  6
DASHED1
 62
     7
100
AcDbLine
 10
1681.374472297124
 20
791.5431754286213
 30
0.0
 11
1677.189039297124
 21
790.8051714286211
 31
0.0
  0
LINE
  5
7092
330
1E
100
AcDbEntity
  8
躯体と製品
  6
DASHED1
 62
     7
100
AcDbLine
 10
1674.249442297124
 20
801.8051714286213
 30
0.0
 11
1672.309845297124
 21
790.8051714286211
 31
0.0
  0
LINE
  5
7093
330
1E
100
AcDbEntity
  8
躯体と製品
  6
DASHED1
 62
     7
100
AcDbLine
 10
1675.249442297124
 20
801.8051714286213
 30
0.0
 11
1677.189039297124
 21
790.8051714286211
 31
0.0
  0
LINE
  5
7094
330
1E
100
AcDbEntity
  8
躯体と製品
  6
DASHED1
 62
     7
100
AcDbLine
 10
1681.374472297124
 20
791.5431754286213
 30
0.0
 11
1679.499442297124
 21
802.1769974286215
 31
0.0
  0
LINE
  5
7095
330
1E
100
AcDbEntity
  8
躯体と製品
  6
DASHED1
 62
     7
100
AcDbLine
 10
1669.999442297124
 20
820.8051714286213
 30
0.0
 11
1679.499442297124
 21
820.8051714286213
 31
0.0
  0
LINE
  5
7096
330
1E
100
AcDbEntity
  8
躯体と製品
  6
DASHED1
 62
     7
100
AcDbLine
 10
1670.699442297124
 20
821.5051714286214
 30
0.0
 11
1678.799442297124
 21
821.5051714286214
 31
0.0
  0
LINE
  5
7097
330
1E
100
AcDbEntity
  8
躯体と製品
  6
DASHED1
 62
     7
100
AcDbLine
 10
1668.124412297124
 20
791.5431754286213
 30
0.0
 11
1672.309845297124
 21
790.8051714286211
 31
0.0
  0
ARC
  5
7098
330
1E
100
AcDbEntity
  8
躯体と製品
  6
DASHED1
 62
     7
100
AcDbCircle
 10
1671.249442297124
 20
790.3051714286212
 30
0.0
 40
1.0
100
AcDbArc
 50
180.0
 51
270.0
  0
LINE
  5
7099
330
1E
100
AcDbEntity
  8
躯体と製品
  6
Continuous
 62
     3
100
AcDbLine
 10
1700.122012578552
 20
838.7786953831778
 30
0.0
 11
1700.440768277391
 21
837.7070635413319
 31
0.0
  0
LINE
  5
709A
330
1E
100
AcDbEntity
  8
躯体と製品
  6
Continuous
 62
     3
100
AcDbLine
 10
1699.948364400885
 20
837.7938876301655
 30
0.0
 11
1700.267120099724
 21
836.7222557883199
 31
0.0
  0
LINE
  5
709B
330
1E
100
AcDbEntity
  8
躯体と製品
  6
Continuous
 62
     3
100
AcDbLine
 10
1674.749442297124
 20
832.8051714286212
 30
0.0
 11
1674.249442297124
 21
833.3051714286213
 31
0.0
  0
LINE
  5
709C
330
1E
100
AcDbEntity
  8
躯体と製品
  6
Continuous
 62
     3
100
AcDbLine
 10
1690.949442297124
 20
839.3051714286212
 30
0.0
 11
1687.999442297124
 21
839.3051714286212
 31
0.0
  0
ARC
  5
709D
330
1E
100
AcDbEntity
  8
躯体と製品
  6
Continuous
 62
     3
100
AcDbCircle
 10
1690.949442297124
 20
839.0051714286213
 30
0.0
 40
0.2999999999999998
100
AcDbArc
 50
0.0
 51
90.0
  0
LINE
  5
709E
330
1E
100
AcDbEntity
  8
躯体と製品
  6
Continuous
 62
     3
100
AcDbLine
 10
1691.249442297124
 20
839.0051714286213
 30
0.0
 11
1691.249442297124
 21
837.1051714286213
 31
0.0
  0
ARC
  5
709F
330
1E
100
AcDbEntity
  8
躯体と製品
  6
Continuous
 62
     3
100
AcDbCircle
 10
1690.949442297124
 20
837.1051714286213
 30
0.0
 40
0.2999999999999998
100
AcDbArc
 50
270.0
 51
0.0
  0
LINE
  5
70A0
330
1E
100
AcDbEntity
  8
躯体と製品
  6
Continuous
 62
     3
100
AcDbLine
 10
1690.949442297124
 20
836.8051714286211
 30
0.0
 11
1688.999442297124
 21
836.8051714286211
 31
0.0
  0
LINE
  5
70A1
330
1E
100
AcDbEntity
  8
躯体と製品
  6
Continuous
 62
     3
100
AcDbLine
 10
1691.249442297124
 20
835.0051714286212
 30
0.0
 11
1691.249442297124
 21
833.6051714286213
 31
0.0
  0
ARC
  5
70A2
330
1E
100
AcDbEntity
  8
躯体と製品
  6
Continuous
 62
     3
100
AcDbCircle
 10
1690.949442297124
 20
835.0051714286212
 30
0.0
 40
0.2999999999999998
100
AcDbArc
 50
0.0
 51
90.0
  0
LINE
  5
70A3
330
1E
100
AcDbEntity
  8
躯体と製品
  6
Continuous
 62
     3
100
AcDbLine
 10
1690.949442297124
 20
835.3051714286213
 30
0.0
 11
1688.999442297124
 21
835.3051714286213
 31
0.0
  0
ARC
  5
70A4
330
1E
100
AcDbEntity
  8
躯体と製品
  6
Continuous
 62
     3
100
AcDbCircle
 10
1688.999442297124
 20
836.0551714286213
 30
0.0
 40
0.75
100
AcDbArc
 50
90.0
 51
270.0
  0
ARC
  5
70A5
330
1E
100
AcDbEntity
  8
躯体と製品
  6
Continuous
 62
     3
100
AcDbCircle
 10
1687.999442297124
 20
840.0551714286212
 30
0.0
 40
0.75
100
AcDbArc
 50
90.0
 51
270.0
  0
LINE
  5
70A6
330
1E
100
AcDbEntity
  8
躯体と製品
  6
Continuous
 62
     3
100
AcDbLine
 10
1691.249442297124
 20
841.3051714286213
 30
0.0
 11
1691.249442297124
 21
848.8051714286211
 31
0.0
  0
ARC
  5
70A7
330
1E
100
AcDbEntity
  8
躯体と製品
  6
Continuous
 62
     3
100
AcDbCircle
 10
1690.749442297124
 20
841.3051714286213
 30
0.0
 40
0.5
100
AcDbArc
 50
270.0
 51
0.0
  0
LINE
  5
70A8
330
1E
100
AcDbEntity
  8
躯体と製品
  6
Continuous
 62
     3
100
AcDbLine
 10
1690.749442297124
 20
840.8051714286212
 30
0.0
 11
1687.999442297124
 21
840.8051714286212
 31
0.0
  0
ARC
  5
70A9
330
1E
100
AcDbEntity
  8
躯体と製品
  6
Continuous
 62
     3
100
AcDbCircle
 10
1690.949442297124
 20
833.6051714286213
 30
0.0
 40
0.2999999999999998
100
AcDbArc
 50
270.0
 51
0.0
  0
ARC
  5
70AA
330
1E
100
AcDbEntity
  8
躯体と製品
  6
Continuous
 62
     3
100
AcDbCircle
 10
1693.749442297123
 20
833.8051714286212
 30
0.0
 40
0.5
100
AcDbArc
 50
180.0
 51
270.0
  0
LINE
  5
70AB
330
1E
100
AcDbEntity
  8
躯体と製品
  6
Continuous
 62
     3
100
AcDbLine
 10
1693.249442297124
 20
833.8051714286212
 30
0.0
 11
1693.249442297124
 21
848.8051714286211
 31
0.0
  0
LINE
  5
70AC
330
1E
100
AcDbEntity
  8
躯体と製品
  6
Continuous
 62
     3
100
AcDbLine
 10
1693.249442297124
 20
831.8051714286212
 30
0.0
 11
1703.749442297124
 21
831.8051714286212
 31
0.0
  0
LINE
  5
70AD
330
1E
100
AcDbEntity
  8
躯体と製品
  6
Continuous
 62
     3
100
AcDbLine
 10
1693.249442297124
 20
830.8051714286213
 30
0.0
 11
1693.249442297124
 21
831.8051714286212
 31
0.0
  0
LINE
  5
70AE
330
1E
100
AcDbEntity
  8
躯体と製品
  6
Continuous
 62
     3
100
AcDbLine
 10
1674.749442297124
 20
832.8051714286212
 30
0.0
 11
1675.249442297124
 21
833.3051714286213
 31
0.0
  0
LINE
  5
70AF
330
1E
100
AcDbEntity
  8
躯体と製品
  6
Continuous
 62
     3
100
AcDbLine
 10
1703.749442297124
 20
830.8051714286213
 30
0.0
 11
1705.249442297124
 21
830.8051714286213
 31
0.0
  0
LINE
  5
70B0
330
1E
100
AcDbEntity
  8
躯体と製品
  6
Continuous
 62
     3
100
AcDbLine
 10
1703.749442297124
 20
831.8051714286212
 30
0.0
 11
1703.749442297124
 21
830.8051714286213
 31
0.0
  0
ARC
  5
70B1
330
1E
100
AcDbEntity
  8
躯体と製品
  6
Continuous
 62
     3
100
AcDbCircle
 10
1692.249442297124
 20
848.8051714286211
 30
0.0
 40
1.0
100
AcDbArc
 50
0.0
 51
180.0
  0
LINE
  5
70B2
330
1E
100
AcDbEntity
  8
躯体と製品
  6
Continuous
 62
     3
100
AcDbLine
 10
1691.249442297124
 20
830.8051714286213
 30
0.0
 11
1693.249442297124
 21
830.8051714286213
 31
0.0
  0
LINE
  5
70B3
330
1E
100
AcDbEntity
  8
躯体と製品
  6
Continuous
 62
     3
100
AcDbLine
 10
1691.249442297124
 20
831.3051714286213
 30
0.0
 11
1691.249442297124
 21
830.8051714286213
 31
0.0
  0
LINE
  5
70B4
330
1E
100
AcDbEntity
  8
躯体と製品
  6
Continuous
 62
     3
100
AcDbLine
 10
1679.749442297124
 20
831.3051714286213
 30
0.0
 11
1691.249442297124
 21
831.3051714286213
 31
0.0
  0
LINE
  5
70B5
330
1E
100
AcDbEntity
  8
躯体と製品
  6
Continuous
 62
     3
100
AcDbLine
 10
1679.749442297124
 20
830.8051714286213
 30
0.0
 11
1679.749442297124
 21
831.3051714286213
 31
0.0
  0
LINE
  5
70B6
330
1E
100
AcDbEntity
  8
躯体と製品
  6
Continuous
 62
     3
100
AcDbLine
 10
1658.549442297124
 20
833.3051714286213
 30
0.0
 11
1674.249442297124
 21
833.3051714286213
 31
0.0
  0
LINE
  5
70B7
330
1E
100
AcDbEntity
  8
躯体と製品
  6
Continuous
 62
     3
100
AcDbLine
 10
1675.249442297124
 20
833.3051714286213
 30
0.0
 11
1690.949442297124
 21
833.3051714286213
 31
0.0
  0
LINE
  5
70B8
330
1E
100
AcDbEntity
  8
躯体と製品
  6
Continuous
 62
     3
100
AcDbLine
 10
1669.749442297124
 20
830.8051714286213
 30
0.0
 11
1679.749442297124
 21
830.8051714286213
 31
0.0
  0
LINE
  5
70B9
330
1E
100
AcDbEntity
  8
躯体と製品
  6
Continuous
 62
     3
100
AcDbLine
 10
1656.749442297124
 20
840.3051714286212
 30
0.0
 11
1656.749442297124
 21
830.8051714286213
 31
0.0
  0
ARC
  5
70BA
330
1E
100
AcDbEntity
  8
躯体と製品
  6
Continuous
 62
     3
100
AcDbCircle
 10
1657.249442297124
 20
840.3051714286212
 30
0.0
 40
0.5
100
AcDbArc
 50
90.0
 51
180.0
  0
LINE
  5
70BB
330
1E
100
AcDbEntity
  8
躯体と製品
  6
Continuous
 62
     3
100
AcDbLine
 10
1657.249442297124
 20
840.8051714286212
 30
0.0
 11
1661.499442297124
 21
840.8051714286212
 31
0.0
  0
LINE
  5
70BC
330
1E
100
AcDbEntity
  8
躯体と製品
  6
Continuous
 62
     3
100
AcDbLine
 10
1658.249442297124
 20
833.6051714286213
 30
0.0
 11
1658.249442297124
 21
835.0051714286212
 31
0.0
  0
ARC
  5
70BD
330
1E
100
AcDbEntity
  8
躯体と製品
  6
Continuous
 62
     3
100
AcDbCircle
 10
1658.549442297124
 20
833.6051714286213
 30
0.0
 40
0.2999999999999998
100
AcDbArc
 50
180.0
 51
270.0
  0
LINE
  5
70BE
330
1E
100
AcDbEntity
  8
躯体と製品
  6
Continuous
 62
     3
100
AcDbLine
 10
1658.549442297124
 20
835.3051714286213
 30
0.0
 11
1660.499442297124
 21
835.3051714286213
 31
0.0
  0
ARC
  5
70BF
330
1E
100
AcDbEntity
  8
躯体と製品
  6
Continuous
 62
     3
100
AcDbCircle
 10
1658.549442297124
 20
835.0051714286212
 30
0.0
 40
0.2999999999999998
100
AcDbArc
 50
90.0
 51
180.0
  0
LINE
  5
70C0
330
1E
100
AcDbEntity
  8
躯体と製品
  6
Continuous
 62
     3
100
AcDbLine
 10
1658.249442297124
 20
837.1051714286213
 30
0.0
 11
1658.249442297124
 21
839.0051714286213
 31
0.0
  0
ARC
  5
70C1
330
1E
100
AcDbEntity
  8
躯体と製品
  6
Continuous
 62
     3
100
AcDbCircle
 10
1658.549442297124
 20
837.1051714286213
 30
0.0
 40
0.2999999999999998
100
AcDbArc
 50
180.0
 51
270.0
  0
LINE
  5
70C2
330
1E
100
AcDbEntity
  8
躯体と製品
  6
Continuous
 62
     3
100
AcDbLine
 10
1658.549442297124
 20
836.8051714286211
 30
0.0
 11
1660.499442297124
 21
836.8051714286211
 31
0.0
  0
LINE
  5
70C3
330
1E
100
AcDbEntity
  8
躯体と製品
  6
Continuous
 62
     3
100
AcDbLine
 10
1658.549442297124
 20
839.3051714286212
 30
0.0
 11
1661.499442297124
 21
839.3051714286212
 31
0.0
  0
ARC
  5
70C4
330
1E
100
AcDbEntity
  8
躯体と製品
  6
Continuous
 62
     3
100
AcDbCircle
 10
1658.549442297124
 20
839.0051714286213
 30
0.0
 40
0.2999999999999998
100
AcDbArc
 50
90.0
 51
180.0
  0
ARC
  5
70C5
330
1E
100
AcDbEntity
  8
躯体と製品
  6
Continuous
 62
     3
100
AcDbCircle
 10
1660.499442297124
 20
836.0551714286213
 30
0.0
 40
0.75
100
AcDbArc
 50
270.0
 51
90.0
  0
ARC
  5
70C6
330
1E
100
AcDbEntity
  8
躯体と製品
  6
Continuous
 62
     3
100
AcDbCircle
 10
1661.499442297124
 20
840.0551714286212
 30
0.0
 40
0.75
100
AcDbArc
 50
270.0
 51
90.0
  0
LINE
  5
70C7
330
1E
100
AcDbEntity
  8
躯体と製品
  6
Continuous
 62
     3
100
AcDbLine
 10
1669.749442297124
 20
831.3051714286213
 30
0.0
 11
1669.749442297124
 21
830.8051714286213
 31
0.0
  0
LINE
  5
70C8
330
1E
100
AcDbEntity
  8
躯体と製品
  6
Continuous
 62
     3
100
AcDbLine
 10
1658.249442297124
 20
831.3051714286213
 30
0.0
 11
1669.749442297124
 21
831.3051714286213
 31
0.0
  0
LINE
  5
70C9
330
1E
100
AcDbEntity
  8
躯体と製品
  6
Continuous
 62
     3
100
AcDbLine
 10
1658.249442297124
 20
830.8051714286213
 30
0.0
 11
1658.249442297124
 21
831.3051714286213
 31
0.0
  0
LINE
  5
70CA
330
1E
100
AcDbEntity
  8
躯体と製品
  6
Continuous
 62
     3
100
AcDbLine
 10
1656.749442297124
 20
830.8051714286213
 30
0.0
 11
1658.249442297124
 21
830.8051714286213
 31
0.0
  0
LINE
  5
70CB
330
1E
100
AcDbEntity
  8
躯体と製品
  6
Continuous
 62
     3
100
AcDbLine
 10
1705.249442297124
 20
830.8051714286213
 30
0.0
 11
1705.249442297124
 21
833.3051714286213
 31
0.0
  0
ARC
  5
70CC
330
1E
100
AcDbEntity
  8
躯体と製品
  6
Continuous
 62
     3
100
AcDbCircle
 10
1705.509313503949
 20
839.0980521416917
 30
0.0
 40
0.7499999999999977
100
AcDbArc
 50
350.0000000000025
 51
170.0000000000025
  0
ARC
  5
70CD
330
1E
100
AcDbEntity
  8
躯体と製品
  6
Continuous
 62
     3
100
AcDbCircle
 10
1700.092870862382
 20
840.05311711886
 30
0.0
 40
0.7500000000000016
100
AcDbArc
 50
350.0000000000025
 51
170.0000000000025
  0
LINE
  5
70CE
330
1E
100
AcDbEntity
  8
躯体と製品
  6
Continuous
 62
     3
100
AcDbLine
 10
1705.046051343613
 20
837.9104544948431
 30
0.0
 11
1704.37999928944
 21
837.0124708306644
 31
0.0
  0
LINE
  5
70CF
330
1E
100
AcDbEntity
  8
躯体と製品
  6
Continuous
 62
     3
100
AcDbLine
 10
1704.872403165946
 20
836.925646741831
 30
0.0
 11
1704.206351111773
 21
836.0276630776523
 31
0.0
  0
LINE
  5
70D0
330
1E
100
AcDbEntity
  8
躯体と製品
  6
Continuous
 62
     3
100
AcDbLine
 10
1700.614416455058
 20
838.6918712943442
 30
0.0
 11
1700.831476677142
 21
839.9228809856094
 31
0.0
  0
LINE
  5
70D1
330
1E
100
AcDbEntity
  8
躯体と製品
  6
Continuous
 62
     3
100
AcDbLine
 10
1704.553647467107
 20
837.9972785836766
 30
0.0
 11
1704.77070768919
 21
839.228288274942
 31
0.0
  0
LINE
  5
70D2
330
1E
100
AcDbEntity
  8
躯体と製品
  6
Continuous
 62
     3
100
AcDbLine
 10
1705.249442297124
 20
833.3051714286213
 30
0.0
 11
1706.247919318709
 21
838.9678160084415
 31
0.0
  0
LINE
  5
70D3
330
1E
100
AcDbEntity
  8
躯体と製品
  6
Continuous
 62
     3
100
AcDbLine
 10
1705.046051343613
 20
837.9104544948431
 30
0.0
 11
1704.553647467107
 21
837.9972785836766
 31
0.0
  0
LINE
  5
70D4
330
1E
100
AcDbEntity
  8
躯体と製品
  6
Continuous
 62
     3
100
AcDbLine
 10
1700.614416455058
 20
838.6918712943442
 30
0.0
 11
1700.122012578552
 21
838.7786953831778
 31
0.0
  0
LINE
  5
70D5
330
1E
100
AcDbEntity
  8
躯体と製品
  6
Continuous
 62
     3
100
AcDbLine
 10
1704.872403165946
 20
836.925646741831
 30
0.0
 11
1704.37999928944
 21
837.0124708306644
 31
0.0
  0
LINE
  5
70D6
330
1E
100
AcDbEntity
  8
躯体と製品
  6
Continuous
 62
     3
100
AcDbLine
 10
1700.440768277391
 20
837.7070635413319
 30
0.0
 11
1699.948364400885
 21
837.7938876301655
 31
0.0
  0
LINE
  5
70D7
330
1E
100
AcDbEntity
  8
躯体と製品
  6
Continuous
 62
     3
100
AcDbLine
 10
1698.214310074841
 20
833.718347339788
 30
0.0
 11
1699.354265047623
 21
840.18335325211
 31
0.0
  0
LINE
  5
70D8
330
1E
100
AcDbEntity
  8
躯体と製品
  6
Continuous
 62
     3
100
AcDbLine
 10
1697.721906198335
 20
833.3051714286213
 30
0.0
 11
1693.749442297123
 21
833.3051714286213
 31
0.0
  0
ARC
  5
70D9
330
1E
100
AcDbEntity
  8
躯体と製品
  6
Continuous
 62
     3
100
AcDbCircle
 10
1697.721906198335
 20
833.8051714286212
 30
0.0
 40
0.5
100
AcDbArc
 50
270.0
 51
350.0000000000025
  0
LINE
  5
70DA
330
1E
100
AcDbEntity
  8
躯体と製品
  6
Continuous
 62
     3
100
AcDbLine
 10
1699.768068851543
 20
833.8919955174549
 30
0.0
 11
1700.267120099724
 21
836.7222557883199
 31
0.0
  0
ARC
  5
70DB
330
1E
100
AcDbEntity
  8
躯体と製品
  6
Continuous
 62
     3
100
AcDbCircle
 10
1700.260472728049
 20
833.8051714286212
 30
0.0
 40
0.5
100
AcDbArc
 50
170.0000000000025
 51
270.0
  0
LINE
  5
70DC
330
1E
100
AcDbEntity
  8
躯体と製品
  6
Continuous
 62
     3
100
AcDbLine
 10
1703.799156440213
 20
833.718347339788
 30
0.0
 11
1704.206351111773
 21
836.0276630776523
 31
0.0
  0
LINE
  5
70DD
330
1E
100
AcDbEntity
  8
躯体と製品
  6
Continuous
 62
     3
100
AcDbLine
 10
1703.306752563706
 20
833.3051714286213
 30
0.0
 11
1700.260472728049
 21
833.3051714286213
 31
0.0
  0
ARC
  5
70DE
330
1E
100
AcDbEntity
  8
躯体と製品
  6
Continuous
 62
     3
100
AcDbCircle
 10
1703.306752563706
 20
833.8051714286212
 30
0.0
 40
0.5
100
AcDbArc
 50
270.0
 51
350.0000000000025
  0
ARC
  5
70DF
330
1E
100
AcDbEntity
  8
躯体と製品
  6
DASHED1
 62
     7
100
AcDbCircle
 10
1686.663077112944
 20
872.1295043801404
 30
0.0
 40
1.0
100
AcDbArc
 50
37.62684736228169
 51
86.99999999999441
  0
LINE
  5
70E0
330
1E
100
AcDbEntity
  8
躯体と製品
  6
DASHED1
 62
     7
100
AcDbLine
 10
1665.441327940086
 20
875.044159349588
 30
0.0
 11
1686.757281834182
 21
873.9270375426988
 31
0.0
  0
ARC
  5
70E1
330
1E
100
AcDbEntity
  8
躯体と製品
  6
DASHED1
 62
     7
100
AcDbCircle
 10
1665.347123218849
 20
873.2466261870298
 30
0.0
 40
1.8
100
AcDbArc
 50
86.99999999999441
 51
136.3731526377175
  0
LINE
  5
70E2
330
1E
100
AcDbEntity
  8
躯体と製品
  6
DASHED1
 62
     7
100
AcDbLine
 10
1665.399459175091
 20
874.2452557217843
 30
0.0
 11
1686.715413069188
 21
873.1281339148949
 31
0.0
  0
LINE
  5
70E3
330
1E
100
AcDbEntity
  8
躯体と製品
  6
DASHED1
 62
     7
100
AcDbLine
 10
1664.623274575285
 20
873.9365849837795
 30
0.0
 11
1651.693323481528
 21
860.3715321072368
 31
0.0
  0
ARC
  5
70E4
330
1E
100
AcDbEntity
  8
躯体と製品
  6
DASHED1
 62
     7
100
AcDbCircle
 10
1665.347123218849
 20
873.2466261870298
 30
0.0
 40
1.0
100
AcDbArc
 50
86.99999999999441
 51
136.3731526377175
  0
LINE
  5
70E5
330
1E
100
AcDbEntity
  8
躯体と製品
  6
DASHED1
 62
     7
100
AcDbLine
 10
1647.133240323961
 20
862.890539512797
 30
0.0
 11
1647.766843250138
 21
863.3789525879073
 31
0.0
  0
LINE
  5
70E6
330
1E
100
AcDbEntity
  8
躯体と製品
  6
DASHED1
 62
     7
100
AcDbLine
 10
1647.133240323961
 20
862.890539512797
 30
0.0
 11
1648.964789370368
 21
860.5145285207008
 31
0.0
  0
ARC
  5
70E7
330
1E
100
AcDbEntity
  8
躯体と製品
  6
DASHED1
 62
     7
100
AcDbCircle
 10
1650.39039593962
 20
861.6134579587019
 30
0.0
 40
1.0
100
AcDbArc
 50
217.6268487328632
 51
316.3731526377176
  0
ARC
  5
70E8
330
1E
100
AcDbEntity
  8
躯体と製品
  6
DASHED1
 62
     7
100
AcDbCircle
 10
1650.39039593962
 20
861.6134579587019
 30
0.0
 40
1.8
100
AcDbArc
 50
217.6268481237226
 51
316.3731526377176
  0
LINE
  5
70E9
330
1E
100
AcDbEntity
  8
躯体と製品
  6
DASHED1
 62
     7
100
AcDbLine
 10
1703.115597711188
 20
860.4782472805215
 30
0.0
 11
1701.045721304407
 21
858.3067013324896
 31
0.0
  0
LINE
  5
70EA
330
1E
100
AcDbEntity
  8
躯体と製品
  6
DASHED1
 62
     7
100
AcDbLine
 10
1703.69467662606
 20
859.9262802431448
 30
0.0
 11
1703.115597711188
 21
860.4782472805215
 31
0.0
  0
LINE
  5
70EB
330
1E
100
AcDbEntity
  8
躯体と製品
  6
DASHED1
 62
     7
100
AcDbLine
 10
1703.69467662606
 20
859.9262802431448
 30
0.0
 11
1701.624800219257
 21
857.7547342950895
 31
0.0
  0
ARC
  5
70EC
330
1E
100
AcDbEntity
  8
躯体と製品
  6
DASHED1
 62
     7
100
AcDbCircle
 10
1700.321872677348
 20
858.9966601465548
 30
0.0
 40
1.0
100
AcDbArc
 50
217.6268473622817
 51
316.3731512671342
  0
ARC
  5
70ED
330
1E
100
AcDbEntity
  8
躯体と製品
  6
DASHED1
 62
     7
100
AcDbCircle
 10
1700.321872677348
 20
858.9966601465548
 30
0.0
 40
1.8
100
AcDbArc
 50
217.6268473622817
 51
316.3731518762783
  0
LINE
  5
70EE
330
1E
100
AcDbEntity
  8
躯体と製品
  6
DASHED1
 62
     7
100
AcDbLine
 10
1688.088683696801
 20
873.2284337991959
 30
0.0
 11
1699.529869034255
 21
858.3861437836894
 31
0.0
  0
LINE
  5
70EF
330
1E
100
AcDbEntity
  8
躯体と製品
  6
DASHED1
 62
     7
100
AcDbLine
 10
1687.455080770642
 20
872.7400207240602
 30
0.0
 11
1698.896266108096
 21
857.8977307085535
 31
0.0
  0
ARC
  5
70F0
330
1E
100
AcDbEntity
  8
躯体と製品
  6
DASHED1
 62
     7
100
AcDbCircle
 10
1686.663077112944
 20
872.1295043801404
 30
0.0
 40
1.8
100
AcDbArc
 50
37.62684736228169
 51
86.99999999999441
  0
LINE
  5
70F1
330
1E
100
AcDbEntity
  8
躯体と製品
  6
DASHED1
 62
     7
100
AcDbLine
 10
1647.766843250138
 20
863.3789525879073
 30
0.0
 11
1649.598392296526
 21
861.0029415958365
 31
0.0
  0
LINE
  5
70F2
330
1E
100
AcDbEntity
  8
躯体と製品
  6
DASHED1
 62
     7
100
AcDbLine
 10
1664.044195660436
 20
874.4885520211797
 30
0.0
 11
1651.114244583182
 21
860.9234991619523
 31
0.0
  0
LINE
  5
70F3
330
1E
100
AcDbEntity
  8
躯体と製品
  6
DASHED1
 62
     4
100
AcDbLine
 10
1678.52747260089
 20
874.3583435685385
 30
0.0
 11
1677.281876842308
 21
850.59096064138
 31
0.0
  0
LINE
  5
70F4
330
1E
100
AcDbEntity
  8
躯体と製品
  6
DASHED1
 62
     7
100
AcDbLine
 10
1679.095193491398
 20
874.3285905774143
 30
0.0
 11
1677.849597732815
 21
850.5612076502556
 31
0.0
  0
LINE
  5
70F5
330
1E
100
AcDbEntity
  8
躯体と製品
  6
DASHED1
 62
     7
100
AcDbLine
 10
1673.10341628287
 20
874.6426063148721
 30
0.0
 11
1671.857820524288
 21
850.8752233877132
 31
0.0
  0
LINE
  5
70F6
330
1E
100
AcDbEntity
  8
躯体と製品
  6
DASHED1
 62
     4
100
AcDbLine
 10
1673.671137173378
 20
874.6128533237479
 30
0.0
 11
1672.425541414796
 21
850.8454703965892
 31
0.0
  0
ARC
  5
70F7
330
1E
100
AcDbEntity
  8
躯体と製品
  6
DASHED1
 62
     7
100
AcDbCircle
 10
1674.915376139449
 20
877.689777705592
 30
0.0
 40
0.5999999999999998
100
AcDbArc
 50
357.0000000000011
 51
100.7002330000058
  0
ARC
  5
70F8
330
1E
100
AcDbEntity
  8
躯体と製品
  6
DASHED1
 62
     7
100
AcDbCircle
 10
1677.611675883287
 20
877.548470623736
 30
0.0
 40
0.5999999999999998
100
AcDbArc
 50
73.29976700000166
 51
177.0000000000011
  0
LINE
  5
70F9
330
1E
100
AcDbEntity
  8
躯体と製品
  6
DASHED1
 62
     7
100
AcDbLine
 10
1677.010444237831
 20
877.5406809813903
 30
0.0
 11
1675.512499935699
 21
877.6191849157548
 31
0.0
  0
ARC
  5
70FA
330
1E
100
AcDbEntity
  8
躯体と製品
  6
DASHED1
 62
     7
100
AcDbCircle
 10
1674.286074191966
 20
874.3855004276085
 30
0.0
 40
3.45
100
AcDbArc
 50
126.3091240000008
 51
173.7621629999991
  0
ARC
  5
70FB
330
1E
100
AcDbEntity
  8
躯体と製品
  6
DASHED1
 62
     7
100
AcDbCircle
 10
1677.897410197222
 20
874.1917291476541
 30
0.0
 40
3.45
100
AcDbArc
 50
0.3127429999987237
 51
47.82048899999998
  0
ARC
  5
70FC
330
1E
100
AcDbEntity
  8
躯体と製品
  6
DASHED1
 62
     7
100
AcDbCircle
 10
1675.973698644487
 20
872.0888885613618
 30
0.0
 40
6.299999999999998
100
AcDbArc
 50
47.69686900000316
 51
126.3093710000041
  0
LINE
  5
70FD
330
1E
100
AcDbEntity
  8
躯体と製品
  6
Continuous
 62
     4
100
AcDbLine
 10
1677.293188014019
 20
839.9442777515124
 30
0.0
 11
1671.301410805491
 21
840.2582934889698
 31
0.0
  0
LINE
  5
70FE
330
1E
100
AcDbEntity
  8
躯体と製品
  6
Continuous
 62
     7
100
AcDbLine
 10
1671.565144250385
 20
845.2906274001202
 30
0.0
 11
1671.301410805491
 21
840.2582934889698
 31
0.0
  0
LINE
  5
70FF
330
1E
100
AcDbEntity
  8
躯体と製品
  6
Continuous
 62
     7
100
AcDbLine
 10
1677.556921458913
 20
844.9766116626628
 30
0.0
 11
1677.293188014019
 21
839.9442777515124
 31
0.0
  0
LINE
  5
7100
330
1E
100
AcDbEntity
  8
躯体と製品
  6
Continuous
 62
     7
100
AcDbLine
 10
1677.849597732815
 20
850.5612076502556
 30
0.0
 11
1677.745330901387
 21
848.571677987779
 31
0.0
  0
LINE
  5
7101
330
1E
100
AcDbEntity
  8
躯体と製品
  6
Continuous
 62
     4
100
AcDbLine
 10
1677.281876842308
 20
850.59096064138
 30
0.0
 11
1677.177610010879
 21
848.601430978903
 31
0.0
  0
LINE
  5
7102
330
1E
100
AcDbEntity
  8
躯体と製品
  6
Continuous
 62
     4
100
AcDbLine
 10
1672.425541414796
 20
850.8454703965892
 30
0.0
 11
1672.321274583368
 21
848.8559407341124
 31
0.0
  0
LINE
  5
7103
330
1E
100
AcDbEntity
  8
躯体と製品
  6
Continuous
 62
     7
100
AcDbLine
 10
1671.857820524288
 20
850.8752233877132
 30
0.0
 11
1671.75355369286
 21
848.8856937252366
 31
0.0
  0
POINT
  5
7104
330
1E
100
AcDbEntity
  8
躯体と製品
 62
     4
100
AcDbPoint
 10
1674.749442297124
 20
848.7286858565077
 30
0.0
  0
ARC
  5
7105
330
1E
100
AcDbEntity
  8
躯体と製品
  6
Continuous
 62
     7
100
AcDbCircle
 10
1724.720882523225
 20
827.8055793421605
 30
0.0
 40
1.0
100
AcDbArc
 50
4.999999999999459
 51
88.3634229583817
  0
POINT
  5
7106
330
1E
100
AcDbEntity
  8
躯体と製品
 62
     4
100
AcDbPoint
 10
1692.301778253367
 20
849.8038009633759
 30
0.0
  0
LINE
  5
7110
330
1E
100
AcDbEntity
  8
躯体と製品
  6
Continuous
 62
     7
100
AcDbLine
 10
1724.749442297124
 20
828.8051714286213
 30
0.0
 11
1724.749442297124
 21
708.8051714286214
 31
0.0
  0
LINE
  5
7113
330
1E
100
AcDbEntity
  8
躯体と製品
  6
Continuous
 62
     7
100
AcDbLine
 10
1624.749442297124
 20
828.8051714286213
 30
0.0
 11
1724.749442297124
 21
828.8051714286213
 31
0.0
  0
ARC
  5
7114
330
1E
100
AcDbEntity
  8
躯体と製品
  6
Continuous
 62
     7
100
AcDbCircle
 10
1752.595972397913
 20
833.5835299960123
 30
0.0
 40
2.1
100
AcDbArc
 50
90.0
 51
175.0000000000005
  0
LINE
  5
7115
330
1E
100
AcDbEntity
  8
躯体と製品
  6
Continuous
 62
     7
100
AcDbLine
 10
1752.595972397913
 20
835.6835299960122
 30
0.0
 11
1753.191770576615
 21
835.6835299960122
 31
0.0
  0
ARC
  5
7116
330
1E
100
AcDbEntity
  8
躯体と製品
  6
Continuous
 62
     7
100
AcDbCircle
 10
1752.595972397913
 20
833.5835299960123
 30
0.0
 40
1.1
100
AcDbArc
 50
90.0
 51
175.0000000000005
  0
LINE
  5
7117
330
1E
100
AcDbEntity
  8
躯体と製品
  6
Continuous
 62
     7
100
AcDbLine
 10
1752.595972397913
 20
834.6835299960122
 30
0.0
 11
1753.191770576615
 21
834.6835299960122
 31
0.0
  0
LINE
  5
7118
330
1E
100
AcDbEntity
  8
躯体と製品
  6
Continuous
 62
     7
100
AcDbLine
 10
1753.191770576615
 20
838.1835299960123
 30
0.0
 11
1753.191770576615
 21
835.6835299960122
 31
0.0
  0
LINE
  5
7119
330
1E
100
AcDbEntity
  8
躯体と製品
  6
Continuous
 62
     7
100
AcDbLine
 10
1754.691770576615
 20
834.1835299960123
 30
0.0
 11
1756.342855576615
 21
834.7069029960122
 31
0.0
  0
LINE
  5
711A
330
1E
100
AcDbEntity
  8
躯体と製品
  6
Continuous
 62
     7
100
AcDbLine
 10
1754.691770576615
 20
834.1835299960123
 30
0.0
 11
1754.691770576615
 21
832.1835299960124
 31
0.0
  0
LINE
  5
711B
330
1E
100
AcDbEntity
  8
躯体と製品
  6
Continuous
 62
     7
100
AcDbLine
 10
1754.691770576615
 20
836.1835299960123
 30
0.0
 11
1754.691770576615
 21
838.1835299960123
 31
0.0
  0
ARC
  5
711C
330
1E
100
AcDbEntity
  8
躯体と製品
  6
Continuous
 62
     7
100
AcDbCircle
 10
1754.191770576615
 20
838.1835299960123
 30
0.0
 40
0.5
100
AcDbArc
 50
0.0
 51
90.0
  0
LINE
  5
711D
330
1E
100
AcDbEntity
  8
躯体と製品
  6
Continuous
 62
     7
100
AcDbLine
 10
1753.691770576615
 20
838.6835299960123
 30
0.0
 11
1754.191770576615
 21
838.6835299960123
 31
0.0
  0
LINE
  5
711E
330
1E
100
AcDbEntity
  8
躯体と製品
  6
Continuous
 62
     7
100
AcDbLine
 10
1753.691770576615
 20
831.6835299960123
 30
0.0
 11
1754.191770576615
 21
831.6835299960123
 31
0.0
  0
ARC
  5
711F
330
1E
100
AcDbEntity
  8
躯体と製品
  6
Continuous
 62
     7
100
AcDbCircle
 10
1754.191770576615
 20
832.1835299960124
 30
0.0
 40
0.5
100
AcDbArc
 50
270.0
 51
0.0
  0
ARC
  5
7120
330
1E
100
AcDbEntity
  8
躯体と製品
  6
Continuous
 62
     7
100
AcDbCircle
 10
1753.691770576615
 20
832.1835299960124
 30
0.0
 40
0.5
100
AcDbArc
 50
180.0
 51
270.0
  0
ARC
  5
7121
330
1E
100
AcDbEntity
  8
躯体と製品
  6
Continuous
 62
     7
100
AcDbCircle
 10
1753.691770576615
 20
838.1835299960123
 30
0.0
 40
0.5
100
AcDbArc
 50
90.0
 51
180.0
  0
LINE
  5
7122
330
1E
100
AcDbEntity
  8
躯体と製品
  6
Continuous
 62
     7
100
AcDbLine
 10
1753.191770576615
 20
832.1835299960124
 30
0.0
 11
1753.191770576615
 21
834.6835299960122
 31
0.0
  0
ARC
  5
7123
330
1E
100
AcDbEntity
  8
躯体と製品
  6
Continuous
 62
     7
100
AcDbCircle
 10
1756.191770576615
 20
835.1835299960123
 30
0.0
 40
0.5
100
AcDbArc
 50
287.587954000005
 51
72.41204599999497
  0
LINE
  5
7124
330
1E
100
AcDbEntity
  8
躯体と製品
  6
Continuous
 62
     7
100
AcDbLine
 10
1754.691770576615
 20
836.1835299960123
 30
0.0
 11
1756.342855576615
 21
835.6601569960124
 31
0.0
  0
ARC
  5
7125
330
1E
100
AcDbEntity
  8
躯体と製品
  6
Continuous
 62
     3
100
AcDbCircle
 10
1752.591770576615
 20
833.5835299960123
 30
0.0
 40
0.5999999999999998
100
AcDbArc
 50
0.0
 51
180.0
  0
ARC
  5
7126
330
1E
100
AcDbEntity
  8
躯体と製品
  6
Continuous
 62
     3
100
AcDbCircle
 10
1752.591770576615
 20
837.7835299960125
 30
0.0
 40
0.5999999999999998
100
AcDbArc
 50
180.0
 51
0.0
  0
LINE
  5
7127
330
1E
100
AcDbEntity
  8
躯体と製品
  6
Continuous
 62
     3
100
AcDbLine
 10
1751.991770576615
 20
833.5835299960123
 30
0.0
 11
1751.991770576615
 21
831.4835299960122
 31
0.0
  0
LINE
  5
7128
330
1E
100
AcDbEntity
  8
躯体と製品
  6
Continuous
 62
     3
100
AcDbLine
 10
1753.191770576615
 20
833.5835299960123
 30
0.0
 11
1753.191770576615
 21
831.9835299960123
 31
0.0
  0
ARC
  5
7129
330
1E
100
AcDbEntity
  8
躯体と製品
  6
Continuous
 62
     3
100
AcDbCircle
 10
1753.491770576615
 20
831.9835299960123
 30
0.0
 40
0.2999999999999998
100
AcDbArc
 50
180.0
 51
270.0
  0
LINE
  5
712A
330
1E
100
AcDbEntity
  8
躯体と製品
  6
Continuous
 62
     3
100
AcDbLine
 10
1753.191770576615
 20
837.7835299960125
 30
0.0
 11
1753.191770576615
 21
839.3835299960123
 31
0.0
  0
ARC
  5
712B
330
1E
100
AcDbEntity
  8
躯体と製品
  6
Continuous
 62
     3
100
AcDbCircle
 10
1753.491770576615
 20
839.3835299960123
 30
0.0
 40
0.2999999999999998
100
AcDbArc
 50
90.0
 51
180.0
  0
LINE
  5
712C
330
1E
100
AcDbEntity
  8
躯体と製品
  6
Continuous
 62
     3
100
AcDbLine
 10
1751.991770576615
 20
837.7835299960125
 30
0.0
 11
1751.991770576615
 21
839.8835299960124
 31
0.0
  0
LINE
  5
712D
330
1E
100
AcDbEntity
  8
躯体と製品
  6
Continuous
 62
     3
100
AcDbLine
 10
1764.191770576615
 20
801.6835299960122
 30
0.0
 11
1765.813038576615
 21
802.0888469960123
 31
0.0
  0
ARC
  5
712E
330
1E
100
AcDbEntity
  8
躯体と製品
  6
Continuous
 62
     3
100
AcDbCircle
 10
1765.691770576615
 20
802.5739179960122
 30
0.0
 40
0.5
100
AcDbArc
 50
284.0362430000043
 51
0.0
  0
LINE
  5
712F
330
1E
100
AcDbEntity
  8
躯体と製品
  6
Continuous
 62
     3
100
AcDbLine
 10
1764.191770576615
 20
802.1835299960125
 30
0.0
 11
1764.191770576615
 21
801.6835299960122
 31
0.0
  0
LINE
  5
7130
330
1E
100
AcDbEntity
  8
躯体と製品
  6
Continuous
 62
     3
100
AcDbLine
 10
1766.191770576615
 20
802.8835299960123
 30
0.0
 11
1766.191770576615
 21
802.5739179960122
 31
0.0
  0
LINE
  5
7131
330
1E
100
AcDbEntity
  8
躯体と製品
  6
Continuous
 62
     3
100
AcDbLine
 10
1759.191770576615
 20
802.1835299960125
 30
0.0
 11
1764.191770576615
 21
802.1835299960125
 31
0.0
  0
ARC
  5
7132
330
1E
100
AcDbEntity
  8
躯体と製品
  6
Continuous
 62
     3
100
AcDbCircle
 10
1765.891770576615
 20
802.8835299960123
 30
0.0
 40
0.2999999999999998
100
AcDbArc
 50
0.0
 51
90.0
  0
ARC
  5
7133
330
1E
100
AcDbEntity
  8
躯体と製品
  6
Continuous
 62
     3
100
AcDbCircle
 10
1759.191770576615
 20
801.6835299960122
 30
0.0
 40
0.5
100
AcDbArc
 50
90.0
 51
180.0
  0
LINE
  5
7134
330
1E
100
AcDbEntity
  8
躯体と製品
  6
Continuous
 62
     3
100
AcDbLine
 10
1758.691770576615
 20
801.6835299960122
 30
0.0
 11
1758.691770576615
 21
792.8835299960123
 31
0.0
  0
LINE
  5
7135
330
1E
100
AcDbEntity
  8
躯体と製品
  6
Continuous
 62
     3
100
AcDbLine
 10
1759.191770576615
 20
803.1835299960123
 30
0.0
 11
1765.891770576615
 21
803.1835299960123
 31
0.0
  0
ARC
  5
7136
330
1E
100
AcDbEntity
  8
躯体と製品
  6
Continuous
 62
     3
100
AcDbCircle
 10
1759.191770576615
 20
803.6835299960124
 30
0.0
 40
0.5
100
AcDbArc
 50
180.0
 51
270.0
  0
LINE
  5
7137
330
1E
100
AcDbEntity
  8
躯体と製品
  6
Continuous
 62
     3
100
AcDbLine
 10
1763.591770576615
 20
790.6835299960123
 30
0.0
 11
1759.691770576615
 21
790.6835299960123
 31
0.0
  0
ARC
  5
7138
330
1E
100
AcDbEntity
  8
躯体と製品
  6
Continuous
 62
     3
100
AcDbCircle
 10
1759.691770576615
 20
793.1835299960123
 30
0.0
 40
2.5
100
AcDbArc
 50
180.0
 51
270.0
  0
LINE
  5
7139
330
1E
100
AcDbEntity
  8
躯体と製品
  6
Continuous
 62
     3
100
AcDbLine
 10
1758.691770576615
 20
847.9335299960123
 30
0.0
 11
1758.691770576615
 21
803.6835299960124
 31
0.0
  0
LINE
  5
713A
330
1E
100
AcDbEntity
  8
躯体と製品
  6
Continuous
 62
     3
100
AcDbLine
 10
1753.491770576615
 20
839.6835299960123
 30
0.0
 11
1756.891770576615
 21
839.6835299960123
 31
0.0
  0
LINE
  5
713B
330
1E
100
AcDbEntity
  8
躯体と製品
  6
Continuous
 62
     3
100
AcDbLine
 10
1753.491770576615
 20
831.6835299960123
 30
0.0
 11
1756.891770576615
 21
831.6835299960123
 31
0.0
  0
ARC
  5
713C
330
1E
100
AcDbEntity
  8
躯体と製品
  6
Continuous
 62
     3
100
AcDbCircle
 10
1756.891770576615
 20
831.9835299960123
 30
0.0
 40
0.2999999999999998
100
AcDbArc
 50
270.0
 51
0.0
  0
LINE
  5
713D
330
1E
100
AcDbEntity
  8
躯体と製品
  6
Continuous
 62
     3
100
AcDbLine
 10
1757.191770576615
 20
839.3835299960123
 30
0.0
 11
1757.191770576615
 21
831.9835299960123
 31
0.0
  0
ARC
  5
713E
330
1E
100
AcDbEntity
  8
躯体と製品
  6
Continuous
 62
     3
100
AcDbCircle
 10
1756.891770576615
 20
839.3835299960123
 30
0.0
 40
0.2999999999999998
100
AcDbArc
 50
0.0
 51
90.0
  0
LINE
  5
713F
330
1E
100
AcDbEntity
  8
躯体と製品
  6
Continuous
 62
     3
100
AcDbLine
 10
1756.691770576615
 20
830.4835299960123
 30
0.0
 11
1752.991770576615
 21
830.4835299960123
 31
0.0
  0
ARC
  5
7140
330
1E
100
AcDbEntity
  8
躯体と製品
  6
Continuous
 62
     3
100
AcDbCircle
 10
1752.991770576615
 20
831.4835299960122
 30
0.0
 40
1.0
100
AcDbArc
 50
180.0
 51
270.0
  0
ARC
  5
7141
330
1E
100
AcDbEntity
  8
躯体と製品
  6
Continuous
 62
     3
100
AcDbCircle
 10
1756.691770576615
 20
829.9835299960122
 30
0.0
 40
0.5
100
AcDbArc
 50
0.0
 51
90.0
  0
LINE
  5
7142
330
1E
100
AcDbEntity
  8
躯体と製品
  6
Continuous
 62
     3
100
AcDbLine
 10
1756.691770576615
 20
840.8835299960124
 30
0.0
 11
1752.991770576615
 21
840.8835299960124
 31
0.0
  0
ARC
  5
7143
330
1E
100
AcDbEntity
  8
躯体と製品
  6
Continuous
 62
     3
100
AcDbCircle
 10
1752.991770576615
 20
839.8835299960124
 30
0.0
 40
1.0
100
AcDbArc
 50
90.0
 51
180.0
  0
ARC
  5
7144
330
1E
100
AcDbEntity
  8
躯体と製品
  6
Continuous
 62
     3
100
AcDbCircle
 10
1756.691770576615
 20
841.3835299960123
 30
0.0
 40
0.5
100
AcDbArc
 50
270.0
 51
0.0
  0
LINE
  5
7145
330
1E
100
AcDbEntity
  8
躯体と製品
  6
Continuous
 62
     3
100
AcDbLine
 10
1757.191770576615
 20
841.3835299960123
 30
0.0
 11
1757.191770576615
 21
847.9335299960123
 31
0.0
  0
ARC
  5
7146
330
1E
100
AcDbEntity
  8
躯体と製品
  6
Continuous
 62
     3
100
AcDbCircle
 10
1757.941770576615
 20
847.9335299960123
 30
0.0
 40
0.75
100
AcDbArc
 50
0.0
 51
180.0
  0
LINE
  5
7147
330
1E
100
AcDbEntity
  8
躯体と製品
  6
Continuous
 62
     3
100
AcDbLine
 10
1757.191770576615
 20
829.9835299960122
 30
0.0
 11
1757.191770576615
 21
793.1835299960123
 31
0.0
  0
ARC
  5
7148
330
1E
100
AcDbEntity
  8
躯体と製品
  6
Continuous
 62
     3
100
AcDbCircle
 10
1763.591770576615
 20
791.2835299960122
 30
0.0
 40
0.5999999999999998
100
AcDbArc
 50
270.0
 51
90.0
  0
LINE
  5
7149
330
1E
100
AcDbEntity
  8
躯体と製品
  6
Continuous
 62
     3
100
AcDbLine
 10
1763.591770576615
 20
791.8835299960123
 30
0.0
 11
1759.691770576615
 21
791.8835299960123
 31
0.0
  0
ARC
  5
714A
330
1E
100
AcDbEntity
  8
躯体と製品
  6
Continuous
 62
     3
100
AcDbCircle
 10
1759.691770576615
 20
792.8835299960123
 30
0.0
 40
1.0
100
AcDbArc
 50
180.0
 51
270.0
  0
LINE
  5
714B
330
1E
100
AcDbEntity
  8
躯体と製品
  6
Continuous
 62
     7
100
AcDbLine
 10
1725.717077221317
 20
827.8927350849082
 30
0.0
 11
1728.297176424153
 21
798.4020662501743
 31
0.0
  0
LINE
  5
714C
330
1E
100
AcDbEntity
  8
躯体と製品
  6
Continuous
 62
     7
100
AcDbLine
 10
1726.713271919408
 20
827.9798908276559
 30
0.0
 11
1729.293371122245
 21
798.489221992922
 31
0.0
  0
LINE
  5
714D
330
1E
100
AcDbEntity
  8
躯体と製品
  6
Continuous
 62
     7
100
AcDbLine
 10
1751.500158230012
 20
833.6794013130347
 30
0.0
 11
1748.413791332606
 21
798.4020662501743
 31
0.0
  0
ARC
  5
714E
330
1E
100
AcDbEntity
  8
躯体と製品
  6
Continuous
 62
     7
100
AcDbCircle
 10
1738.35548387838
 20
799.2820541266775
 30
0.0
 40
10.09672855466265
100
AcDbArc
 50
184.9999999999994
 51
355.0000000000006
  0
LINE
  5
714F
330
1E
100
AcDbEntity
  8
躯体と製品
  6
Continuous
 62
     7
100
AcDbLine
 10
1750.50396353192
 20
833.7665570557824
 30
0.0
 11
1747.417596634514
 21
798.489221992922
 31
0.0
  0
ARC
  5
7150
330
1E
100
AcDbEntity
  8
躯体と製品
  6
Continuous
 62
     7
100
AcDbCircle
 10
1738.35548387838
 20
799.2820541266775
 30
0.0
 40
9.096728554662648
100
AcDbArc
 50
184.9999999999994
 51
355.0000000000006
  0
ARC
  5
7151
330
1E
100
AcDbEntity
  8
躯体と製品
  6
Continuous
 62
     7
100
AcDbCircle
 10
1577.749442297124
 20
851.3102877627636
 30
0.0
 40
2.0
100
AcDbArc
 50
180.0
 51
184.9999999999994
  0
LINE
  5
7153
330
1E
100
AcDbEntity
  8
躯体と製品
  6
Continuous
 62
     7
100
AcDbLine
 10
1576.749442297123
 20
851.2666268198547
 30
0.0
 11
1582.878179514435
 21
781.2148398761035
 31
0.0
  0
LINE
  5
7154
330
1E
100
AcDbEntity
  8
躯体と製品
  6
Continuous
 62
     7
100
AcDbLine
 10
1622.785612674839
 20
827.9798908276559
 30
0.0
 11
1618.694200867366
 21
781.2148398761035
 31
0.0
  0
LINE
  5
715C
330
1E
100
AcDbEntity
  8
躯体と製品
  6
Continuous
 62
     3
100
AcDbLine
 10
1591.697106340881
 20
886.8293041953352
 30
0.0
 11
1772.906450165853
 21
877.3325249001313
 31
0.0
  0
ARC
  5
715D
330
1E
100
AcDbEntity
  8
躯体と製品
  6
DASHED1
 62
     7
100
AcDbCircle
 10
1586.749442297124
 20
888.0899726265042
 30
0.0
 40
7.5
100
AcDbArc
 50
180.0
 51
266.9999999999944
  0
ARC
  5
715E
330
1E
100
AcDbEntity
  8
躯体と製品
  6
DASHED1
 62
     7
100
AcDbCircle
 10
1586.749442297124
 20
888.0899726265047
 30
0.0
 40
3.0
100
AcDbArc
 50
180.0
 51
266.9999999999944
  0
LINE
  5
715F
330
1E
100
AcDbEntity
  8
躯体と製品
  6
DASHED1
 62
     7
100
AcDbLine
 10
1579.249442297124
 20
888.0899726265042
 30
0.0
 11
1579.249442297124
 21
900.2430789263598
 31
0.0
  0
LINE
  5
7160
330
1E
100
AcDbEntity
  8
躯体と製品
  6
DASHED1
 62
     7
100
AcDbLine
 10
1583.749442297124
 20
900.2430789263598
 30
0.0
 11
1579.249442297124
 21
900.2430789263598
 31
0.0
  0
LINE
  5
7161
330
1E
100
AcDbEntity
  8
躯体と製品
  6
DASHED1
 62
     7
100
AcDbLine
 10
1583.749442297124
 20
888.0899726265047
 30
0.0
 11
1583.749442297124
 21
900.2430789263598
 31
0.0
  0
ARC
  5
7162
330
1E
100
AcDbEntity
  8
躯体と製品
  6
Continuous
 62
     3
100
AcDbCircle
 10
1591.749442297124
 20
887.8279337300899
 30
0.0
 40
1.0
100
AcDbArc
 50
180.0
 51
266.9999999999944
  0
LINE
  5
7163
330
1E
100
AcDbEntity
  8
躯体と製品
  6
Continuous
 62
     3
100
AcDbLine
 10
1590.749442297124
 20
887.8279337300899
 30
0.0
 11
1590.749442297124
 21
898.8789691633751
 31
0.0
  0
ARC
  5
7164
330
1E
100
AcDbEntity
  8
躯体と製品
  6
Continuous
 62
     3
100
AcDbCircle
 10
1591.749442297124
 20
887.8279337300899
 30
0.0
 40
3.0
100
AcDbArc
 50
180.0
 51
266.9999999999944
  0
LINE
  5
7165
330
1E
100
AcDbEntity
  8
躯体と製品
  6
Continuous
 62
     3
100
AcDbLine
 10
1588.749442297124
 20
887.8279337300899
 30
0.0
 11
1588.749442297124
 21
898.8789691633751
 31
0.0
  0
LINE
  5
7166
330
1E
100
AcDbEntity
  8
躯体と製品
  6
Continuous
 62
     3
100
AcDbLine
 10
1588.749442297124
 20
898.8789691633751
 30
0.0
 11
1590.749442297124
 21
898.8789691633751
 31
0.0
  0
LINE
  5
7167
330
1E
100
AcDbEntity
  8
躯体と製品
  6
DASHED1
 62
     7
100
AcDbLine
 10
1586.592434428395
 20
885.094084022241
 30
0.0
 11
1607.005600765424
 21
884.0242753063819
 31
0.0
  0
LINE
  5
7168
330
1E
100
AcDbEntity
  8
躯体と製品
  6
DASHED1
 62
     7
100
AcDbLine
 10
1586.356922625301
 20
880.6002511158448
 30
0.0
 11
1606.770088962331
 21
879.530442399986
 31
0.0
  0
LINE
  5
7169
330
1E
100
AcDbEntity
  8
躯体と製品
  6
DASHED1
 62
     7
100
AcDbLine
 10
1759.795828747708
 20
870.2119534285547
 30
0.0
 11
1773.749442297123
 21
792.0717175518282
 31
0.0
  0
ARC
  5
716A
330
1E
100
AcDbEntity
  8
躯体と製品
  6
DASHED1
 62
     7
100
AcDbCircle
 10
1752.412621931395
 20
868.8935236399272
 30
0.0
 40
3.0
100
AcDbArc
 50
10.12467165539644
 51
86.99999999999441
  0
LINE
  5
716B
330
1E
100
AcDbEntity
  8
躯体と製品
  6
DASHED1
 62
     7
100
AcDbLine
 10
1755.36590465792
 20
869.4208955553781
 30
0.0
 11
1769.319518207336
 21
791.2806596786518
 31
0.0
  0
LINE
  5
716C
330
1E
100
AcDbEntity
  8
躯体と製品
  6
DASHED1
 62
     7
100
AcDbLine
 10
1773.749442297123
 20
792.0717175518282
 30
0.0
 11
1769.319518207399
 21
791.2806596782959
 31
0.0
  0
ARC
  5
716D
330
1E
100
AcDbEntity
  8
躯体と製品
  6
DASHED1
 62
     7
100
AcDbCircle
 10
1752.412621931395
 20
868.8935236399272
 30
0.0
 40
7.5
100
AcDbArc
 50
10.12467165539644
 51
86.99999999999441
  0
LINE
  5
716E
330
1E
100
AcDbEntity
  8
躯体と製品
  6
DASHED1
 62
     7
100
AcDbLine
 10
1746.779473999929
 20
876.6990370083727
 30
0.0
 11
1752.805141603217
 21
876.3832451505866
 31
0.0
  0
LINE
  5
716F
330
1E
100
AcDbEntity
  8
躯体と製品
  6
DASHED1
 62
     7
100
AcDbLine
 10
1746.543962196835
 20
872.205204101977
 30
0.0
 11
1752.569629800123
 21
871.8894122441909
 31
0.0
  0
POINT
  5
7170
330
1E
100
AcDbEntity
  8
躯体と製品
 62
     4
100
AcDbPoint
 10
1775.749442297124
 20
787.1835299960123
 30
0.0
  0
LINE
  5
7171
330
1E
100
AcDbEntity
  8
躯体と製品
  6
Continuous
 62
     3
100
AcDbLine
 10
1591.592434428395
 20
884.8320451258262
 30
0.0
 11
1772.801778253367
 21
875.3352658306223
 31
0.0
  0
POINT
  5
7172
330
1E
100
AcDbEntity
  8
躯体と製品
 62
     4
100
AcDbPoint
 10
1775.749442297124
 20
877.1835299960123
 30
0.0
  0
LINE
  5
7173
330
1E
100
AcDbEntity
  8
躯体と製品
  6
Continuous
 62
     3
100
AcDbLine
 10
1775.749442297124
 20
874.3366362958678
 30
0.0
 11
1775.749442297124
 21
790.1835299960123
 31
0.0
  0
LINE
  5
7174
330
1E
100
AcDbEntity
  8
躯体と製品
  6
Continuous
 62
     3
100
AcDbLine
 10
1765.749442297124
 20
787.1835299960123
 30
0.0
 11
1765.749442297124
 21
789.1835299960123
 31
0.0
  0
ARC
  5
7175
330
1E
100
AcDbEntity
  8
躯体と製品
  6
Continuous
 62
     3
100
AcDbCircle
 10
1772.749442297123
 20
790.1835299960123
 30
0.0
 40
1.0
100
AcDbArc
 50
270.0
 51
0.0
  0
LINE
  5
7176
330
1E
100
AcDbEntity
  8
躯体と製品
  6
Continuous
 62
     3
100
AcDbLine
 10
1772.749442297123
 20
789.1835299960123
 30
0.0
 11
1765.749442297124
 21
789.1835299960123
 31
0.0
  0
LINE
  5
7177
330
1E
100
AcDbEntity
  8
躯体と製品
  6
Continuous
 62
     3
100
AcDbLine
 10
1773.749442297124
 20
790.1835299960123
 30
0.0
 11
1773.749442297124
 21
874.3366362958678
 31
0.0
  0
ARC
  5
7178
330
1E
100
AcDbEntity
  8
躯体と製品
  6
Continuous
 62
     3
100
AcDbCircle
 10
1772.749442297123
 20
874.3366362958678
 30
0.0
 40
1.0
100
AcDbArc
 50
0.0
 51
86.99999999999441
  0
ARC
  5
7179
330
1E
100
AcDbEntity
  8
躯体と製品
  6
Continuous
 62
     3
100
AcDbCircle
 10
1772.749442297123
 20
790.1835299960123
 30
0.0
 40
3.0
100
AcDbArc
 50
270.0
 51
0.0
  0
ARC
  5
717A
330
1E
100
AcDbEntity
  8
躯体と製品
  6
Continuous
 62
     3
100
AcDbCircle
 10
1772.749442297123
 20
874.3366362958678
 30
0.0
 40
3.0
100
AcDbArc
 50
0.0
 51
86.99999999999441
  0
LINE
  5
717B
330
1E
100
AcDbEntity
  8
躯体と製品
  6
Continuous
 62
     3
100
AcDbLine
 10
1772.749442297123
 20
787.1835299960123
 30
0.0
 11
1765.749442297124
 21
787.1835299960123
 31
0.0
  0
LINE
  5
717C
330
1E
100
AcDbEntity
  8
躯体と製品
  6
Continuous
 62
     7
100
AcDbLine
 10
1606.916037590627
 20
882.3171037018894
 30
0.0
 11
1607.005506921024
 21
884.0242802245587
 31
0.0
  0
LINE
  5
717D
330
1E
100
AcDbEntity
  8
躯体と製品
  6
Continuous
 62
     7
100
AcDbLine
 10
1746.724172456267
 20
874.9900698278773
 30
0.0
 11
1746.813641786664
 21
876.6972463505471
 31
0.0
  0
LINE
  5
717E
330
1E
100
AcDbEntity
  8
躯体と製品
  6
Continuous
 62
     4
100
AcDbLine
 10
1621.918357903083
 20
881.9685890774779
 30
0.0
 11
1620.573748147456
 21
883.3131988331048
 31
0.0
  0
LINE
  5
717F
330
1E
100
AcDbEntity
  8
躯体と製品
  6
Continuous
 62
     4
100
AcDbLine
 10
1620.887862006464
 20
881.5848714117235
 30
0.0
 11
1619.081319725763
 21
883.3914136924246
 31
0.0
  0
LINE
  5
7180
330
1E
100
AcDbEntity
  8
躯体と製品
  6
Continuous
 62
     4
100
AcDbLine
 10
1619.395433584773
 20
881.6630862710431
 30
0.0
 11
1617.588891304071
 21
883.4696285517443
 31
0.0
  0
LINE
  5
7181
330
1E
100
AcDbEntity
  8
躯体と製品
  6
Continuous
 62
     4
100
AcDbLine
 10
1617.90300516308
 20
881.7413011303626
 30
0.0
 11
1616.096462882378
 21
883.547843411064
 31
0.0
  0
LINE
  5
7182
330
1E
100
AcDbEntity
  8
躯体と製品
  6
Continuous
 62
     4
100
AcDbLine
 10
1616.410576741386
 20
881.8195159896825
 30
0.0
 11
1614.604034460685
 21
883.626058270384
 31
0.0
  0
LINE
  5
7183
330
1E
100
AcDbEntity
  8
躯体と製品
  6
Continuous
 62
     4
100
AcDbLine
 10
1614.918148319693
 20
881.8977308490023
 30
0.0
 11
1613.111606038992
 21
883.7042731297037
 31
0.0
  0
LINE
  5
7184
330
1E
100
AcDbEntity
  8
躯体と製品
  6
Continuous
 62
     4
100
AcDbLine
 10
1613.425719898
 20
881.9759457083218
 30
0.0
 11
1611.619177617298
 21
883.7824879890236
 31
0.0
  0
LINE
  5
7185
330
1E
100
AcDbEntity
  8
躯体と製品
  6
Continuous
 62
     4
100
AcDbLine
 10
1611.933291476307
 20
882.0541605676414
 30
0.0
 11
1610.126749195606
 21
883.8607028483435
 31
0.0
  0
LINE
  5
7186
330
1E
100
AcDbEntity
  8
躯体と製品
  6
Continuous
 62
     4
100
AcDbLine
 10
1610.440863054614
 20
882.132375426962
 30
0.0
 11
1608.634320773912
 21
883.9389177076631
 31
0.0
  0
LINE
  5
7187
330
1E
100
AcDbEntity
  8
躯体と製品
  6
Continuous
 62
     4
100
AcDbLine
 10
1608.94843463292
 20
882.2105902862819
 30
0.0
 11
1607.141892352219
 21
884.017132566983
 31
0.0
  0
LINE
  5
7188
330
1E
100
AcDbEntity
  8
躯体と製品
  6
Continuous
 62
     7
100
AcDbLine
 10
1621.895480611945
 20
881.5320643582451
 30
0.0
 11
1621.984949942342
 21
883.2392408809143
 31
0.0
  0
LINE
  5
7189
330
1E
100
AcDbEntity
  8
躯体と製品
  6
Continuous
 62
     4
100
AcDbLine
 10
1746.747049747405
 20
875.42659454711
 30
0.0
 11
1745.402439991778
 21
876.7712043027374
 31
0.0
  0
LINE
  5
718A
330
1E
100
AcDbEntity
  8
躯体と製品
  6
Continuous
 62
     4
100
AcDbLine
 10
1745.716553850786
 20
875.0428768813554
 30
0.0
 11
1743.910011570084
 21
876.849419162057
 31
0.0
  0
LINE
  5
718B
330
1E
100
AcDbEntity
  8
躯体と製品
  6
Continuous
 62
     4
100
AcDbLine
 10
1744.224125429095
 20
875.1210917406748
 30
0.0
 11
1742.417583148393
 21
876.9276340213771
 31
0.0
  0
LINE
  5
718C
330
1E
100
AcDbEntity
  8
躯体と製品
  6
Continuous
 62
     4
100
AcDbLine
 10
1742.731697007402
 20
875.1993065999945
 30
0.0
 11
1740.9251547267
 21
877.0058488806968
 31
0.0
  0
LINE
  5
718D
330
1E
100
AcDbEntity
  8
躯体と製品
  6
Continuous
 62
     4
100
AcDbLine
 10
1741.239268585709
 20
875.2775214593146
 30
0.0
 11
1739.432726305007
 21
877.0840637400166
 31
0.0
  0
LINE
  5
718E
330
1E
100
AcDbEntity
  8
躯体と製品
  6
Continuous
 62
     4
100
AcDbLine
 10
1739.746840164016
 20
875.3557363186343
 30
0.0
 11
1737.940297883313
 21
877.1622785993365
 31
0.0
  0
LINE
  5
718F
330
1E
100
AcDbEntity
  8
躯体と製品
  6
Continuous
 62
     4
100
AcDbLine
 10
1738.254411742323
 20
875.4339511779541
 30
0.0
 11
1736.44786946162
 21
877.2404934586562
 31
0.0
  0
LINE
  5
7190
330
1E
100
AcDbEntity
  8
躯体と製品
  6
Continuous
 62
     4
100
AcDbLine
 10
1736.761983320629
 20
875.5121660372735
 30
0.0
 11
1734.955441039927
 21
877.3187083179761
 31
0.0
  0
LINE
  5
7191
330
1E
100
AcDbEntity
  8
躯体と製品
  6
Continuous
 62
     4
100
AcDbLine
 10
1735.269554898936
 20
875.5903808965937
 30
0.0
 11
1733.463012618234
 21
877.3969231772957
 31
0.0
  0
LINE
  5
7192
330
1E
100
AcDbEntity
  8
躯体と製品
  6
Continuous
 62
     4
100
AcDbLine
 10
1733.777126477242
 20
875.668595755914
 30
0.0
 11
1731.970584196541
 21
877.4751380366156
 31
0.0
  0
LINE
  5
7193
330
1E
100
AcDbEntity
  8
躯体と製品
  6
Continuous
 62
     7
100
AcDbLine
 10
1731.744729434948
 20
875.7751091715215
 30
0.0
 11
1731.834198765346
 21
877.4822856941911
 31
0.0
  0
ARC
  5
7194
330
1E
100
AcDbEntity
  8
躯体と製品
  6
Continuous
 62
     7
100
AcDbCircle
 10
1599.247337965484
 20
889.2552625573708
 30
0.0
 40
0.4
100
AcDbArc
 50
38.4255014834191
 51
218.4255014834191
  0
LINE
  5
7195
330
1E
100
AcDbEntity
  8
躯体と製品
  6
Continuous
 62
     7
100
AcDbLine
 10
1599.560704731982
 20
889.5038611689013
 30
0.0
 11
1600.555099178104
 21
888.2503941029119
 31
0.0
  0
LINE
  5
7196
330
1E
100
AcDbEntity
  8
躯体と製品
  6
Continuous
 62
     7
100
AcDbLine
 10
1598.933971198987
 20
889.00666394584
 30
0.0
 11
1599.928365645109
 21
887.7531968798505
 31
0.0
  0
ARC
  5
7197
330
1E
100
AcDbEntity
  8
躯体と製品
  6
Continuous
 62
     7
100
AcDbCircle
 10
1603.062033310083
 20
890.239182995157
 30
0.0
 40
3.2
100
AcDbArc
 50
218.4255014834191
 51
334.4147350672499
  0
ARC
  5
7198
330
1E
100
AcDbEntity
  8
躯体と製品
  6
Continuous
 62
     7
100
AcDbCircle
 10
1603.062033310083
 20
890.239182995157
 30
0.0
 40
4.0
100
AcDbArc
 50
218.4255014834191
 51
334.4147350672499
  0
LINE
  5
7199
330
1E
100
AcDbEntity
  8
躯体と製品
  6
Continuous
 62
     7
100
AcDbLine
 10
1607.749442297124
 20
890.766626819855
 30
0.0
 11
1606.669807783774
 21
888.5117677737982
 31
0.0
  0
LINE
  5
719B
330
1E
100
AcDbEntity
  8
躯体と製品
  6
Continuous
 62
     7
100
AcDbLine
 10
1606.86246889473
 20
890.766626819855
 30
0.0
 11
1605.948252889036
 21
888.8572508180699
 31
0.0
  0
LINE
  5
719C
330
1E
100
AcDbEntity
  8
躯体と製品
  6
Continuous
 62
     3
100
AcDbLine
 10
1659.749442297124
 20
829.8051714286213
 30
0.0
 11
1659.749442297124
 21
828.8051714286213
 31
0.0
  0
LINE
  5
719D
330
1E
100
AcDbEntity
  8
躯体と製品
  6
Continuous
 62
     3
100
AcDbLine
 10
1689.749442297124
 20
829.8051714286213
 30
0.0
 11
1659.749442297124
 21
829.8051714286213
 31
0.0
  0
LINE
  5
719E
330
1E
100
AcDbEntity
  8
躯体と製品
  6
Continuous
 62
     3
100
AcDbLine
 10
1659.749442297124
 20
828.8051714286213
 30
0.0
 11
1689.749442297124
 21
828.8051714286213
 31
0.0
  0
LINE
  5
719F
330
1E
100
AcDbEntity
  8
躯体と製品
  6
Continuous
 62
     3
100
AcDbLine
 10
1689.749442297124
 20
828.8051714286213
 30
0.0
 11
1689.749442297124
 21
829.8051714286213
 31
0.0
  0
LINE
  5
71BD
330
1E
100
AcDbEntity
  8
躯体と製品
  6
Continuous
 62
     7
100
AcDbLine
 10
1624.749442297124
 20
828.8051714286213
 30
0.0
 11
1624.749442297124
 21
708.8051714286214
 31
0.0
  0
LINE
  5
71BE
330
1E
100
AcDbEntity
  8
躯体と製品
  6
Continuous
 62
     7
100
AcDbLine
 10
1575.749442297124
 20
886.266626819855
 30
0.0
 11
1574.749442297124
 21
886.266626819855
 31
0.0
  0
LINE
  5
71BF
330
1E
100
AcDbEntity
  8
躯体と製品
  6
Continuous
 62
     7
100
AcDbLine
 10
1575.749442297124
 20
881.2666268198547
 30
0.0
 11
1574.749442297124
 21
881.2666268198547
 31
0.0
  0
LINE
  5
71C0
330
1E
100
AcDbEntity
  8
躯体と製品
  6
Continuous
 62
     7
100
AcDbLine
 10
1674.749442297124
 20
829.8051714286213
 30
0.0
 11
1674.749442297124
 21
830.8051714286213
 31
0.0
  0
ARC
  5
71C1
330
1E
100
AcDbEntity
  8
躯体と製品
  6
Continuous
 62
     7
100
AcDbCircle
 10
1653.749442297124
 20
839.0551714286212
 30
0.0
 40
10.25
100
AcDbArc
 50
270.0
 51
288.9246444160544
  0
ARC
  5
71C2
330
1E
100
AcDbEntity
  8
躯体と製品
  6
Continuous
 62
     7
100
AcDbCircle
 10
1659.749442297124
 20
821.5551714286212
 30
0.0
 40
8.25
100
AcDbArc
 50
90.0
 51
108.9246444160544
  0
ARC
  5
71C3
330
1E
100
AcDbEntity
  8
躯体と製品
  6
Continuous
 62
     7
100
AcDbCircle
 10
1695.749442297123
 20
839.0551714286212
 30
0.0
 40
9.25
100
AcDbArc
 50
251.0753555839456
 51
270.0
  0
ARC
  5
71C4
330
1E
100
AcDbEntity
  8
躯体と製品
  6
Continuous
 62
     7
100
AcDbCircle
 10
1695.749442297123
 20
839.0551714286212
 30
0.0
 40
10.25
100
AcDbArc
 50
251.0753555839456
 51
270.0
  0
ARC
  5
71C5
330
1E
100
AcDbEntity
  8
躯体と製品
  6
Continuous
 62
     7
100
AcDbCircle
 10
1689.749442297124
 20
821.5551714286212
 30
0.0
 40
8.25
100
AcDbArc
 50
71.07535558394559
 51
90.0
  0
LINE
  5
71C6
330
1E
100
AcDbEntity
  8
躯体と製品
  6
Continuous
 62
     7
100
AcDbLine
 10
1724.761274202611
 20
829.8051714286213
 30
0.0
 11
1695.749442297123
 21
829.8051714286213
 31
0.0
  0
ARC
  5
71C7
330
1E
100
AcDbEntity
  8
躯体と製品
  6
Continuous
 62
     7
100
AcDbCircle
 10
1724.720882523225
 20
827.8055793421605
 30
0.0
 40
2.0
100
AcDbArc
 50
4.999999999999459
 51
88.84278494684552
  0
ARC
  5
71C8
330
1E
100
AcDbEntity
  8
躯体と製品
  6
Continuous
 62
     7
100
AcDbCircle
 10
1689.749442297124
 20
821.5551714286212
 30
0.0
 40
9.25
100
AcDbArc
 50
71.07535558394559
 51
90.0
  0
ARC
  5
71C9
330
1E
100
AcDbEntity
  8
躯体と製品
  6
Continuous
 62
     7
100
AcDbCircle
 10
1659.749442297124
 20
821.5551714286212
 30
0.0
 40
9.25
100
AcDbArc
 50
90.0
 51
108.9246444160544
  0
LINE
  5
71CA
330
1E
100
AcDbEntity
  8
躯体と製品
  6
Continuous
 62
     7
100
AcDbLine
 10
1689.749442297124
 20
830.8051714286213
 30
0.0
 11
1659.749442297124
 21
830.8051714286213
 31
0.0
  0
ARC
  5
71CB
330
1E
100
AcDbEntity
  8
躯体と製品
  6
Continuous
 62
     7
100
AcDbCircle
 10
1624.778002071023
 20
827.8055793421605
 30
0.0
 40
2.0
100
AcDbArc
 50
91.1572150532457
 51
175.0000000000005
  0
LINE
  5
71CC
330
1E
100
AcDbEntity
  8
躯体と製品
  6
Continuous
 62
     7
100
AcDbLine
 10
1624.737610391633
 20
829.8051714286213
 30
0.0
 11
1653.749442297124
 21
829.8051714286213
 31
0.0
  0
TEXT
  5
71CD
330
1E
100
AcDbEntity
  8
図枠
 62
     7
100
AcDbText
 10
1596.749442297124
 20
693.7022978379843
 30
0.0
 40
5.0
  1
（3000mmセット）
100
AcDbText
  0
TEXT
  5
71CE
330
1E
100
AcDbEntity
  8
図枠
 62
     7
100
AcDbText
 10
1664.749442297124
 20
693.7022978379843
 30
0.0
 40
5.0
  1
（2000mmセット）
100
AcDbText
  0
TEXT
  5
71CF
330
1E
100
AcDbEntity
  8
図枠
 62
     7
100
AcDbText
 10
1929.749442297124
 20
693.7022978379843
 30
0.0
 40
5.0
  1
（単位：mm）
100
AcDbText
  0
LINE
  5
71D0
330
1E
100
AcDbEntity
  8
図枠
  6
Continuous
 62
     4
100
AcDbLine
 10
1634.249442297124
 20
887.6033478025565
 30
0.0
 11
1684.249442297124
 21
887.6033478025565
 31
0.0
  0
LINE
  5
71D1
330
1E
100
AcDbEntity
  8
図枠
  6
Continuous
 62
     4
100
AcDbLine
 10
1684.249442297124
 20
884.9829588384043
 30
0.0
 11
1684.249442297124
 21
887.6033478025565
 31
0.0
  0
LINE
  5
71D2
330
1E
100
AcDbEntity
  8
図枠
  6
Continuous
 62
     4
100
AcDbLine
 10
1634.249442297124
 20
887.6033478025565
 30
0.0
 11
1684.249442297124
 21
884.9829588384043
 31
0.0
  0
TEXT
  5
71D3
330
1E
100
AcDbEntity
  8
図枠
 62
     7
100
AcDbText
 10
1645.749442297123
 20
887.5876248379528
 30
0.0
 40
5.0
  1
勾配３度
100
AcDbText
  0
LINE
  5
71D4
330
1E
100
AcDbEntity
  8
躯体と製品
  6
CENTER1
 62
     4
100
AcDbLine
 10
1590.506370597688
 20
883.766626819855
 30
0.0
 11
1515.749442297124
 21
883.766626819855
 31
0.0
  0
LINE
  5
71D5
330
1E
100
AcDbEntity
  8
躯体と製品
  6
CENTER1
 62
     4
100
AcDbLine
 10
1577.626719614558
 20
934.266626819855
 30
0.0
 11
1594.494753297124
 21
934.266626819855
 31
0.0
  0
LINE
  5
71D6
330
1E
100
AcDbEntity
  8
躯体と製品
  6
CENTER1
 62
     4
100
AcDbLine
 10
1674.749442297124
 20
853.7286858565078
 30
0.0
 11
1674.749442297124
 21
764.8051714286213
 31
0.0
  0
TEXT
  5
71D8
330
1E
100
AcDbEntity
  8
図枠
 62
     7
100
AcDbText
 10
1399.749442297124
 20
639.9949769465454
 30
0.0
 40
5.0
  1
止水補助板ホルダーＡＬ
100
AcDbText
  0
TEXT
  5
71D9
330
1E
100
AcDbEntity
  8
図枠
 62
     7
100
AcDbText
 10
1399.749442297124
 20
648.9949769465454
 30
0.0
 40
5.0
  1
ＦＹＫ壁フレーム
100
AcDbText
  0
TEXT
  5
71DA
330
1E
100
AcDbEntity
  8
図枠
 62
     7
100
AcDbText
 10
1499.749442297123
 20
576.9949769465453
 30
0.0
 40
5.0
  1
ＦＳ300～500
100
AcDbText
  0
LINE
  5
71DB
330
1E
100
AcDbEntity
  8
躯体と製品
  6
Continuous
 62
     7
100
AcDbLine
 10
1580.749442297124
 20
892.7666268198549
 30
0.0
 11
1579.249442297124
 21
892.7666268198549
 31
0.0
  0
LINE
  5
71DC
330
1E
100
AcDbEntity
  8
躯体と製品
  6
Continuous
 62
     7
100
AcDbLine
 10
1580.749442297124
 20
874.766626819855
 30
0.0
 11
1580.749442297124
 21
892.7666268198549
 31
0.0
  0
LINE
  5
71DD
330
1E
100
AcDbEntity
  8
躯体と製品
  6
Continuous
 62
     7
100
AcDbLine
 10
1580.749442297124
 20
874.766626819855
 30
0.0
 11
1579.249442297124
 21
874.766626819855
 31
0.0
  0
ARC
  5
71DE
330
1E
100
AcDbEntity
  8
躯体と製品
  6
Continuous
 62
     7
100
AcDbCircle
 10
1580.620732751157
 20
885.2693868198551
 30
0.0
 40
3.0
100
AcDbArc
 50
38.61463799999811
 51
87.54107400000371
  0
ARC
  5
71DF
330
1E
100
AcDbEntity
  8
躯体と製品
  6
Continuous
 62
     7
100
AcDbCircle
 10
1580.620732751157
 20
882.2638638198551
 30
0.0
 40
3.0
100
AcDbArc
 50
272.4589259999963
 51
321.3853620000019
  0
ARC
  5
71E0
330
1E
100
AcDbEntity
  8
躯体と製品
  6
Continuous
 62
     7
100
AcDbCircle
 10
1578.749443751157
 20
883.766626819855
 30
0.0
 40
5.4
100
AcDbArc
 50
0.0
 51
38.85106200000375
  0
ARC
  5
71E1
330
1E
100
AcDbEntity
  8
躯体と製品
  6
Continuous
 62
     7
100
AcDbCircle
 10
1578.749443751157
 20
883.766626819855
 30
0.0
 40
5.4
100
AcDbArc
 50
321.3178130000017
 51
0.0
  0
LINE
  5
71E2
330
1E
100
AcDbEntity
  8
躯体と製品
  6
Continuous
 62
     7
100
AcDbLine
 10
1683.749442297124
 20
834.8051714286212
 30
0.0
 11
1683.749442297124
 21
833.3051714286213
 31
0.0
  0
LINE
  5
71E3
330
1E
100
AcDbEntity
  8
躯体と製品
  6
Continuous
 62
     7
100
AcDbLine
 10
1665.749442297124
 20
834.8051714286212
 30
0.0
 11
1665.749442297124
 21
833.3051714286213
 31
0.0
  0
LINE
  5
71E4
330
1E
100
AcDbEntity
  8
躯体と製品
  6
Continuous
 62
     7
100
AcDbLine
 10
1665.749442297124
 20
834.8051714286212
 30
0.0
 11
1683.749442297124
 21
834.8051714286212
 31
0.0
  0
ARC
  5
71E5
330
1E
100
AcDbEntity
  8
躯体と製品
  6
Continuous
 62
     7
100
AcDbCircle
 10
1674.749442297124
 20
830.1940183890655
 30
0.0
 40
9.553418012635715
100
AcDbArc
 50
72.41204622604974
 51
107.5879537739502
  0
ARC
  5
71E6
330
1E
100
AcDbEntity
  8
躯体と製品
  6
Continuous
 62
     7
100
AcDbCircle
 10
1670.419315278202
 20
837.1916136532732
 30
0.0
 40
2.555822748428199
100
AcDbArc
 50
55.61575253203897
 51
124.384247467961
  0
ARC
  5
71E7
330
1E
100
AcDbEntity
  8
躯体と製品
  6
Continuous
 62
     7
100
AcDbCircle
 10
1679.079569316046
 20
837.1916136532732
 30
0.0
 40
2.555822748428199
100
AcDbArc
 50
55.61575253203897
 51
124.384247467961
  0
LINE
  5
71E8
330
1E
100
AcDbEntity
  8
躯体と製品
  6
Continuous
 62
     7
100
AcDbLine
 10
1668.975939605228
 20
839.3008544143169
 30
0.0
 11
1668.975939605228
 21
834.8051714286212
 31
0.0
  0
LINE
  5
71E9
330
1E
100
AcDbEntity
  8
躯体と製品
  6
Continuous
 62
     7
100
AcDbLine
 10
1669.849442297124
 20
839.8051714286212
 30
0.0
 11
1668.975939605228
 21
839.3008544143169
 31
0.0
  0
LINE
  5
71EA
330
1E
100
AcDbEntity
  8
躯体と製品
  6
Continuous
 62
     7
100
AcDbLine
 10
1669.849442297124
 20
839.8051714286212
 30
0.0
 11
1679.649442297124
 21
839.8051714286212
 31
0.0
  0
LINE
  5
71EB
330
1E
100
AcDbEntity
  8
躯体と製品
  6
Continuous
 62
     7
100
AcDbLine
 10
1679.649442297124
 20
839.8051714286212
 30
0.0
 11
1680.52294498902
 21
839.3008544143169
 31
0.0
  0
LINE
  5
71EC
330
1E
100
AcDbEntity
  8
躯体と製品
  6
Continuous
 62
     7
100
AcDbLine
 10
1671.862690951176
 20
839.3008544143169
 30
0.0
 11
1671.862690951176
 21
834.8051714286212
 31
0.0
  0
LINE
  5
71ED
330
1E
100
AcDbEntity
  8
躯体と製品
  6
Continuous
 62
     7
100
AcDbLine
 10
1677.636193643072
 20
839.3008544143169
 30
0.0
 11
1677.636193643072
 21
834.8051714286212
 31
0.0
  0
LINE
  5
71EE
330
1E
100
AcDbEntity
  8
躯体と製品
  6
Continuous
 62
     7
100
AcDbLine
 10
1680.52294498902
 20
839.3008544143169
 30
0.0
 11
1680.52294498902
 21
834.8051714286212
 31
0.0
  0
LINE
  5
71EF
330
1E
100
AcDbEntity
  8
躯体と製品
  6
Continuous
 62
     7
100
AcDbLine
 10
1671.709403741189
 20
839.8051714286212
 30
0.0
 11
1671.301410805491
 21
840.2582934889698
 31
0.0
  0
LINE
  5
71F0
330
1E
100
AcDbEntity
  8
躯体と製品
  6
Continuous
 62
     4
100
AcDbLine
 10
1672.132865140893
 20
845.2608744089962
 30
0.0
 11
1671.846943863264
 21
839.8051714286212
 31
0.0
  0
LINE
  5
71F1
330
1E
100
AcDbEntity
  8
躯体と製品
  6
Continuous
 62
     4
100
AcDbLine
 10
1676.989200568405
 20
845.0063646537866
 30
0.0
 11
1676.716617581852
 21
839.8051714286212
 31
0.0
  0
LINE
  5
71F2
330
1E
100
AcDbEntity
  8
躯体と製品
  6
Continuous
 62
     7
100
AcDbLine
 10
1677.293188014019
 20
839.9442777515124
 30
0.0
 11
1677.138694790924
 21
839.8051714286212
 31
0.0
  0
CIRCLE
  5
71F3
330
1E
100
AcDbEntity
  8
図枠
  6
Continuous
 62
     4
100
AcDbCircle
 10
1757.959044874771
 20
812.0548725833788
 30
0.0
 40
0.9
  0
CIRCLE
  5
71F4
330
1E
100
AcDbEntity
  8
図枠
  6
Continuous
 62
     4
100
AcDbCircle
 10
1740.279712612526
 20
789.8836674870428
 30
0.0
 40
0.9
  0
CIRCLE
  5
71F5
330
1E
100
AcDbEntity
  8
図枠
  6
Continuous
 62
     4
100
AcDbCircle
 10
1753.737160149156
 20
766.5746846134061
 30
0.0
 40
6.0
  0
TEXT
  5
71F6
330
1E
100
AcDbEntity
  8
図枠
 62
     7
100
AcDbText
 10
1750.487160149156
 20
763.5746846134061
 30
0.0
 40
5.0
  1
11
100
AcDbText
  0
LINE
  5
71F7
330
1E
100
AcDbEntity
  8
図枠
  6
Continuous
 62
     4
100
AcDbLine
 10
1740.279712612526
 20
789.8836674870428
 30
0.0
 11
1750.737160149156
 21
771.7708370361126
 31
0.0
  0
CIRCLE
  5
71F8
330
1E
100
AcDbEntity
  8
図枠
  6
Continuous
 62
     4
100
AcDbCircle
 10
1785.927058691127
 20
860.4968935000963
 30
0.0
 40
6.0
  0
TEXT
  5
71F9
330
1E
100
AcDbEntity
  8
図枠
 62
     7
100
AcDbText
 10
1782.927058691127
 20
857.4968935000963
 30
0.0
 40
5.0
  1
５
100
AcDbText
  0
LINE
  5
71FA
330
1E
100
AcDbEntity
  8
図枠
  6
Continuous
 62
     4
100
AcDbLine
 10
1757.959044874771
 20
812.0548725833788
 30
0.0
 11
1782.927058691127
 21
855.3007410773899
 31
0.0
  0
CIRCLE
  5
71FB
330
1E
100
AcDbEntity
  8
図枠
  6
Continuous
 62
     4
100
AcDbCircle
 10
1759.50302500737
 20
859.6363302584663
 30
0.0
 40
0.9
  0
CIRCLE
  5
71FC
330
1E
100
AcDbEntity
  8
図枠
  6
Continuous
 62
     4
100
AcDbCircle
 10
1787.095279412404
 20
925.8051346984423
 30
0.0
 40
6.0
  0
LINE
  5
71FD
330
1E
100
AcDbEntity
  8
図枠
  6
Continuous
 62
     4
100
AcDbLine
 10
1758.958798269002
 20
877.0713198118665
 30
0.0
 11
1784.095279412403
 21
920.6089822757355
 31
0.0
  0
CIRCLE
  5
71FE
330
1E
100
AcDbEntity
  8
図枠
  6
Continuous
 62
     4
100
AcDbCircle
 10
1758.958798269002
 20
877.0713198118665
 30
0.0
 40
0.9
  0
TEXT
  5
71FF
330
1E
100
AcDbEntity
  8
図枠
 62
     7
100
AcDbText
 10
1784.095279412403
 20
922.8051346984424
 30
0.0
 40
5.0
  1
１
100
AcDbText
  0
CIRCLE
  5
7200
330
1E
100
AcDbEntity
  8
図枠
  6
Continuous
 62
     4
100
AcDbCircle
 10
1786.139506150772
 20
905.7720689336889
 30
0.0
 40
6.0
  0
TEXT
  5
7201
330
1E
100
AcDbEntity
  8
図枠
 62
     7
100
AcDbText
 10
1783.139506150772
 20
902.772068933689
 30
0.0
 40
5.0
  1
９
100
AcDbText
  0
LINE
  5
7202
330
1E
100
AcDbEntity
  8
図枠
  6
Continuous
 62
     4
100
AcDbLine
 10
1759.50302500737
 20
859.6363302584663
 30
0.0
 11
1783.139506150772
 21
900.5759165109823
 31
0.0
  0
CIRCLE
  5
7203
330
1E
100
AcDbEntity
  8
図枠
  6
Continuous
 62
     4
100
AcDbCircle
 10
1724.722783035884
 20
862.4033655287259
 30
0.0
 40
0.9
  0
CIRCLE
  5
7204
330
1E
100
AcDbEntity
  8
図枠
  6
Continuous
 62
     4
100
AcDbCircle
 10
1676.803887334556
 20
864.2683411158891
 30
0.0
 40
0.9
  0
CIRCLE
  5
7205
330
1E
100
AcDbEntity
  8
図枠
  6
Continuous
 62
     4
100
AcDbCircle
 10
1672.623431321121
 20
803.7225100304745
 30
0.0
 40
0.9
  0
CIRCLE
  5
7206
330
1E
100
AcDbEntity
  8
図枠
  6
Continuous
 62
     4
100
AcDbCircle
 10
1692.353271325513
 20
866.9905937593204
 30
0.0
 40
0.9
  0
CIRCLE
  5
7207
330
1E
100
AcDbEntity
  8
図枠
  6
Continuous
 62
     4
100
AcDbCircle
 10
1679.086853125819
 20
836.9057435758795
 30
0.0
 40
0.9
  0
CIRCLE
  5
7208
330
1E
100
AcDbEntity
  8
図枠
  6
Continuous
 62
     4
100
AcDbCircle
 10
1684.926925025267
 20
844.2937863402418
 30
0.0
 40
0.9
  0
CIRCLE
  5
7209
330
1E
100
AcDbEntity
  8
図枠
  6
Continuous
 62
     4
100
AcDbCircle
 10
1741.648098147494
 20
891.7188712361477
 30
0.0
 40
6.0
  0
TEXT
  5
720A
330
1E
100
AcDbEntity
  8
図枠
 62
     7
100
AcDbText
 10
1738.648098147494
 20
888.7188712361476
 30
0.0
 40
5.0
  1
６
100
AcDbText
  0
LINE
  5
720B
330
1E
100
AcDbEntity
  8
図枠
  6
Continuous
 62
     4
100
AcDbLine
 10
1724.722783035884
 20
862.4033655287259
 30
0.0
 11
1738.648098147494
 21
886.522718813441
 31
0.0
  0
CIRCLE
  5
720C
330
1E
100
AcDbEntity
  8
図枠
  6
Continuous
 62
     4
100
AcDbCircle
 10
1692.271133881303
 20
842.556508414577
 30
0.0
 40
0.9
  0
CIRCLE
  5
720D
330
1E
100
AcDbEntity
  8
図枠
  6
Continuous
 62
     4
100
AcDbCircle
 10
1720.084188136753
 20
890.730131498686
 30
0.0
 40
6.0
  0
TEXT
  5
720E
330
1E
100
AcDbEntity
  8
図枠
 62
     7
100
AcDbText
 10
1717.084188136753
 20
887.730131498686
 30
0.0
 40
5.0
  1
３
100
AcDbText
  0
LINE
  5
720F
330
1E
100
AcDbEntity
  8
図枠
  6
Continuous
 62
     4
100
AcDbLine
 10
1692.271133881303
 20
842.556508414577
 30
0.0
 11
1717.084188136753
 21
885.5339790759796
 31
0.0
  0
CIRCLE
  5
7210
330
1E
100
AcDbEntity
  8
図枠
  6
Continuous
 62
     4
100
AcDbCircle
 10
1713.640361097889
 20
903.8609147903555
 30
0.0
 40
6.0
  0
TEXT
  5
7211
330
1E
100
AcDbEntity
  8
図枠
 62
     7
100
AcDbText
 10
1710.640361097889
 20
900.8609147903554
 30
0.0
 40
5.0
  1
７
100
AcDbText
  0
LINE
  5
7212
330
1E
100
AcDbEntity
  8
図枠
  6
Continuous
 62
     4
100
AcDbLine
 10
1692.353271325513
 20
866.9905937593204
 30
0.0
 11
1710.640361097889
 21
898.6647623676487
 31
0.0
  0
CIRCLE
  5
7213
330
1E
100
AcDbEntity
  8
図枠
  6
Continuous
 62
     4
100
AcDbCircle
 10
1697.629419873588
 20
900.3392215681715
 30
0.0
 40
6.0
  0
TEXT
  5
7214
330
1E
100
AcDbEntity
  8
図枠
 62
     7
100
AcDbText
 10
1694.379419873589
 20
897.3392215681712
 30
0.0
 40
5.0
  1
14
100
AcDbText
  0
LINE
  5
7215
330
1E
100
AcDbEntity
  8
図枠
  6
Continuous
 62
     4
100
AcDbLine
 10
1676.803887334556
 20
864.2683411158891
 30
0.0
 11
1694.629419873589
 21
895.1430691454648
 31
0.0
  0
CIRCLE
  5
7216
330
1E
100
AcDbEntity
  8
図枠
  6
Continuous
 62
     4
100
AcDbCircle
 10
1699.708611157036
 20
818.6911549384827
 30
0.0
 40
6.0
  0
TEXT
  5
7217
330
1E
100
AcDbEntity
  8
図枠
 62
     7
100
AcDbText
 10
1696.708611157036
 20
815.6911549384828
 30
0.0
 40
5.0
  1
８
100
AcDbText
  0
LINE
  5
7218
330
1E
100
AcDbEntity
  8
図枠
  6
Continuous
 62
     4
100
AcDbLine
 10
1684.926925025267
 20
844.2937863402418
 30
0.0
 11
1696.708611157036
 21
823.8873073611893
 31
0.0
  0
CIRCLE
  5
7219
330
1E
100
AcDbEntity
  8
図枠
  6
Continuous
 62
     4
100
AcDbCircle
 10
1698.509238790676
 20
803.2651848001506
 30
0.0
 40
6.0
  0
TEXT
  5
721A
330
1E
100
AcDbEntity
  8
図枠
 62
     7
100
AcDbText
 10
1695.259238790676
 20
800.2651848001507
 30
0.0
 40
5.0
  1
16
100
AcDbText
  0
LINE
  5
721B
330
1E
100
AcDbEntity
  8
図枠
  6
Continuous
 62
     4
100
AcDbLine
 10
1679.086853125819
 20
836.9057435758795
 30
0.0
 11
1695.509238790676
 21
808.4613372228572
 31
0.0
  0
CIRCLE
  5
721C
330
1E
100
AcDbEntity
  8
図枠
  6
Continuous
 62
     4
100
AcDbCircle
 10
1659.581817126375
 20
781.1337716324621
 30
0.0
 40
6.0
  0
TEXT
  5
721D
330
1E
100
AcDbEntity
  8
図枠
 62
     7
100
AcDbText
 10
1656.331817126375
 20
778.1337716324622
 30
0.0
 40
5.0
  1
17
100
AcDbText
  0
LINE
  5
721E
330
1E
100
AcDbEntity
  8
図枠
  6
Continuous
 62
     4
100
AcDbLine
 10
1672.623431321121
 20
803.7225100304745
 30
0.0
 11
1662.581817126375
 21
786.3299240551687
 31
0.0
  0
CIRCLE
  5
721F
330
1E
100
AcDbEntity
  8
図枠
  6
Continuous
 62
     4
100
AcDbCircle
 10
1667.627690544102
 20
834.0413283611988
 30
0.0
 40
0.9
  0
CIRCLE
  5
7220
330
1E
100
AcDbEntity
  8
図枠
  6
Continuous
 62
     4
100
AcDbCircle
 10
1654.930436912223
 20
812.0490399541955
 30
0.0
 40
6.0
  0
TEXT
  5
7221
330
1E
100
AcDbEntity
  8
図枠
 62
     7
100
AcDbText
 10
1651.680436912223
 20
809.0490399541954
 30
0.0
 40
5.0
  1
20
100
AcDbText
  0
LINE
  5
7222
330
1E
100
AcDbEntity
  8
図枠
  6
Continuous
 62
     4
100
AcDbLine
 10
1667.627690544102
 20
834.0413283611988
 30
0.0
 11
1657.930436912223
 21
817.2451923769019
 31
0.0
  0
CIRCLE
  5
7223
330
1E
100
AcDbEntity
  8
図枠
  6
Continuous
 62
     4
100
AcDbCircle
 10
1602.270585176392
 20
927.0234314118649
 30
0.0
 40
0.9
  0
CIRCLE
  5
7224
330
1E
100
AcDbEntity
  8
図枠
  6
Continuous
 62
     4
100
AcDbCircle
 10
1581.719854763128
 20
916.5040137920318
 30
0.0
 40
0.9
  0
CIRCLE
  5
7225
330
1E
100
AcDbEntity
  8
図枠
  6
Continuous
 62
     4
100
AcDbCircle
 10
1606.967141435263
 20
908.2263195560164
 30
0.0
 40
0.9
  0
CIRCLE
  5
7226
330
1E
100
AcDbEntity
  8
図枠
  6
Continuous
 62
     4
100
AcDbCircle
 10
1606.47033654571
 20
889.1680933469709
 30
0.0
 40
0.9
  0
CIRCLE
  5
7227
330
1E
100
AcDbEntity
  8
図枠
  6
Continuous
 62
     4
100
AcDbCircle
 10
1585.89135207053
 20
935.0228562099236
 30
0.0
 40
0.9
  0
CIRCLE
  5
7228
330
1E
100
AcDbEntity
  8
図枠
  6
Continuous
 62
     4
100
AcDbCircle
 10
1580.033245184973
 20
877.1502985916674
 30
0.0
 40
0.9
  0
CIRCLE
  5
7229
330
1E
100
AcDbEntity
  8
図枠
  6
Continuous
 62
     4
100
AcDbCircle
 10
1633.36194424254
 20
842.5904625188506
 30
0.0
 40
6.0
  0
TEXT
  5
722A
330
1E
100
AcDbEntity
  8
図枠
 62
     7
100
AcDbText
 10
1630.11194424254
 20
839.5904625188506
 30
0.0
 40
5.0
  1
13
100
AcDbText
  0
LINE
  5
722B
330
1E
100
AcDbEntity
  8
図枠
  6
Continuous
 62
     4
100
AcDbLine
 10
1606.47033654571
 20
889.1680933469709
 30
0.0
 11
1630.36194424254
 21
847.7866149415572
 31
0.0
  0
TEXT
  5
722C
330
1E
100
AcDbEntity
  8
図枠
 62
     7
100
AcDbText
 10
1628.185997821541
 20
947.6076220201541
 30
0.0
 40
5.0
  1
10
100
AcDbText
  0
CIRCLE
  5
722D
330
1E
100
AcDbEntity
  8
図枠
  6
Continuous
 62
     4
100
AcDbCircle
 10
1631.43599782154
 20
950.6076220201542
 30
0.0
 40
6.0
  0
LINE
  5
722E
330
1E
100
AcDbEntity
  8
図枠
  6
Continuous
 62
     4
100
AcDbLine
 10
1606.967141435263
 20
908.2263195560164
 30
0.0
 11
1628.43599782154
 21
945.4114695974476
 31
0.0
  0
CIRCLE
  5
722F
330
1E
100
AcDbEntity
  8
図枠
  6
Continuous
 62
     4
100
AcDbCircle
 10
1623.507406681223
 20
963.8066852495018
 30
0.0
 40
6.0
  0
TEXT
  5
7230
330
1E
100
AcDbEntity
  8
図枠
 62
     7
100
AcDbText
 10
1620.507406681223
 20
960.8066852495019
 30
0.0
 40
5.0
  1
２
100
AcDbText
  0
LINE
  5
7231
330
1E
100
AcDbEntity
  8
図枠
  6
Continuous
 62
     4
100
AcDbLine
 10
1602.270585176392
 20
927.0234314118649
 30
0.0
 11
1620.507406681223
 21
958.6105328267956
 31
0.0
  0
CIRCLE
  5
7232
330
1E
100
AcDbEntity
  8
図枠
  6
Continuous
 62
     4
100
AcDbCircle
 10
1563.081335852779
 20
974.5309632205396
 30
0.0
 40
6.0
  0
TEXT
  5
7233
330
1E
100
AcDbEntity
  8
図枠
 62
     7
100
AcDbText
 10
1559.831335852779
 20
971.5309632205396
 30
0.0
 40
5.0
  1
15
100
AcDbText
  0
LINE
  5
7234
330
1E
100
AcDbEntity
  8
図枠
  6
Continuous
 62
     4
100
AcDbLine
 10
1585.89135207053
 20
935.0228562099236
 30
0.0
 11
1566.081335852779
 21
969.3348107978328
 31
0.0
  0
CIRCLE
  5
7235
330
1E
100
AcDbEntity
  8
図枠
  6
Continuous
 62
     4
100
AcDbCircle
 10
1560.600739520455
 20
953.0833944032437
 30
0.0
 40
6.0
  0
TEXT
  5
7236
330
1E
100
AcDbEntity
  8
図枠
 62
     7
100
AcDbText
 10
1557.600739520455
 20
950.0833944032439
 30
0.0
 40
5.0
  1
４
100
AcDbText
  0
LINE
  5
7237
330
1E
100
AcDbEntity
  8
図枠
  6
Continuous
 62
     4
100
AcDbLine
 10
1581.719854763128
 20
916.5040137920318
 30
0.0
 11
1563.600739520455
 21
947.8872419805369
 31
0.0
  0
CIRCLE
  5
7238
330
1E
100
AcDbEntity
  8
図枠
  6
Continuous
 62
     4
100
AcDbCircle
 10
1582.112446141367
 20
885.6858612243881
 30
0.0
 40
0.9
  0
CIRCLE
  5
7239
330
1E
100
AcDbEntity
  8
図枠
  6
Continuous
 62
     4
100
AcDbCircle
 10
1542.815802654281
 20
886.6681986406565
 30
0.0
 40
0.9
  0
TEXT
  5
723A
330
1E
100
AcDbEntity
  8
図枠
 62
     7
100
AcDbText
 10
1527.067678547195
 20
905.3155845934313
 30
0.0
 40
5.0
  1
18
100
AcDbText
  0
LINE
  5
723B
330
1E
100
AcDbEntity
  8
図枠
  6
Continuous
 62
     4
100
AcDbLine
 10
1542.815802654281
 20
886.6681986406565
 30
0.0
 11
1533.317678547195
 21
903.1194321707246
 31
0.0
  0
CIRCLE
  5
723C
330
1E
100
AcDbEntity
  8
図枠
  6
Continuous
 62
     4
100
AcDbCircle
 10
1530.317678547195
 20
908.3155845934314
 30
0.0
 40
6.0
  0
CIRCLE
  5
723D
330
1E
100
AcDbEntity
  8
図枠
  6
Continuous
 62
     4
100
AcDbCircle
 10
1558.383982559545
 20
909.4143248062104
 30
0.0
 40
6.0
  0
LINE
  5
723E
330
1E
100
AcDbEntity
  8
図枠
  6
Continuous
 62
     4
100
AcDbLine
 10
1582.112446141367
 20
885.6858612243881
 30
0.0
 11
1562.626623246664
 21
905.1716841190911
 31
0.0
  0
TEXT
  5
723F
330
1E
100
AcDbEntity
  8
図枠
 62
     7
100
AcDbText
 10
1555.133982559545
 20
906.4143248062103
 30
0.0
 40
5.0
  1
19
100
AcDbText
  0
CIRCLE
  5
7240
330
1E
100
AcDbEntity
  8
図枠
  6
Continuous
 62
     4
100
AcDbCircle
 10
1582.807437345038
 20
778.623564556819
 30
0.0
 40
0.9
  0
LINE
  5
7241
330
1E
100
AcDbEntity
  8
図枠
  6
Continuous
 62
     4
100
AcDbLine
 10
1582.807437345038
 20
778.623564556819
 30
0.0
 11
1590.684454856291
 21
792.2669590984203
 31
0.0
  0
TEXT
  5
7242
330
1E
100
AcDbEntity
  8
図枠
 62
     7
100
AcDbText
 10
1590.434454856292
 20
794.463111521127
 30
0.0
 40
5.0
  1
12
100
AcDbText
  0
CIRCLE
  5
7243
330
1E
100
AcDbEntity
  8
図枠
  6
Continuous
 62
     4
100
AcDbCircle
 10
1593.684454856292
 20
797.4631115211271
 30
0.0
 40
6.0
  0
CIRCLE
  5
7244
330
1E
100
AcDbEntity
  8
図枠
  6
Continuous
 62
     4
100
AcDbCircle
 10
1560.125178229672
 20
857.2422316363656
 30
0.0
 40
6.0
  0
TEXT
  5
7245
330
1E
100
AcDbEntity
  8
図枠
 62
     7
100
AcDbText
 10
1556.875178229672
 20
854.2422316363657
 30
0.0
 40
5.0
  1
21
100
AcDbText
  0
LINE
  5
7246
330
1E
100
AcDbEntity
  8
図枠
  6
Continuous
 62
     4
100
AcDbLine
 10
1580.033245184973
 20
877.1502985916674
 30
0.0
 11
1564.367818916791
 21
861.484872323485
 31
0.0
  0
LINE
  5
724E
330
1E
100
AcDbEntity
  8
躯体と製品
  6
Continuous
 62
     7
100
AcDbLine
 10
1574.749442297124
 20
942.7666268198549
 30
0.0
 11
1574.749442297124
 21
708.8051714286214
 31
0.0
  0
LINE
  5
724F
330
1E
100
AcDbEntity
  8
躯体と製品
  6
Continuous
 62
     7
100
AcDbLine
 10
1574.749442297124
 20
942.7666268198549
 30
0.0
 11
1599.749442297124
 21
942.7666268198549
 31
0.0
  0
LINE
  5
725F
330
1E
100
AcDbEntity
  8
躯体と製品
  6
Continuous
 62
     7
100
AcDbLine
 10
1599.749442297124
 20
1017.766626819855
 30
0.0
 11
1599.749442297124
 21
942.7666268198549
 31
0.0
  0
LINE
  5
7267
330
1E
100
AcDbEntity
  8
躯体と製品
  6
Continuous
 62
     3
100
AcDbLine
 10
1575.749442297124
 20
927.7666268198547
 30
0.0
 11
1574.749442297124
 21
927.7666268198547
 31
0.0
  0
LINE
  5
7268
330
1E
100
AcDbEntity
  8
躯体と製品
  6
Continuous
 62
     3
100
AcDbLine
 10
1575.749442297124
 20
897.7666268198547
 30
0.0
 11
1575.749442297124
 21
927.7666268198547
 31
0.0
  0
LINE
  5
7269
330
1E
100
AcDbEntity
  8
躯体と製品
  6
Continuous
 62
     3
100
AcDbLine
 10
1574.749442297124
 20
897.7666268198547
 30
0.0
 11
1575.749442297124
 21
897.7666268198547
 31
0.0
  0
LINE
  5
726A
330
1E
100
AcDbEntity
  8
躯体と製品
  6
Continuous
 62
     3
100
AcDbLine
 10
1574.749442297124
 20
927.7666268198547
 30
0.0
 11
1574.749442297124
 21
897.7666268198547
 31
0.0
  0
LINE
  5
726B
330
1E
100
AcDbEntity
  8
躯体と製品
  6
Continuous
 62
     4
100
AcDbLine
 10
1574.749442297124
 20
899.1060896186445
 30
0.0
 11
1575.749442297124
 21
898.1060896186447
 31
0.0
  0
LINE
  5
726C
330
1E
100
AcDbEntity
  8
躯体と製品
  6
Continuous
 62
     4
100
AcDbLine
 10
1574.749442297124
 20
900.5203031810175
 30
0.0
 11
1575.749442297124
 21
899.5203031810179
 31
0.0
  0
LINE
  5
726D
330
1E
100
AcDbEntity
  8
躯体と製品
  6
Continuous
 62
     4
100
AcDbLine
 10
1574.749442297123
 20
901.9345167433918
 30
0.0
 11
1575.749442297123
 21
900.9345167433917
 31
0.0
  0
LINE
  5
726E
330
1E
100
AcDbEntity
  8
躯体と製品
  6
Continuous
 62
     4
100
AcDbLine
 10
1574.749442297124
 20
903.3487303057624
 30
0.0
 11
1575.749442297124
 21
902.3487303057622
 31
0.0
  0
LINE
  5
726F
330
1E
100
AcDbEntity
  8
躯体と製品
  6
Continuous
 62
     4
100
AcDbLine
 10
1574.749442297124
 20
904.7629438681358
 30
0.0
 11
1575.749442297124
 21
903.7629438681356
 31
0.0
  0
LINE
  5
7270
330
1E
100
AcDbEntity
  8
躯体と製品
  6
Continuous
 62
     4
100
AcDbLine
 10
1574.749442297124
 20
906.1771574305092
 30
0.0
 11
1575.749442297124
 21
905.1771574305092
 31
0.0
  0
LINE
  5
7271
330
1E
100
AcDbEntity
  8
躯体と製品
  6
Continuous
 62
     4
100
AcDbLine
 10
1574.749442297124
 20
907.5913709928823
 30
0.0
 11
1575.749442297124
 21
906.5913709928823
 31
0.0
  0
LINE
  5
7272
330
1E
100
AcDbEntity
  8
躯体と製品
  6
Continuous
 62
     4
100
AcDbLine
 10
1574.749442297124
 20
909.0055845552555
 30
0.0
 11
1575.749442297124
 21
908.0055845552559
 31
0.0
  0
LINE
  5
7273
330
1E
100
AcDbEntity
  8
躯体と製品
  6
Continuous
 62
     4
100
AcDbLine
 10
1574.749442297124
 20
910.4197981176287
 30
0.0
 11
1575.749442297124
 21
909.4197981176289
 31
0.0
  0
LINE
  5
7274
330
1E
100
AcDbEntity
  8
躯体と製品
  6
Continuous
 62
     4
100
AcDbLine
 10
1574.749442297124
 20
911.8340116800027
 30
0.0
 11
1575.749442297124
 21
910.8340116800023
 31
0.0
  0
LINE
  5
7275
330
1E
100
AcDbEntity
  8
躯体と製品
  6
Continuous
 62
     4
100
AcDbLine
 10
1574.749442297123
 20
913.2482252423745
 30
0.0
 11
1575.749442297124
 21
912.2482252423745
 31
0.0
  0
LINE
  5
7276
330
1E
100
AcDbEntity
  8
躯体と製品
  6
Continuous
 62
     4
100
AcDbLine
 10
1574.749442297123
 20
914.6624388047476
 30
0.0
 11
1575.749442297124
 21
913.6624388047476
 31
0.0
  0
LINE
  5
7277
330
1E
100
AcDbEntity
  8
躯体と製品
  6
Continuous
 62
     4
100
AcDbLine
 10
1574.749442297124
 20
916.0766523671211
 30
0.0
 11
1575.749442297124
 21
915.0766523671206
 31
0.0
  0
LINE
  5
7278
330
1E
100
AcDbEntity
  8
躯体と製品
  6
Continuous
 62
     4
100
AcDbLine
 10
1574.749442297123
 20
917.4908659294944
 30
0.0
 11
1575.749442297123
 21
916.4908659294949
 31
0.0
  0
LINE
  5
7279
330
1E
100
AcDbEntity
  8
躯体と製品
  6
Continuous
 62
     4
100
AcDbLine
 10
1574.749442297124
 20
918.905079491868
 30
0.0
 11
1575.749442297123
 21
917.9050794918678
 31
0.0
  0
LINE
  5
727A
330
1E
100
AcDbEntity
  8
躯体と製品
  6
Continuous
 62
     4
100
AcDbLine
 10
1574.749442297124
 20
920.319293054241
 30
0.0
 11
1575.749442297123
 21
919.319293054241
 31
0.0
  0
LINE
  5
727B
330
1E
100
AcDbEntity
  8
躯体と製品
  6
Continuous
 62
     4
100
AcDbLine
 10
1574.749442297124
 20
921.7335066166143
 30
0.0
 11
1575.749442297123
 21
920.7335066166145
 31
0.0
  0
LINE
  5
727C
330
1E
100
AcDbEntity
  8
躯体と製品
  6
Continuous
 62
     4
100
AcDbLine
 10
1574.749442297123
 20
923.1477201789878
 30
0.0
 11
1575.749442297123
 21
922.1477201789879
 31
0.0
  0
LINE
  5
727D
330
1E
100
AcDbEntity
  8
躯体と製品
  6
Continuous
 62
     4
100
AcDbLine
 10
1574.749442297124
 20
924.5619337413588
 30
0.0
 11
1575.749442297124
 21
923.5619337413584
 31
0.0
  0
LINE
  5
727E
330
1E
100
AcDbEntity
  8
躯体と製品
  6
Continuous
 62
     4
100
AcDbLine
 10
1574.749442297124
 20
925.9761473037324
 30
0.0
 11
1575.749442297124
 21
924.9761473037322
 31
0.0
  0
LINE
  5
727F
330
1E
100
AcDbEntity
  8
躯体と製品
  6
Continuous
 62
     4
100
AcDbLine
 10
1574.749442297124
 20
927.3903608661058
 30
0.0
 11
1575.749442297124
 21
926.3903608661061
 31
0.0
  0
LINE
  5
7280
330
1E
100
AcDbEntity
  8
躯体と製品
  6
Continuous
 62
     7
100
AcDbLine
 10
1575.749442297124
 20
927.7666268198547
 30
0.0
 11
1576.749442297123
 21
927.7666268198547
 31
0.0
  0
LINE
  5
7281
330
1E
100
AcDbEntity
  8
躯体と製品
  6
Continuous
 62
     7
100
AcDbLine
 10
1576.749442297123
 20
851.2666268198547
 30
0.0
 11
1576.749442297123
 21
927.7666268198547
 31
0.0
  0
LINE
  5
7282
330
1E
100
AcDbEntity
  8
躯体と製品
  6
Continuous
 62
     7
100
AcDbLine
 10
1575.749442297124
 20
851.3102877627636
 30
0.0
 11
1575.749442297124
 21
897.7666268198547
 31
0.0
  0
LINE
  5
7285
330
1E
100
AcDbEntity
  8
躯体と製品
  6
Continuous
 62
     7
100
AcDbLine
 10
1589.249442297124
 20
938.7666268198547
 30
0.0
 11
1589.249442297124
 21
941.766626819855
 31
0.0
  0
ARC
  5
7286
330
1E
100
AcDbEntity
  8
躯体と製品
  6
Continuous
 62
     7
100
AcDbCircle
 10
1592.249442297124
 20
941.766626819855
 30
0.0
 40
1.0
100
AcDbArc
 50
0.0
 51
90.0
  0
LINE
  5
7287
330
1E
100
AcDbEntity
  8
躯体と製品
  6
Continuous
 62
     7
100
AcDbLine
 10
1592.249442297124
 20
942.7666268198549
 30
0.0
 11
1590.249442297124
 21
942.7666268198549
 31
0.0
  0
ARC
  5
7288
330
1E
100
AcDbEntity
  8
躯体と製品
  6
Continuous
 62
     7
100
AcDbCircle
 10
1590.249442297124
 20
941.766626819855
 30
0.0
 40
1.0
100
AcDbArc
 50
90.0
 51
180.0
  0
LINE
  5
7289
330
1E
100
AcDbEntity
  8
躯体と製品
  6
Continuous
 62
     7
100
AcDbLine
 10
1593.249442297124
 20
928.7666268198549
 30
0.0
 11
1593.249442297124
 21
941.766626819855
 31
0.0
  0
LINE
  5
728A
330
1E
100
AcDbEntity
  8
躯体と製品
  6
Continuous
 62
     4
100
AcDbLine
 10
1591.3739351664
 20
934.7707546615803
 30
0.0
 11
1593.10763945042
 21
928.2533066019842
 31
0.0
  0
ARC
  5
728B
330
1E
100
AcDbEntity
  8
躯体と製品
  6
Continuous
 62
     7
100
AcDbCircle
 10
1627.374442297122
 20
935.2666268198552
 30
0.0
 40
28.62499999999828
100
AcDbArc
 50
164.8107132628193
 51
195.1892867371807
  0
LINE
  5
728C
330
1E
100
AcDbEntity
  8
躯体と製品
  6
Continuous
 62
     4
100
AcDbLine
 10
1593.249442297124
 20
941.3755805227632
 30
0.0
 11
1594.640488594215
 21
942.7666268198549
 31
0.0
  0
LINE
  5
728D
330
1E
100
AcDbEntity
  8
躯体と製品
  6
Continuous
 62
     4
100
AcDbLine
 10
1593.249442297124
 20
938.5471533980163
 30
0.0
 11
1597.468915718962
 21
942.7666268198549
 31
0.0
  0
LINE
  5
728E
330
1E
100
AcDbEntity
  8
躯体と製品
  6
Continuous
 62
     4
100
AcDbLine
 10
1593.249442297124
 20
935.7187262732701
 30
0.0
 11
1599.559670035852
 21
942.0289540119986
 31
0.0
  0
LINE
  5
728F
330
1E
100
AcDbEntity
  8
躯体と製品
  6
Continuous
 62
     4
100
AcDbLine
 10
1593.249442297124
 20
932.8902991485231
 30
0.0
 11
1598.942209659187
 21
938.5830665105869
 31
0.0
  0
LINE
  5
7290
330
1E
100
AcDbEntity
  8
躯体と製品
  6
Continuous
 62
     4
100
AcDbLine
 10
1593.249442297124
 20
930.0618720237766
 30
0.0
 11
1598.750980864355
 21
935.563410591008
 31
0.0
  0
LINE
  5
7291
330
1E
100
AcDbEntity
  8
躯体と製品
  6
Continuous
 62
     4
100
AcDbLine
 10
1593.782624217949
 20
927.7666268198547
 30
0.0
 11
1598.852759615136
 21
932.8367622170421
 31
0.0
  0
LINE
  5
7292
330
1E
100
AcDbEntity
  8
躯体と製品
  6
Continuous
 62
     4
100
AcDbLine
 10
1596.611051342696
 20
927.7666268198554
 30
0.0
 11
1599.177754431582
 21
930.3333299087412
 31
0.0
  0
TEXT
  5
7297
330
1E
100
AcDbEntity
  8
寸法
 62
     7
100
AcDbText
 10
1659.249442297124
 20
913.9676445261859
 30
0.0
 40
5.0
  1
（キャップ幅）
100
AcDbText
  0
LINE
  5
729C
330
1E
100
AcDbEntity
  8
躯体と製品
  6
Continuous
 62
     4
100
AcDbLine
 10
1589.381054869229
 20
942.2625131728377
 30
0.0
 11
1590.756215397218
 21
937.0929249117992
 31
0.0
  0
TEXT
  5
729D
330
1E
100
AcDbEntity
  8
図枠
 62
     6
100
AcDbText
 10
1283.295951006258
 20
1021.964609103297
 30
0.0
 40
10.0
  1
◇アルミ５０タイプ（５０ＦＹＫ－Ａ）
100
AcDbText
  0
TEXT
  5
729E
330
1E
100
AcDbEntity
  8
図枠
 62
     6
100
AcDbText
 10
1283.685645838
 20
988.1418507124006
 30
0.0
 40
10.0
  1
　　Ｓ＝１／２
100
AcDbText
  0
TEXT
  5
729F
330
1E
100
AcDbEntity
  8
図枠
 62
     6
100
AcDbText
 10
1283.685645838
 20
1005.408758924961
 30
0.0
 40
10.0
  1
　　屋根－壁（ストレート壁）
100
AcDbText
  0
DIMENSION
  5
72A5
330
1E
100
AcDbEntity
  8
寸法
  6
Continuous
100
AcDbDimension
  2
*D4
 10
1775.749442297124
 20
1002.766626819855
 30
0.0
 11
1675.749442297124
 21
1006.266626819855
 31
0.0
 70
    32
  1
W
 71
     5
 42
200.0000000000002
  3
AutoCAD
100
AcDbAlignedDimension
 13
1575.749442297124
 23
929.766626819855
 33
0.0
 14
1775.749442297124
 24
920.7666268198549
 34
0.0
100
AcDbRotatedDimension
  0
DIMENSION
  5
72B2
330
1E
100
AcDbEntity
  8
寸法
  6
Continuous
100
AcDbDimension
  2
*D5
 10
1609.249442297124
 20
987.766626589865
 30
0.0
 11
1592.499442297124
 21
991.2666265898648
 31
0.0
 70
    32
  1
33.5
 71
     5
 42
33.5
  3
AutoCAD
100
AcDbAlignedDimension
 13
1575.749442297124
 23
929.766626819855
 33
0.0
 14
1609.249442297124
 24
929.766626819855
 34
0.0
100
AcDbRotatedDimension
  0
DIMENSION
  5
72BF
330
1E
100
AcDbEntity
  8
寸法
  6
Continuous
100
AcDbDimension
  2
*D6
 10
1609.249442297124
 20
972.766626819855
 30
0.0
 11
1599.249442297123
 21
976.266626819855
 31
0.0
 70
    32
 71
     5
 42
20.0
  3
AutoCAD
100
AcDbAlignedDimension
 13
1589.249442297124
 23
944.7666268198549
 33
0.0
 14
1609.249442297124
 24
942.7666268198549
 34
0.0
100
AcDbRotatedDimension
  0
DIMENSION
  5
72CC
330
1E
100
AcDbEntity
  8
寸法
  6
Continuous
100
AcDbDimension
  2
*D7
 10
1636.249442297124
 20
927.7666268198547
 30
0.0
 11
1632.749442297123
 21
935.266626819855
 31
0.0
 70
    32
 71
     5
 42
15.00000000000023
  3
AutoCAD
100
AcDbAlignedDimension
 13
1601.749442297124
 23
942.7666268198549
 33
0.0
 14
1611.249442297124
 24
927.7666268198547
 34
0.0
 50
90.0
100
AcDbRotatedDimension
  0
DIMENSION
  5
72E6
330
1E
100
AcDbEntity
  8
寸法
  6
Continuous
100
AcDbDimension
  2
*D8
 10
1775.749442297124
 20
920.7666268198549
 30
0.0
 11
1683.249442297124
 21
924.2666268198549
 31
0.0
 70
    32
  1
A
 71
     5
 42
185.0
  3
AutoCAD
100
AcDbAlignedDimension
 13
1590.749442297124
 23
900.8789691633751
 33
0.0
 14
1775.749442297124
 24
879.1835299960123
 34
0.0
100
AcDbRotatedDimension
  0
DIMENSION
  5
72F3
330
1E
100
AcDbEntity
  8
寸法
  6
Continuous
100
AcDbDimension
  2
*D9
 10
1636.499442297124
 20
927.7666268198546
 30
0.0
 11
1632.999442297123
 21
909.7666268198551
 31
0.0
 70
    32
 71
     5
 42
35.99999999999966
  3
AutoCAD
100
AcDbAlignedDimension
 13
1611.249442297124
 23
891.766626819855
 33
0.0
 14
1611.249442297124
 24
927.7666268198546
 34
0.0
 50
90.0
100
AcDbRotatedDimension
  0
DIMENSION
  5
7300
330
1E
100
AcDbEntity
  8
寸法
  6
Continuous
100
AcDbDimension
  2
*D10
 10
1636.499442297124
 20
942.7666268198549
 30
0.0
 11
1632.999442297123
 21
935.266626819855
 31
0.0
 70
    32
 71
     5
 42
15.00000000000034
  3
AutoCAD
100
AcDbAlignedDimension
 13
1611.249442297124
 23
927.7666268198546
 33
0.0
 14
1601.749442297124
 24
942.7666268198549
 34
0.0
 50
90.0
100
AcDbRotatedDimension
  0
DIMENSION
  5
7325
330
1E
100
AcDbEntity
  8
寸法
  6
Continuous
100
AcDbDimension
  2
*D11
 10
1519.749442297124
 20
883.766626819855
 30
0.0
 11
1516.249442297123
 21
856.2858991242384
 31
0.0
 70
    32
  1
D
 71
     5
 42
54.9614553912337
  3
AutoCAD
100
AcDbAlignedDimension
 13
1621.045715818499
 23
828.8051714286213
 33
0.0
 14
1519.749442297124
 24
883.766626819855
 34
0.0
 50
90.0
100
AcDbRotatedDimension
  0
DIMENSION
  5
7349
330
1E
100
AcDbEntity
  8
寸法
  6
Continuous
100
AcDbDimension
  2
*D12
 10
1499.749442297123
 20
942.7666268198549
 30
0.0
 11
1496.249442297123
 21
885.7858991242384
 31
0.0
 70
    32
  1
E
 71
     5
 42
113.9614553912337
  3
AutoCAD
100
AcDbAlignedDimension
 13
1621.045715818499
 23
828.8051714286213
 33
0.0
 14
1572.749442297124
 24
942.7666268198549
 34
0.0
 50
90.0
100
AcDbRotatedDimension
  0
DIMENSION
  5
7356
330
1E
100
AcDbEntity
  8
寸法
  6
Continuous
100
AcDbDimension
  2
*D13
 10
1835.749442297124
 20
787.1835299960123
 30
0.0
 11
1832.249442297124
 21
832.1835299960126
 31
0.0
 70
    32
 71
     5
 42
89.99999999999989
  3
AutoCAD
100
AcDbAlignedDimension
 13
1777.749442297124
 23
877.1835299960123
 33
0.0
 14
1815.749442297124
 24
787.1835299960123
 34
0.0
 50
90.0
100
AcDbRotatedDimension
  0
DIMENSION
  5
7363
330
1E
100
AcDbEntity
  8
寸法
  6
Continuous
100
AcDbDimension
  2
*D14
 10
1815.749442297124
 20
828.805171428621
 30
0.0
 11
1812.249442297124
 21
807.994350712317
 31
0.0
 70
    32
  1
44
 71
     5
 42
41.62164143260883
  3
AutoCAD
100
AcDbAlignedDimension
 13
1777.749442297124
 23
787.1835299960123
 33
0.0
 14
1727.717077221317
 24
828.8051714286211
 34
0.0
 50
90.0
100
AcDbRotatedDimension
  0
DIMENSION
  5
737C
330
1E
100
AcDbEntity
  8
寸法
  6
Continuous
100
AcDbDimension
  2
*D15
 10
1724.749442297123
 20
723.8051714286211
 30
0.0
 11
1750.249442297123
 21
727.3051714286212
 31
0.0
 70
    32
  1
50≦
 71
     5
 42
51.00000000000068
  3
AutoCAD
100
AcDbAlignedDimension
 13
1775.749442297124
 23
785.1835299960123
 33
0.0
 14
1724.749442297123
 24
723.8051714286211
 34
0.0
100
AcDbRotatedDimension
  0
DIMENSION
  5
7388
330
1E
100
AcDbEntity
  8
寸法
  6
Continuous
100
AcDbDimension
  2
*D16
 10
1624.749442297123
 20
723.8051714286211
 30
0.0
 11
1674.626341327996
 21
727.3051714286212
 31
0.0
 70
    32
  1
≦C
 71
     5
 42
99.75379806174693
  3
AutoCAD
100
AcDbAlignedDimension
 13
1724.50324035887
 23
723.7617593842044
 33
0.0
 14
1624.749442297123
 24
723.8051714286211
 34
0.0
100
AcDbRotatedDimension
  0
DIMENSION
  5
7394
330
1E
100
AcDbEntity
  8
寸法
  6
Continuous
100
AcDbDimension
  2
*D17
 10
1574.749442297124
 20
723.8051714286211
 30
0.0
 11
1599.749442297124
 21
727.3051714286212
 31
0.0
 70
    32
 71
     5
 42
50.00000000000068
  3
AutoCAD
100
AcDbAlignedDimension
 13
1624.749442297124
 23
723.8051714286211
 33
0.0
 14
1574.749442297124
 24
723.8051714286211
 34
0.0
100
AcDbRotatedDimension
  0
DIMENSION
  5
739F
330
1E
100
AcDbEntity
  8
寸法
  6
Continuous
100
AcDbDimension
  2
*D18
 10
1724.749442297124
 20
768.8051714286213
 30
0.0
 11
1699.749442297124
 21
772.3051714286214
 31
0.0
 70
    32
 71
     5
 42
50.0
  3
AutoCAD
100
AcDbAlignedDimension
 13
1674.749442297124
 23
768.8051714286213
 33
0.0
 14
1724.749442297124
 24
768.8051714286213
 34
0.0
100
AcDbRotatedDimension
  0
ENDSEC
  0
SECTION
  2
OBJECTS
  0
DICTIONARY
  5
C
330
0
100
AcDbDictionary
281
     1
  3
ACAD_COLOR
350
6779
  3
ACAD_GROUP
350
D
  3
ACAD_LAYOUT
350
19
  3
ACAD_MATERIAL
350
6778
  3
ACAD_MLINESTYLE
350
16
  3
ACAD_PLOTSETTINGS
350
18
  3
ACAD_PLOTSTYLENAME
350
E
  3
ACAD_TABLESTYLE
350
677A
  3
ACDBHEADERROUNDTRIPXREC
350
7410
  3
AcDbVariableDictionary
350
169
  0
DICTIONARY
  5
175
330
2
100
AcDbDictionary
280
     1
281
     1
  3
ACAD_LAYERFILTERS
360
72A4
  3
ACAD_LAYERSTATES
360
176
  3
ACLYDICTIONARY
360
72A3
  0
DICTIONARY
  5
28B
330
1E
100
AcDbDictionary
280
     1
281
     1
  3
ACAD_LAYOUTSELFREF
360
6771
  0
DICTIONARY
  5
28D
330
1A
100
AcDbDictionary
280
     1
281
     1
  3
ACAD_LAYOUTSELFREF
360
6770
  0
DICTIONARY
  5
6779
102
{ACAD_REACTORS
330
C
102
}
330
C
100
AcDbDictionary
281
     1
  0
DICTIONARY
  5
D
102
{ACAD_REACTORS
330
C
102
}
330
C
100
AcDbDictionary
281
     1
  0
DICTIONARY
  5
19
102
{ACAD_REACTORS
330
C
102
}
330
C
100
AcDbDictionary
281
     1
  3
Model
350
21
  3
ﾚｲｱｳﾄ1
350
1D
  0
DICTIONARY
  5
6778
102
{ACAD_REACTORS
330
C
102
}
330
C
100
AcDbDictionary
281
     1
  0
DICTIONARY
  5
16
102
{ACAD_REACTORS
330
C
102
}
330
C
100
AcDbDictionary
281
     1
  3
Standard
350
17
  0
DICTIONARY
  5
18
102
{ACAD_REACTORS
330
C
102
}
330
C
100
AcDbDictionary
281
     1
  0
ACDBDICTIONARYWDFLT
  5
E
102
{ACAD_REACTORS
330
C
102
}
330
C
100
AcDbDictionary
281
     1
  3
Normal
350
F
100
AcDbDictionaryWithDefault
340
F
1001
ACAD
1000
TREAT_AS_HARD
1070
     0
1000
TREAT_AS_HARD
1070
     0
1000
TREAT_AS_HARD
1070
     0
1000
TREAT_AS_HARD
1070
     0
1000
TREAT_AS_HARD
1070
     0
1000
TREAT_AS_HARD
1070
     0
1000
TREAT_AS_HARD
1070
     0
1000
TREAT_AS_HARD
1070
     0
1000
TREAT_AS_HARD
1070
     0
1000
TREAT_AS_HARD
1070
     0
1000
TREAT_AS_HARD
1070
     0
1000
TREAT_AS_HARD
1070
     0
1000
TREAT_AS_HARD
1070
     0
1000
TREAT_AS_HARD
1070
     0
1000
TREAT_AS_HARD
1070
     0
1000
TREAT_AS_HARD
1070
     0
1000
TREAT_AS_HARD
1070
     0
1000
TREAT_AS_HARD
1070
     0
1000
TREAT_AS_HARD
1070
     0
1000
TREAT_AS_HARD
1070
     0
1000
TREAT_AS_HARD
1070
     0
1000
TREAT_AS_HARD
1070
     0
1000
TREAT_AS_HARD
1070
     0
1000
TREAT_AS_HARD
1070
     0
1000
TREAT_AS_HARD
1070
     0
1000
TREAT_AS_HARD
1070
     0
  0
DICTIONARY
  5
677A
102
{ACAD_REACTORS
330
C
102
}
330
C
100
AcDbDictionary
281
     1
  3
Standard
350
677B
  0
DICTIONARY
  5
7410
102
{ACAD_REACTORS
330
C
102
}
330
C
100
AcDbDictionary
281
     1
  0
DICTIONARY
  5
169
102
{ACAD_REACTORS
330
C
102
}
330
C
100
AcDbDictionary
281
     1
  3
CTABLESTYLE
350
6782
  3
DIMASSOC
350
16A
  3
PROJECTNAME
350
740E
  0
DICTIONARY
  5
72A4
102
{ACAD_REACTORS
330
175
102
}
330
175
100
AcDbDictionary
281
     1
  0
DICTIONARY
  5
176
102
{ACAD_REACTORS
330
175
102
}
330
175
100
AcDbDictionary
281
     1
  3
ACAD
350
177
  0
DICTIONARY
  5
72A3
102
{ACAD_REACTORS
330
175
102
}
330
175
100
AcDbDictionary
281
     1
1001
ACAD
1000
<All
  0
XRECORD
  5
6771
102
{ACAD_REACTORS
330
28B
102
}
330
28B
100
AcDbXrecord
280
     1
340
1E
  0
XRECORD
  5
6770
102
{ACAD_REACTORS
330
28D
102
}
330
28D
100
AcDbXrecord
280
     1
340
1A
  0
LAYOUT
  5
21
102
{ACAD_XDICTIONARY
360
7413
102
}
102
{ACAD_REACTORS
330
19
102
}
330
19
100
AcDbPlotSettings
  1

  2
\\MEISEI-1\EPSON Stylus Photo EX3
  4

  6

 40
0.0
 41
0.0
 42
0.0
 43
0.0
 44
0.0
 45
0.0
 46
0.0
 47
0.0
 48
0.0
 49
0.0
140
0.0
141
0.0
142
1.0
143
1.0
 70
  1712
 72
     0
 73
     0
 74
     0
  7

 75
     0
147
1.0
148
0.0
149
0.0
100
AcDbLayout
  1
Model
 70
     1
 71
     0
 10
0.0
 20
0.0
 11
12.0
 21
9.0
 12
0.0
 22
0.0
 32
0.0
 14
0.0
 24
0.0
 34
0.0
 15
0.0
 25
0.0
 35
0.0
146
0.0
 13
0.0
 23
0.0
 33
0.0
 16
1.0
 26
0.0
 36
0.0
 17
0.0
 27
1.0
 37
0.0
 76
     0
330
1E
  0
LAYOUT
  5
1D
102
{ACAD_XDICTIONARY
360
7411
102
}
102
{ACAD_REACTORS
330
19
102
}
330
19
100
AcDbPlotSettings
  1

  2
\\MEISEI-1\EPSON Stylus Photo EX3
  4

  6

 40
0.0
 41
0.0
 42
0.0
 43
0.0
 44
0.0
 45
0.0
 46
0.0
 47
0.0
 48
0.0
 49
0.0
140
0.0
141
0.0
142
1.0
143
1.0
 70
   688
 72
     0
 73
     0
 74
     5
  7

 75
    16
147
1.0
148
0.0
149
0.0
100
AcDbLayout
  1
ﾚｲｱｳﾄ1
 70
     1
 71
     1
 10
0.0
 20
0.0
 11
12.0
 21
9.0
 12
0.0
 22
0.0
 32
0.0
 14
1.000000000000000E+20
 24
1.000000000000000E+20
 34
1.000000000000000E+20
 15
-1.000000000000000E+20
 25
-1.000000000000000E+20
 35
-1.000000000000000E+20
146
0.0
 13
0.0
 23
0.0
 33
0.0
 16
1.0
 26
0.0
 36
0.0
 17
0.0
 27
1.0
 37
0.0
 76
     0
330
1A
  0
MLINESTYLE
  5
17
102
{ACAD_REACTORS
330
16
102
}
330
16
100
AcDbMlineStyle
  2
STANDARD
 70
     0
  3

 62
   256
 51
90.0
 52
90.0
 71
     2
 49
0.5
 62
   256
  6
BYLAYER
 49
-0.5
 62
   256
  6
BYLAYER
  0
ACDBPLACEHOLDER
  5
F
102
{ACAD_REACTORS
330
E
102
}
330
E
  0
TABLESTYLE
  5
677B
102
{ACAD_REACTORS
330
677A
102
}
330
677A
100
AcDbTableStyle
  3
Standard
 70
     0
 71
     0
 40
0.06
 41
0.06
280
     0
281
     0
  7
STANDARD
140
0.18
170
     2
 62
     0
 63
     7
283
     0
274
    -2
284
     1
 64
     0
275
    -2
285
     1
 65
     0
276
    -2
286
     1
 66
     0
277
    -2
287
     1
 67
     0
278
    -2
288
     1
 68
     0
279
    -2
289
     1
 69
     0
  7
STANDARD
140
0.25
170
     5
 62
     0
 63
     7
283
     0
274
    -2
284
     1
 64
     0
275
    -2
285
     1
 65
     0
276
    -2
286
     1
 66
     0
277
    -2
287
     1
 67
     0
278
    -2
288
     1
 68
     0
279
    -2
289
     1
 69
     0
  7
STANDARD
140
0.18
170
     5
 62
     0
 63
     7
283
     0
274
    -2
284
     1
 64
     0
275
    -2
285
     1
 65
     0
276
    -2
286
     1
 66
     0
277
    -2
287
     1
 67
     0
278
    -2
288
     1
 68
     0
279
    -2
289
     1
 69
     0
  0
DICTIONARYVAR
  5
6782
102
{ACAD_REACTORS
330
169
102
}
330
169
100
DictionaryVariables
280
     0
  1
STANDARD
  0
DICTIONARYVAR
  5
16A
102
{ACAD_REACTORS
330
169
102
}
330
169
100
DictionaryVariables
280
     0
  1
1
  0
DICTIONARYVAR
  5
740E
102
{ACAD_REACTORS
330
169
102
}
330
169
100
DictionaryVariables
280
     0
  1

  0
XRECORD
  5
177
102
{ACAD_REACTORS
330
176
102
}
330
176
100
AcDbXrecord
280
     1
 91
      476
330
179
 90
        8
 62
     7
370
    -3
331
15
  1
Color_7
330
178
 90
        8
 62
     7
370
    -3
331
15
  1
Color_7
330
128
 90
        0
 62
     7
370
    -3
331
15
  1
Color_7
330
10
 90
        8
 62
     7
370
    -3
331
15
  1
Color_7
  0
DICTIONARY
  5
7413
330
21
100
AcDbDictionary
280
     1
281
     1
  3
ACAD_XREC_ROUNDTRIP
360
7414
  0
DICTIONARY
  5
7411
330
1D
100
AcDbDictionary
280
     1
281
     1
  3
ACAD_XREC_ROUNDTRIP
360
7412
  0
XRECORD
  5
7414
102
{ACAD_REACTORS
330
7413
102
}
330
7413
100
AcDbXrecord
280
     1
102
SHADEPLOT
 70
     0
102
SHADEPLOTRESLEVEL
 70
     2
102
SHADEPLOTCUSTOMDPI
 70
   300
  0
XRECORD
  5
7412
102
{ACAD_REACTORS
330
7411
102
}
330
7411
100
AcDbXrecord
280
     1
102
SHADEPLOT
 70
     0
102
SHADEPLOTRESLEVEL
 70
     2
102
SHADEPLOTCUSTOMDPI
 70
   300
  0
ENDSEC
  0
EOF
