  0
SECTION
  2
HEADER
  9
$ACADVER
  1
AC1015
  9
$ACADMAINTVER
 70
    20
  9
$DWGCODEPAGE
  3
ANSI_932
  9
$INSBASE
 10
0.0
 20
0.0
 30
0.0
  9
$EXTMIN
 10
1215.646537715174
 20
266.0229374033629
 30
-0.0000000349181948
  9
$EXTMAX
 10
2039.813676334496
 20
842.1296992386968
 30
0.0000000814935746
  9
$LIMMIN
 10
0.0
 20
0.0
  9
$LIMMAX
 10
420.0
 20
297.0
  9
$ORTHOMODE
 70
     0
  9
$REGENMODE
 70
     1
  9
$FILLMODE
 70
     1
  9
$QTEXTMODE
 70
     0
  9
$MIRRTEXT
 70
     1
  9
$LTSCALE
 40
1.0
  9
$ATTMODE
 70
     1
  9
$TEXTSIZE
 40
5.0
  9
$TRACEWID
 40
0.05
  9
$TEXTSTYLE
  7
ACAD
  9
$CLAYER
  8
0
  9
$CELTYPE
  6
CONTINUOUS
  9
$CECOLOR
 62
   256
  9
$CELTSCALE
 40
1.0
  9
$DISPSILH
 70
     0
  9
$DIMSCALE
 40
1.0
  9
$DIMASZ
 40
1.0
  9
$DIMEXO
 40
0.0
  9
$DIMDLI
 40
0.38
  9
$DIMRND
 40
0.0
  9
$DIMDLE
 40
0.0
  9
$DIMEXE
 40
0.0
  9
$DIMTP
 40
0.0
  9
$DIMTM
 40
0.0
  9
$DIMTXT
 40
5.0
  9
$DIMCEN
 40
0.09
  9
$DIMTSZ
 40
0.0
  9
$DIMTOL
 70
     0
  9
$DIMLIM
 70
     0
  9
$DIMTIH
 70
     0
  9
$DIMTOH
 70
     1
  9
$DIMSE1
 70
     0
  9
$DIMSE2
 70
     0
  9
$DIMTAD
 70
     1
  9
$DIMZIN
 70
     0
  9
$DIMBLK
  1
Dot
  9
$DIMASO
 70
     1
  9
$DIMSHO
 70
     1
  9
$DIMPOST
  1

  9
$DIMAPOST
  1

  9
$DIMALT
 70
     0
  9
$DIMALTD
 70
     2
  9
$DIMALTF
 40
25.4
  9
$DIMLFAC
 40
1.0
  9
$DIMTOFL
 70
     0
  9
$DIMTVP
 40
0.0
  9
$DIMTIX
 70
     1
  9
$DIMSOXD
 70
     0
  9
$DIMSAH
 70
     0
  9
$DIMBLK1
  1

  9
$DIMBLK2
  1

  9
$DIMSTYLE
  2
AutoCAD
  9
$DIMCLRD
 70
     4
  9
$DIMCLRE
 70
     4
  9
$DIMCLRT
 70
     3
  9
$DIMTFAC
 40
1.0
  9
$DIMGAP
 40
1.0
  9
$DIMJUST
 70
     0
  9
$DIMSD1
 70
     0
  9
$DIMSD2
 70
     0
  9
$DIMTOLJ
 70
     1
  9
$DIMTZIN
 70
     0
  9
$DIMALTZ
 70
     0
  9
$DIMALTTZ
 70
     0
  9
$DIMUPT
 70
     0
  9
$DIMDEC
 70
     0
  9
$DIMTDEC
 70
     0
  9
$DIMALTU
 70
     2
  9
$DIMALTTD
 70
     2
  9
$DIMTXSTY
  7
ACAD
  9
$DIMAUNIT
 70
     0
  9
$DIMADEC
 70
     0
  9
$DIMALTRND
 40
0.0
  9
$DIMAZIN
 70
     0
  9
$DIMDSEP
 70
    46
  9
$DIMATFIT
 70
     0
  9
$DIMFRAC
 70
     0
  9
$DIMLDRBLK
  1
None
  9
$DIMLUNIT
 70
     2
  9
$DIMLWD
 70
    -2
  9
$DIMLWE
 70
    -2
  9
$DIMTMOVE
 70
     0
  9
$LUNITS
 70
     2
  9
$LUPREC
 70
     4
  9
$SKETCHINC
 40
0.1
  9
$FILLETRAD
 40
0.0
  9
$AUNITS
 70
     0
  9
$AUPREC
 70
     0
  9
$MENU
  1
.
  9
$ELEVATION
 40
0.0
  9
$PELEVATION
 40
0.0
  9
$THICKNESS
 40
0.0
  9
$LIMCHECK
 70
     0
  9
$CHAMFERA
 40
0.0
  9
$CHAMFERB
 40
0.0
  9
$CHAMFERC
 40
0.0
  9
$CHAMFERD
 40
0.0
  9
$SKPOLY
 70
     0
  9
$TDCREATE
 40
2454316.693457674
  9
$TDUCREATE
 40
2454316.318457674
  9
$TDUPDATE
 40
2454736.697872257
  9
$TDUUPDATE
 40
2454736.322872257
  9
$TDINDWG
 40
0.2504952894
  9
$TDUSRTIMER
 40
0.2504952894
  9
$USRTIMER
 70
     1
  9
$ANGBASE
 50
0.0
  9
$ANGDIR
 70
     0
  9
$PDMODE
 70
     0
  9
$PDSIZE
 40
0.0
  9
$PLINEWID
 40
0.0
  9
$SPLFRAME
 70
     0
  9
$SPLINETYPE
 70
     6
  9
$SPLINESEGS
 70
     8
  9
$HANDSEED
  5
7455
  9
$SURFTAB1
 70
     6
  9
$SURFTAB2
 70
     6
  9
$SURFTYPE
 70
     6
  9
$SURFU
 70
     6
  9
$SURFV
 70
     6
  9
$UCSBASE
  2

  9
$UCSNAME
  2

  9
$UCSORG
 10
0.0
 20
0.0
 30
0.0
  9
$UCSXDIR
 10
1.0
 20
0.0
 30
0.0
  9
$UCSYDIR
 10
0.0
 20
1.0
 30
0.0
  9
$UCSORTHOREF
  2

  9
$UCSORTHOVIEW
 70
     0
  9
$UCSORGTOP
 10
0.0
 20
0.0
 30
0.0
  9
$UCSORGBOTTOM
 10
0.0
 20
0.0
 30
0.0
  9
$UCSORGLEFT
 10
0.0
 20
0.0
 30
0.0
  9
$UCSORGRIGHT
 10
0.0
 20
0.0
 30
0.0
  9
$UCSORGFRONT
 10
0.0
 20
0.0
 30
0.0
  9
$UCSORGBACK
 10
0.0
 20
0.0
 30
0.0
  9
$PUCSBASE
  2

  9
$PUCSNAME
  2

  9
$PUCSORG
 10
0.0
 20
0.0
 30
0.0
  9
$PUCSXDIR
 10
1.0
 20
0.0
 30
0.0
  9
$PUCSYDIR
 10
0.0
 20
1.0
 30
0.0
  9
$PUCSORTHOREF
  2

  9
$PUCSORTHOVIEW
 70
     0
  9
$PUCSORGTOP
 10
0.0
 20
0.0
 30
0.0
  9
$PUCSORGBOTTOM
 10
0.0
 20
0.0
 30
0.0
  9
$PUCSORGLEFT
 10
0.0
 20
0.0
 30
0.0
  9
$PUCSORGRIGHT
 10
0.0
 20
0.0
 30
0.0
  9
$PUCSORGFRONT
 10
0.0
 20
0.0
 30
0.0
  9
$PUCSORGBACK
 10
0.0
 20
0.0
 30
0.0
  9
$USERI1
 70
     0
  9
$USERI2
 70
     0
  9
$USERI3
 70
     0
  9
$USERI4
 70
     0
  9
$USERI5
 70
     0
  9
$USERR1
 40
0.0
  9
$USERR2
 40
0.0
  9
$USERR3
 40
0.0
  9
$USERR4
 40
0.0
  9
$USERR5
 40
0.0
  9
$WORLDVIEW
 70
     1
  9
$SHADEDGE
 70
     3
  9
$SHADEDIF
 70
    70
  9
$TILEMODE
 70
     1
  9
$MAXACTVP
 70
    48
  9
$PINSBASE
 10
0.0
 20
0.0
 30
0.0
  9
$PLIMCHECK
 70
     0
  9
$PEXTMIN
 10
1.000000000000000E+20
 20
1.000000000000000E+20
 30
1.000000000000000E+20
  9
$PEXTMAX
 10
-1.000000000000000E+20
 20
-1.000000000000000E+20
 30
-1.000000000000000E+20
  9
$PLIMMIN
 10
0.0
 20
0.0
  9
$PLIMMAX
 10
12.0
 20
9.0
  9
$UNITMODE
 70
     0
  9
$VISRETAIN
 70
     0
  9
$PLINEGEN
 70
     0
  9
$PSLTSCALE
 70
     1
  9
$TREEDEPTH
 70
  3020
  9
$CMLSTYLE
  2
Standard
  9
$CMLJUST
 70
     0
  9
$CMLSCALE
 40
1.0
  9
$PROXYGRAPHICS
 70
     1
  9
$MEASUREMENT
 70
     0
  9
$CELWEIGHT
370
    -1
  9
$ENDCAPS
280
     0
  9
$JOINSTYLE
280
     0
  9
$LWDISPLAY
290
     0
  9
$INSUNITS
 70
     0
  9
$HYPERLINKBASE
  1

  9
$STYLESHEET
  1

  9
$XEDIT
290
     1
  9
$CEPSNTYPE
380
     0
  9
$PSTYLEMODE
290
     1
  9
$FINGERPRINTGUID
  2
{CC7D6DEE-A9F1-4F3E-AC95-C84B62CCA3FD}
  9
$VERSIONGUID
  2
{4227999D-C998-4D19-AA9B-7999F82CD253}
  9
$EXTNAMES
290
     1
  9
$PSVPSCALE
 40
0.0
  9
$OLESTARTUP
290
     0
  0
ENDSEC
  0
SECTION
  2
CLASSES
  0
CLASS
  1
ACDBDICTIONARYWDFLT
  2
AcDbDictionaryWithDefault
  3
ObjectDBX Classes
 90
        0
280
     0
281
     0
  0
CLASS
  1
ACDBPLACEHOLDER
  2
AcDbPlaceHolder
  3
ObjectDBX Classes
 90
        0
280
     0
281
     0
  0
CLASS
  1
LAYOUT
  2
AcDbLayout
  3
ObjectDBX Classes
 90
        0
280
     0
281
     0
  0
CLASS
  1
DICTIONARYVAR
  2
AcDbDictionaryVar
  3
ObjectDBX Classes
 90
        0
280
     0
281
     0
  0
CLASS
  1
TABLESTYLE
  2
AcDbTableStyle
  3
ObjectDBX Classes
 90
     2047
280
     0
281
     0
  0
CLASS
  1
ACAD_PROXY_OBJECT_WRAPPER
  2
AcDbProxyObjectWrapper
  3
ObjectDBX Classes
 90
    32768
280
     0
281
     0
  0
ENDSEC
  0
SECTION
  2
TABLES
  0
TABLE
  2
VPORT
  5
8
330
0
100
AcDbSymbolTable
 70
     2
  0
VPORT
  5
744F
330
8
100
AcDbSymbolTableRecord
100
AcDbViewportTableRecord
  2
*Active
 70
     0
 10
0.0
 20
0.0
 11
1.0
 21
1.0
 12
1645.025567884797
 22
540.1343893016614
 13
0.0
 23
0.0
 14
1.0
 24
1.0
 15
0.0
 25
0.0
 16
0.0
 26
0.0
 36
1.0
 17
0.0
 27
0.0
 37
0.0
 40
651.3852174037404
 41
1.538265306122448
 42
50.0
 43
0.0
 44
0.0
 50
0.0
 51
0.0
 71
     0
 72
   100
 73
     1
 74
     1
 75
     0
 76
     0
 77
     0
 78
     0
281
     0
 65
     1
110
0.0
120
0.0
130
0.0
111
1.0
121
0.0
131
0.0
112
0.0
122
1.0
132
0.0
 79
     0
146
0.0
  0
ENDTAB
  0
TABLE
  2
LTYPE
  5
5
330
0
100
AcDbSymbolTable
 70
    50
  0
LTYPE
  5
13
330
5
100
AcDbSymbolTableRecord
100
AcDbLinetypeTableRecord
  2
ByBlock
 70
     0
  3

 72
    65
 73
     0
 40
0.0
  0
LTYPE
  5
14
330
5
100
AcDbSymbolTableRecord
100
AcDbLinetypeTableRecord
  2
ByLayer
 70
     0
  3

 72
    65
 73
     0
 40
0.0
  0
LTYPE
  5
15
330
5
100
AcDbSymbolTableRecord
100
AcDbLinetypeTableRecord
  2
CONTINUOUS
 70
     0
  3
実線
 72
    65
 73
     0
 40
0.0
  0
LTYPE
  5
22
330
5
100
AcDbSymbolTableRecord
100
AcDbLinetypeTableRecord
  2
DASHED1
 70
     0
  3
--  --  --  --  --  --  --  --  
 72
    65
 73
     2
 40
2.5
 49
1.25
 74
     0
 49
-1.25
 74
     0
  0
LTYPE
  5
23
330
5
100
AcDbSymbolTableRecord
100
AcDbLinetypeTableRecord
  2
DASHED2
 70
     0
  3
----    ----    ----    ----    
 72
    65
 73
     2
 40
5.0
 49
2.5
 74
     0
 49
-2.5
 74
     0
  0
LTYPE
  5
24
330
5
100
AcDbSymbolTableRecord
100
AcDbLinetypeTableRecord
  2
DASHED3
 70
     0
  3
------  ------  ------  ------  
 72
    65
 73
     2
 40
5.0
 49
3.75
 74
     0
 49
-1.25
 74
     0
  0
LTYPE
  5
25
330
5
100
AcDbSymbolTableRecord
100
AcDbLinetypeTableRecord
  2
CENTER1
 70
     0
  3
----- - ----- - ----- - ----- - 
 72
    65
 73
     4
 40
10.0
 49
6.25
 74
     0
 49
-1.25
 74
     0
 49
1.25
 74
     0
 49
-1.25
 74
     0
  0
LTYPE
  5
26
330
5
100
AcDbSymbolTableRecord
100
AcDbLinetypeTableRecord
  2
CENTER2
 70
     0
  3
----------  --  ----------  --  
 72
    65
 73
     4
 40
20.0
 49
12.5
 74
     0
 49
-2.5
 74
     0
 49
2.5
 74
     0
 49
-2.5
 74
     0
  0
LTYPE
  5
27
330
5
100
AcDbSymbolTableRecord
100
AcDbLinetypeTableRecord
  2
PHANTOM1
 70
     0
  3
--- - - --- - - --- - - --- - - 
 72
    65
 73
     6
 40
10.0
 49
3.25
 74
     0
 49
-1.25
 74
     0
 49
1.25
 74
     0
 49
-1.25
 74
     0
 49
1.25
 74
     0
 49
-1.25
 74
     0
  0
LTYPE
  5
28
330
5
100
AcDbSymbolTableRecord
100
AcDbLinetypeTableRecord
  2
PHANTOM2
 70
     0
  3
--------  -  -  --------  -  -  
 72
    65
 73
     6
 40
20.0
 49
10.0
 74
     0
 49
-2.5
 74
     0
 49
1.25
 74
     0
 49
-2.5
 74
     0
 49
1.25
 74
     0
 49
-2.5
 74
     0
  0
LTYPE
  5
29
330
5
100
AcDbSymbolTableRecord
100
AcDbLinetypeTableRecord
  2
DOT
 70
     0
  3
-   -   -   -   -   -   -   -   
 72
    65
 73
     2
 40
2.5
 49
0.625
 74
     0
 49
-1.875
 74
     0
  0
LTYPE
  5
2A
330
5
100
AcDbSymbolTableRecord
100
AcDbLinetypeTableRecord
  2
DUMMY
 70
     0
  3
ダミー
 72
    65
 73
     0
 40
0.0
  0
LTYPE
  5
2B
330
5
100
AcDbSymbolTableRecord
100
AcDbLinetypeTableRecord
  2
RAND1
 70
     0
  3
ランダム線1
 72
    65
 73
     4
 40
10.0
 49
1.0
 74
     0
 49
-2.0
 74
     0
 49
3.0
 74
     0
 49
-4.0
 74
     0
  0
LTYPE
  5
2C
330
5
100
AcDbSymbolTableRecord
100
AcDbLinetypeTableRecord
  2
RAND2
 70
     0
  3
ランダム線2
 72
    65
 73
     4
 40
14.0
 49
2.0
 74
     0
 49
-3.0
 74
     0
 49
4.0
 74
     0
 49
-5.0
 74
     0
  0
LTYPE
  5
2D
330
5
100
AcDbSymbolTableRecord
100
AcDbLinetypeTableRecord
  2
RAND3
 70
     0
  3
ランダム線3
 72
    65
 73
     4
 40
18.0
 49
3.0
 74
     0
 49
-4.0
 74
     0
 49
5.0
 74
     0
 49
-6.0
 74
     0
  0
LTYPE
  5
2E
330
5
100
AcDbSymbolTableRecord
100
AcDbLinetypeTableRecord
  2
RAND4
 70
     0
  3
ランダム線4
 72
    65
 73
     4
 40
22.0
 49
4.0
 74
     0
 49
-5.0
 74
     0
 49
6.0
 74
     0
 49
-7.0
 74
     0
  0
LTYPE
  5
2F
330
5
100
AcDbSymbolTableRecord
100
AcDbLinetypeTableRecord
  2
RAND5
 70
     0
  3
ランダム線5
 72
    65
 73
     4
 40
26.0
 49
5.0
 74
     0
 49
-6.0
 74
     0
 49
7.0
 74
     0
 49
-8.0
 74
     0
  0
LTYPE
  5
30
330
5
100
AcDbSymbolTableRecord
100
AcDbLinetypeTableRecord
  2
LONG1
 70
     0
  3
----------  --  ----------  --  
 72
    65
 73
     4
 40
40.0
 49
32.5
 74
     0
 49
-2.5
 74
     0
 49
2.5
 74
     0
 49
-2.5
 74
     0
  0
LTYPE
  5
31
330
5
100
AcDbSymbolTableRecord
100
AcDbLinetypeTableRecord
  2
LONG2
 70
     0
  3
--------  -  -  --------  -  -  
 72
    65
 73
     6
 40
40.0
 49
30.0
 74
     0
 49
-2.5
 74
     0
 49
1.25
 74
     0
 49
-2.5
 74
     0
 49
1.25
 74
     0
 49
-2.5
 74
     0
  0
LTYPE
  5
32
330
5
100
AcDbSymbolTableRecord
100
AcDbLinetypeTableRecord
  2
LONG3
 70
     0
  3
+++++++++++++++..+++++++++++++++
 72
    65
 73
     2
 40
40.0
 49
37.5
 74
     0
 49
-2.5
 74
     0
  0
LTYPE
  5
33
330
5
100
AcDbSymbolTableRecord
100
AcDbLinetypeTableRecord
  2
LONG4
 70
     0
  3
+++++++++++++++..+++++++++++++++
 72
    65
 73
     2
 40
80.0
 49
75.0
 74
     0
 49
-5.0
 74
     0
  0
LTYPE
  5
34
330
5
100
AcDbSymbolTableRecord
100
AcDbLinetypeTableRecord
  2
LONG5
 70
     0
  3
----------  --  ----------  --  
 72
    65
 73
     4
 40
60.0
 49
37.5
 74
     0
 49
-7.5
 74
     0
 49
7.5
 74
     0
 49
-7.5
 74
     0
  0
LTYPE
  5
35
330
5
100
AcDbSymbolTableRecord
100
AcDbLinetypeTableRecord
  2
DASHED
 70
     0
  3
-------   -------------   ------
 72
    65
 73
     2
 40
7.5
 49
6.0
 74
     0
 49
-1.5
 74
     0
  0
LTYPE
  5
36
330
5
100
AcDbSymbolTableRecord
100
AcDbLinetypeTableRecord
  2
DASHED_SPACED
 70
     0
  3
----        --------        ----
 72
    65
 73
     2
 40
12.0
 49
6.0
 74
     0
 49
-6.0
 74
     0
  0
LTYPE
  5
37
330
5
100
AcDbSymbolTableRecord
100
AcDbLinetypeTableRecord
  2
LONG_DASHED_DOTTED
 70
     0
  3
------------- --- --------------
 72
    65
 73
     4
 40
15.25
 49
12.0
 74
     0
 49
-1.5
 74
     0
 49
0.25
 74
     0
 49
-1.5
 74
     0
  0
LTYPE
  5
38
330
5
100
AcDbSymbolTableRecord
100
AcDbLinetypeTableRecord
  2
LONG_DASHED_DOUBLE-DOTTED
 70
     0
  3
----------- --- --- ------------
 72
    65
 73
     6
 40
17.0
 49
12.0
 74
     0
 49
-1.5
 74
     0
 49
0.25
 74
     0
 49
-1.5
 74
     0
 49
0.25
 74
     0
 49
-1.5
 74
     0
  0
LTYPE
  5
39
330
5
100
AcDbSymbolTableRecord
100
AcDbLinetypeTableRecord
  2
LONG_DASHED_TRIPLICATE-DOTTED
 70
     0
  3
--------- --- --- --- ----------
 72
    65
 73
     8
 40
18.75
 49
12.0
 74
     0
 49
-1.5
 74
     0
 49
0.25
 74
     0
 49
-1.5
 74
     0
 49
0.25
 74
     0
 49
-1.5
 74
     0
 49
0.25
 74
     0
 49
-1.5
 74
     0
  0
LTYPE
  5
3A
330
5
100
AcDbSymbolTableRecord
100
AcDbLinetypeTableRecord
  2
DOTTED
 70
     0
  3
   -       -       -       -    
 72
    65
 73
     2
 40
1.75
 49
0.25
 74
     0
 49
-1.5
 74
     0
  0
LTYPE
  5
3B
330
5
100
AcDbSymbolTableRecord
100
AcDbLinetypeTableRecord
  2
CHAIN
 70
     0
  3
-------------- -- --------------
 72
    65
 73
     4
 40
18.5
 49
12.0
 74
     0
 49
-1.5
 74
     0
 49
3.5
 74
     0
 49
-1.5
 74
     0
  0
LTYPE
  5
3C
330
5
100
AcDbSymbolTableRecord
100
AcDbLinetypeTableRecord
  2
CHAIN_DOUBLE_DASH
 70
     0
  3
------------ -- -- -------------
 72
    65
 73
     6
 40
23.5
 49
12.0
 74
     0
 49
-1.5
 74
     0
 49
3.5
 74
     0
 49
-1.5
 74
     0
 49
3.5
 74
     0
 49
-1.5
 74
     0
  0
LTYPE
  5
3D
330
5
100
AcDbSymbolTableRecord
100
AcDbLinetypeTableRecord
  2
DASHED_DOTTED
 70
     0
  3
-----------     -     ----------
 72
    65
 73
     4
 40
9.25
 49
6.0
 74
     0
 49
-1.5
 74
     0
 49
0.25
 74
     0
 49
-1.5
 74
     0
  0
LTYPE
  5
3E
330
5
100
AcDbSymbolTableRecord
100
AcDbLinetypeTableRecord
  2
DOUBLE-DASHED_DOTTED
 70
     0
  3
------   -----------   -   -----
 72
    65
 73
     6
 40
16.75
 49
6.0
 74
     0
 49
-1.5
 74
     0
 49
6.0
 74
     0
 49
-1.5
 74
     0
 49
0.25
 74
     0
 49
-1.5
 74
     0
  0
LTYPE
  5
3F
330
5
100
AcDbSymbolTableRecord
100
AcDbLinetypeTableRecord
  2
DASHED_DOUBLE-DOTTED
 70
     0
  3
---------    -    -    ---------
 72
    65
 73
     6
 40
11.0
 49
6.0
 74
     0
 49
-1.5
 74
     0
 49
0.25
 74
     0
 49
-1.5
 74
     0
 49
0.25
 74
     0
 49
-1.5
 74
     0
  0
LTYPE
  5
40
330
5
100
AcDbSymbolTableRecord
100
AcDbLinetypeTableRecord
  2
DOUBLE-DASHED_DOUBLE-DOTTED
 70
     0
  3
-----   ---------   -   -   ----
 72
    65
 73
     8
 40
18.5
 49
6.0
 74
     0
 49
-1.5
 74
     0
 49
6.0
 74
     0
 49
-1.5
 74
     0
 49
0.25
 74
     0
 49
-1.5
 74
     0
 49
0.25
 74
     0
 49
-1.5
 74
     0
  0
LTYPE
  5
41
330
5
100
AcDbSymbolTableRecord
100
AcDbLinetypeTableRecord
  2
DASHED_TRIPLICATE-DOTTED
 70
     0
  3
-------    -    -    -    ------
 72
    65
 73
     8
 40
12.75
 49
6.0
 74
     0
 49
-1.5
 74
     0
 49
0.25
 74
     0
 49
-1.5
 74
     0
 49
0.25
 74
     0
 49
-1.5
 74
     0
 49
0.25
 74
     0
 49
-1.5
 74
     0
  0
LTYPE
  5
42
330
5
100
AcDbSymbolTableRecord
100
AcDbLinetypeTableRecord
  2
DOUBLE-DASHED_TRIPLICATE-DOTTED
 70
     0
  3
-----  ---------  -  -  -  -----
 72
    65
 73
    10
 40
20.25
 49
6.0
 74
     0
 49
-1.5
 74
     0
 49
6.0
 74
     0
 49
-1.5
 74
     0
 49
0.25
 74
     0
 49
-1.5
 74
     0
 49
0.25
 74
     0
 49
-1.5
 74
     0
 49
0.25
 74
     0
 49
-1.5
 74
     0
  0
LTYPE
  5
43
330
5
100
AcDbSymbolTableRecord
100
AcDbLinetypeTableRecord
  2
UNDEFINED
 70
     0
  3
--------------------------------
 72
    65
 73
     0
 40
0.0
  0
LTYPE
  5
44
330
5
100
AcDbSymbolTableRecord
100
AcDbLinetypeTableRecord
  2
PLINE2
 70
     0
  3
------     -----------     -----
 72
    65
 73
     2
 40
3.0
 49
2.1
 74
     0
 49
-0.9
 74
     0
  0
LTYPE
  5
45
330
5
100
AcDbSymbolTableRecord
100
AcDbLinetypeTableRecord
  2
PLINE3
 70
     0
  3
------------   ---   -----------
 72
    65
 73
     4
 40
10.0
 49
7.0
 74
     0
 49
-1.0
 74
     0
 49
1.0
 74
     0
 49
-1.0
 74
     0
  0
LTYPE
  5
46
330
5
100
AcDbSymbolTableRecord
100
AcDbLinetypeTableRecord
  2
PLINE4
 70
     0
  3
---------   ---   ---   --------
 72
    65
 73
     6
 40
10.0
 49
5.0
 74
     0
 49
-1.0
 74
     0
 49
1.0
 74
     0
 49
-1.0
 74
     0
 49
1.0
 74
     0
 49
-1.0
 74
     0
  0
LTYPE
  5
47
330
5
100
AcDbSymbolTableRecord
100
AcDbLinetypeTableRecord
  2
PLINE5
 70
     0
  3
------     -----------     -----
 72
    65
 73
     2
 40
5.0
 49
3.5
 74
     0
 49
-1.5
 74
     0
  0
LTYPE
  5
48
330
5
100
AcDbSymbolTableRecord
100
AcDbLinetypeTableRecord
  2
PLINE6
 70
     0
  3
------------   ---   -----------
 72
    65
 73
     4
 40
15.0
 49
10.5
 74
     0
 49
-1.5
 74
     0
 49
1.5
 74
     0
 49
-1.5
 74
     0
  0
LTYPE
  5
49
330
5
100
AcDbSymbolTableRecord
100
AcDbLinetypeTableRecord
  2
PLINE7
 70
     0
  3
---------   ---   ---   --------
 72
    65
 73
     6
 40
15.0
 49
7.5
 74
     0
 49
-1.5
 74
     0
 49
1.5
 74
     0
 49
-1.5
 74
     0
 49
1.5
 74
     0
 49
-1.5
 74
     0
  0
LTYPE
  5
4A
330
5
100
AcDbSymbolTableRecord
100
AcDbLinetypeTableRecord
  2
PLINE8
 70
     0
  3
------     -----------     -----
 72
    65
 73
     2
 40
7.0
 49
4.9
 74
     0
 49
-2.1
 74
     0
  0
LTYPE
  5
4B
330
5
100
AcDbSymbolTableRecord
100
AcDbLinetypeTableRecord
  2
PLINE9
 70
     0
  3
------------   ---   -----------
 72
    65
 73
     4
 40
20.0
 49
14.0
 74
     0
 49
-2.0
 74
     0
 49
2.0
 74
     0
 49
-2.0
 74
     0
  0
LTYPE
  5
4C
330
5
100
AcDbSymbolTableRecord
100
AcDbLinetypeTableRecord
  2
PLINE10
 70
     0
  3
---------   ---   ---   --------
 72
    65
 73
     6
 40
20.0
 49
10.0
 74
     0
 49
-2.0
 74
     0
 49
2.0
 74
     0
 49
-2.0
 74
     0
 49
2.0
 74
     0
 49
-2.0
 74
     0
  0
LTYPE
  5
4D
330
5
100
AcDbSymbolTableRecord
100
AcDbLinetypeTableRecord
  2
PLINE11
 70
     0
  3
------     -----------     -----
 72
    65
 73
     2
 40
9.0
 49
6.299999999999999
 74
     0
 49
-2.7
 74
     0
  0
LTYPE
  5
4E
330
5
100
AcDbSymbolTableRecord
100
AcDbLinetypeTableRecord
  2
PLINE12
 70
     0
  3
------------   ---   -----------
 72
    65
 73
     4
 40
25.0
 49
17.5
 74
     0
 49
-2.5
 74
     0
 49
2.5
 74
     0
 49
-2.5
 74
     0
  0
LTYPE
  5
4F
330
5
100
AcDbSymbolTableRecord
100
AcDbLinetypeTableRecord
  2
PLINE13
 70
     0
  3
---------   ---   ---   --------
 72
    65
 73
     6
 40
25.0
 49
12.5
 74
     0
 49
-2.5
 74
     0
 49
2.5
 74
     0
 49
-2.5
 74
     0
 49
2.5
 74
     0
 49
-2.5
 74
     0
  0
LTYPE
  5
50
330
5
100
AcDbSymbolTableRecord
100
AcDbLinetypeTableRecord
  2
PLINE14
 70
     0
  3
------     -----------     -----
 72
    65
 73
     2
 40
11.0
 49
7.7
 74
     0
 49
-3.299999999999999
 74
     0
  0
LTYPE
  5
51
330
5
100
AcDbSymbolTableRecord
100
AcDbLinetypeTableRecord
  2
PLINE15
 70
     0
  3
------------   ---   -----------
 72
    65
 73
     4
 40
30.0
 49
21.0
 74
     0
 49
-3.0
 74
     0
 49
3.0
 74
     0
 49
-3.0
 74
     0
  0
LTYPE
  5
52
330
5
100
AcDbSymbolTableRecord
100
AcDbLinetypeTableRecord
  2
PLINE16
 70
     0
  3
---------   ---   ---   --------
 72
    65
 73
     6
 40
30.0
 49
15.0
 74
     0
 49
-3.0
 74
     0
 49
3.0
 74
     0
 49
-3.0
 74
     0
 49
3.0
 74
     0
 49
-3.0
 74
     0
  0
ENDTAB
  0
TABLE
  2
LAYER
  5
2
102
{ACAD_XDICTIONARY
360
175
102
}
330
0
100
AcDbSymbolTable
 70
     5
  0
LAYER
  5
10
330
2
100
AcDbSymbolTableRecord
100
AcDbLayerTableRecord
  2
0
 70
     0
 62
     7
  6
CONTINUOUS
370
    -3
390
F
  0
LAYER
  5
128
330
2
100
AcDbSymbolTableRecord
100
AcDbLayerTableRecord
  2
Defpoints
 70
     0
 62
     7
  6
CONTINUOUS
290
     0
370
    -3
390
F
  0
LAYER
  5
178
330
2
100
AcDbSymbolTableRecord
100
AcDbLayerTableRecord
  2
寸法
 70
     0
 62
     7
  6
CONTINUOUS
370
    -3
390
F
  0
LAYER
  5
179
330
2
100
AcDbSymbolTableRecord
100
AcDbLayerTableRecord
  2
躯体と製品
 70
     0
 62
     7
  6
CONTINUOUS
370
    -3
390
F
  0
LAYER
  5
4F62
330
2
100
AcDbSymbolTableRecord
100
AcDbLayerTableRecord
  2
図枠
 70
     0
 62
     7
  6
CONTINUOUS
370
    -3
390
F
  0
ENDTAB
  0
TABLE
  2
STYLE
  5
3
330
0
100
AcDbSymbolTable
 70
     5
  0
STYLE
  5
11
330
3
100
AcDbSymbolTableRecord
100
AcDbTextStyleTableRecord
  2
STANDARD
 70
     0
 40
0.0
 41
1.0
 50
0.0
 71
     0
 42
0.2
  3
txt
  4
bigfont.shx
  0
STYLE
  5
53
330
3
100
AcDbSymbolTableRecord
100
AcDbTextStyleTableRecord
  2
TATEGAKI
 70
     4
 40
0.0
 41
1.0
 50
0.0
 71
     0
 42
1.0
  3
txt
  4
bigfont.shx
  0
STYLE
  5
123
330
3
100
AcDbSymbolTableRecord
100
AcDbTextStyleTableRecord
  2
ACAD
 70
     0
 40
5.0
 41
0.8
 50
0.0
 71
     0
 42
5.0
  3
romans.shx
  4
extfont.shx
  0
STYLE
  5
3A5F
330
3
100
AcDbSymbolTableRecord
100
AcDbTextStyleTableRecord
  2
VERTXT
 70
     4
 40
0.0
 41
0.8582679999999999
 50
0.0
 71
     0
 42
3.5
  3
txt.shx
  4
BIGFONT
  0
STYLE
  5
50AD
330
3
100
AcDbSymbolTableRecord
100
AcDbTextStyleTableRecord
  2
STANDARD2
 70
     0
 40
0.0
 41
0.8582679999999999
 50
0.0
 71
     0
 42
3.5
  3
txt.shx
  4
EXTFONT
  0
ENDTAB
  0
TABLE
  2
VIEW
  5
6
330
0
100
AcDbSymbolTable
 70
     0
  0
ENDTAB
  0
TABLE
  2
UCS
  5
7
330
0
100
AcDbSymbolTable
 70
     0
  0
ENDTAB
  0
TABLE
  2
APPID
  5
9
330
0
100
AcDbSymbolTable
 70
     1
  0
APPID
  5
12
330
9
100
AcDbSymbolTableRecord
100
AcDbRegAppTableRecord
  2
ACAD
 70
     0
  0
ENDTAB
  0
TABLE
  2
DIMSTYLE
  5
A
330
0
100
AcDbSymbolTable
 70
     3
100
AcDbDimStyleTable
 71
     0
  0
DIMSTYLE
105
11C
330
A
100
AcDbSymbolTableRecord
100
AcDbDimStyleTableRecord
  2
Standard
 70
     0
340
11
  0
DIMSTYLE
105
126
102
{ACAD_REACTORS
330
7296
330
72A2
330
72AF
330
72D2
330
72DE
330
7326
330
7332
330
733F
330
734C
330
7359
330
7366
330
7373
330
7380
330
738D
330
739A
102
}
330
A
100
AcDbSymbolTableRecord
100
AcDbDimStyleTableRecord
  2
AutoCAD
 70
     0
 41
1.0
 42
0.0
 44
0.0
 73
     0
 77
     1
140
5.0
147
1.0
174
     1
176
     4
177
     4
178
     3
271
     0
272
     0
289
     0
340
123
341
15B0
342
11E
  0
DIMSTYLE
105
2CBB
330
A
100
AcDbSymbolTableRecord
100
AcDbDimStyleTableRecord
  2
111
 70
     0
 41
1.0
 42
0.0
 44
0.0
 73
     0
 77
     1
140
5.0
147
1.0
174
     1
176
     4
177
     4
178
     3
271
     0
272
     0
289
     0
340
123
341
15B0
342
2CB5
  0
ENDTAB
  0
TABLE
  2
BLOCK_RECORD
  5
1
330
0
100
AcDbSymbolTable
 70
    19
  0
BLOCK_RECORD
  5
1E
102
{ACAD_XDICTIONARY
360
28B
102
}
330
1
100
AcDbSymbolTableRecord
100
AcDbBlockTableRecord
  2
*Model_Space
340
21
  0
BLOCK_RECORD
  5
1A
102
{ACAD_XDICTIONARY
360
28D
102
}
330
1
100
AcDbSymbolTableRecord
100
AcDbBlockTableRecord
  2
*Paper_Space
340
1D
  0
BLOCK_RECORD
  5
11E
330
1
100
AcDbSymbolTableRecord
100
AcDbBlockTableRecord
  2
_Dot
340
0
102
{BLKREFS
331
73A7
331
73A8
331
73B0
331
73B1
331
72B3
331
72B4
331
72D6
331
72D7
331
73E4
331
73E5
331
73DC
331
73DD
331
73D4
331
73D5
331
7344
331
7345
331
73C2
331
73C3
331
73CB
331
73CC
331
736B
331
736C
331
7378
331
7379
331
7385
331
7386
331
73B9
331
73BA
331
739D
331
739E
102
}
  0
BLOCK_RECORD
  5
15B0
330
1
100
AcDbSymbolTableRecord
100
AcDbBlockTableRecord
  2
_None
340
0
  0
BLOCK_RECORD
  5
2CB5
330
1
100
AcDbSymbolTableRecord
100
AcDbBlockTableRecord
  2
_Open30
340
0
  0
BLOCK_RECORD
  5
35E3
330
1
100
AcDbSymbolTableRecord
100
AcDbBlockTableRecord
  2
_DotBlank
340
0
  0
BLOCK_RECORD
  5
7297
330
1
100
AcDbSymbolTableRecord
100
AcDbBlockTableRecord
  2
*D4
340
0
  0
BLOCK_RECORD
  5
72A3
330
1
100
AcDbSymbolTableRecord
100
AcDbBlockTableRecord
  2
*D5
340
0
  0
BLOCK_RECORD
  5
72B0
330
1
100
AcDbSymbolTableRecord
100
AcDbBlockTableRecord
  2
*D6
340
0
  0
BLOCK_RECORD
  5
72D3
330
1
100
AcDbSymbolTableRecord
100
AcDbBlockTableRecord
  2
*D7
340
0
  0
BLOCK_RECORD
  5
72DF
330
1
100
AcDbSymbolTableRecord
100
AcDbBlockTableRecord
  2
*D8
340
0
  0
BLOCK_RECORD
  5
7327
330
1
100
AcDbSymbolTableRecord
100
AcDbBlockTableRecord
  2
*D9
340
0
  0
BLOCK_RECORD
  5
7333
330
1
100
AcDbSymbolTableRecord
100
AcDbBlockTableRecord
  2
*D10
340
0
  0
BLOCK_RECORD
  5
7340
330
1
100
AcDbSymbolTableRecord
100
AcDbBlockTableRecord
  2
*D11
340
0
  0
BLOCK_RECORD
  5
734D
330
1
100
AcDbSymbolTableRecord
100
AcDbBlockTableRecord
  2
*D12
340
0
  0
BLOCK_RECORD
  5
735A
330
1
100
AcDbSymbolTableRecord
100
AcDbBlockTableRecord
  2
*D13
340
0
  0
BLOCK_RECORD
  5
7367
330
1
100
AcDbSymbolTableRecord
100
AcDbBlockTableRecord
  2
*D14
340
0
  0
BLOCK_RECORD
  5
7374
330
1
100
AcDbSymbolTableRecord
100
AcDbBlockTableRecord
  2
*D15
340
0
  0
BLOCK_RECORD
  5
7381
330
1
100
AcDbSymbolTableRecord
100
AcDbBlockTableRecord
  2
*D16
340
0
  0
BLOCK_RECORD
  5
738E
330
1
100
AcDbSymbolTableRecord
100
AcDbBlockTableRecord
  2
*D17
340
0
  0
BLOCK_RECORD
  5
739B
330
1
100
AcDbSymbolTableRecord
100
AcDbBlockTableRecord
  2
*D18
340
0
  0
ENDTAB
  0
ENDSEC
  0
SECTION
  2
BLOCKS
  0
BLOCK
  5
1F
330
1E
100
AcDbEntity
  8
0
100
AcDbBlockBegin
  2
*Model_Space
 70
     0
 10
0.0
 20
0.0
 30
0.0
  3
*Model_Space
  1

  0
ENDBLK
  5
20
330
1E
100
AcDbEntity
  8
0
100
AcDbBlockEnd
  0
BLOCK
  5
1B
330
1A
100
AcDbEntity
 67
     1
  8
0
100
AcDbBlockBegin
  2
*Paper_Space
 70
     0
 10
0.0
 20
0.0
 30
0.0
  3
*Paper_Space
  1

  0
ENDBLK
  5
1C
330
1A
100
AcDbEntity
 67
     1
  8
0
100
AcDbBlockEnd
  0
BLOCK
  5
121
330
11E
100
AcDbEntity
  8
0
100
AcDbBlockBegin
  2
_Dot
 70
     0
 10
0.0
 20
0.0
 30
0.0
  3
_Dot
  1

  0
LWPOLYLINE
  5
11F
330
11E
100
AcDbEntity
  8
0
  6
ByBlock
 62
     0
100
AcDbPolyline
 90
        2
 70
     1
 43
0.5
 10
-0.25
 20
0.0
 42
1.0
 10
0.25
 20
0.0
 42
1.0
  0
LINE
  5
120
330
11E
100
AcDbEntity
  8
0
  6
ByBlock
 62
     0
370
    -2
100
AcDbLine
 10
-0.5
 20
0.0
 30
0.0
 11
-1.0
 21
0.0
 31
0.0
  0
ENDBLK
  5
122
330
11E
100
AcDbEntity
  8
0
100
AcDbBlockEnd
  0
BLOCK
  5
15B1
330
15B0
100
AcDbEntity
  8
0
100
AcDbBlockBegin
  2
_None
 70
     0
 10
0.0
 20
0.0
 30
0.0
  3
_None
  1

  0
ENDBLK
  5
15B2
330
15B0
100
AcDbEntity
  8
0
100
AcDbBlockEnd
  0
BLOCK
  5
2CB9
330
2CB5
100
AcDbEntity
  8
0
100
AcDbBlockBegin
  2
_Open30
 70
     0
 10
0.0
 20
0.0
 30
0.0
  3
_Open30
  1

  0
LINE
  5
2CB6
330
2CB5
100
AcDbEntity
  8
0
  6
ByBlock
 62
     0
370
    -2
100
AcDbLine
 10
-1.0
 20
0.26794919
 30
0.0
 11
0.0
 21
0.0
 31
0.0
  0
LINE
  5
2CB7
330
2CB5
100
AcDbEntity
  8
0
  6
ByBlock
 62
     0
370
    -2
100
AcDbLine
 10
0.0
 20
0.0
 30
0.0
 11
-1.0
 21
-0.26794919
 31
0.0
  0
LINE
  5
2CB8
330
2CB5
100
AcDbEntity
  8
0
  6
ByBlock
 62
     0
370
    -2
100
AcDbLine
 10
0.0
 20
0.0
 30
0.0
 11
-1.0
 21
0.0
 31
0.0
  0
ENDBLK
  5
2CBA
330
2CB5
100
AcDbEntity
  8
0
100
AcDbBlockEnd
  0
BLOCK
  5
35E6
330
35E3
100
AcDbEntity
  8
0
100
AcDbBlockBegin
  2
_DotBlank
 70
     0
 10
0.0
 20
0.0
 30
0.0
  3
_DotBlank
  1

  0
CIRCLE
  5
35E4
330
35E3
100
AcDbEntity
  8
0
  6
ByBlock
 62
     0
370
    -2
100
AcDbCircle
 10
0.0
 20
0.0
 30
0.0
 40
0.5
  0
LINE
  5
35E5
330
35E3
100
AcDbEntity
  8
0
  6
ByBlock
 62
     0
370
    -2
100
AcDbLine
 10
-0.5
 20
0.0
 30
0.0
 11
-1.0
 21
0.0
 31
0.0
  0
ENDBLK
  5
35E7
330
35E3
100
AcDbEntity
  8
0
100
AcDbBlockEnd
  0
BLOCK
  5
72A0
330
7297
100
AcDbEntity
  8
0
100
AcDbBlockBegin
  2
*D4
 70
     1
 10
0.0
 20
0.0
 30
0.0
  3
*D4
  1

  0
LINE
  5
73A5
330
7297
100
AcDbEntity
  8
寸法
  6
Continuous
 62
     4
370
    -2
100
AcDbLine
 10
1424.689172189083
 20
644.078298152536
 30
0.0
 11
1371.689172189083
 21
644.078298152536
 31
0.0
  0
LINE
  5
73A6
330
7297
100
AcDbEntity
  8
寸法
  6
Continuous
 62
     4
370
    -2
100
AcDbLine
 10
1371.689172189083
 20
645.078298152536
 30
0.0
 11
1371.689172189083
 21
707.211114918302
 31
0.0
  0
INSERT
  5
73A7
330
7297
100
AcDbEntity
  8
寸法
  6
Continuous
 62
     4
370
    -2
100
AcDbBlockReference
  2
_Dot
 10
1371.689172189083
 20
644.078298152536
 30
0.0
 50
270.0
  0
INSERT
  5
73A8
330
7297
100
AcDbEntity
  8
寸法
  6
Continuous
 62
     4
370
    -2
100
AcDbBlockReference
  2
_Dot
 10
1371.689172189083
 20
708.2111149183019
 30
0.0
 50
90.0
  0
MTEXT
  5
73A9
330
7297
100
AcDbEntity
  8
寸法
  6
Continuous
 62
     3
100
AcDbMText
 10
1368.189172189083
 20
676.1447065354192
 30
0.0
 40
5.0
 41
0.0
 71
     5
 72
     5
  1
\A1;D
  7
ACAD
 11
0.0000000000000001
 21
1.0
 31
0.0
 73
     1
 44
1.0
1001
ACAD
1000
MTEXTBEGIN
1070
    73
1070
     1
1070
    44
1040
1.0
1070
    74
1070
     0
1000
MTEXTEND
  0
POINT
  5
73AA
330
7297
100
AcDbEntity
  8
Defpoints
  6
Continuous
 62
     0
100
AcDbPoint
 10
1424.689172189083
 20
644.078298152536
 30
0.0
  0
POINT
  5
73AB
330
7297
100
AcDbEntity
  8
Defpoints
  6
Continuous
 62
     0
100
AcDbPoint
 10
1371.689172189083
 20
708.2111149183019
 30
0.0
  0
POINT
  5
73AC
330
7297
100
AcDbEntity
  8
Defpoints
  6
Continuous
 62
     0
100
AcDbPoint
 10
1371.689172189083
 20
708.2111149183019
 30
0.0
  0
ENDBLK
  5
72A1
330
7297
100
AcDbEntity
  8
0
100
AcDbBlockEnd
  0
BLOCK
  5
72AD
330
72A3
100
AcDbEntity
  8
0
100
AcDbBlockBegin
  2
*D5
 70
     1
 10
0.0
 20
0.0
 30
0.0
  3
*D5
  1

  0
LINE
  5
73AD
330
72A3
100
AcDbEntity
  8
寸法
  6
Continuous
 62
     4
370
    -2
100
AcDbLine
 10
1424.689172189083
 20
644.078298152536
 30
0.0
 11
1351.689172189083
 21
644.078298152536
 31
0.0
  0
LINE
  5
73AE
330
72A3
100
AcDbEntity
  8
寸法
  6
Continuous
 62
     4
370
    -2
100
AcDbLine
 10
1424.689172189083
 20
767.2111149183019
 30
0.0
 11
1351.689172189083
 21
767.2111149183019
 31
0.0
  0
LINE
  5
73AF
330
72A3
100
AcDbEntity
  8
寸法
  6
Continuous
 62
     4
370
    -2
100
AcDbLine
 10
1351.689172189083
 20
645.078298152536
 30
0.0
 11
1351.689172189083
 21
766.211114918302
 31
0.0
  0
INSERT
  5
73B0
330
72A3
100
AcDbEntity
  8
寸法
  6
Continuous
 62
     4
370
    -2
100
AcDbBlockReference
  2
_Dot
 10
1351.689172189083
 20
644.078298152536
 30
0.0
 50
270.0
  0
INSERT
  5
73B1
330
72A3
100
AcDbEntity
  8
寸法
  6
Continuous
 62
     4
370
    -2
100
AcDbBlockReference
  2
_Dot
 10
1351.689172189083
 20
767.2111149183019
 30
0.0
 50
90.0
  0
MTEXT
  5
73B2
330
72A3
100
AcDbEntity
  8
寸法
  6
Continuous
 62
     3
100
AcDbMText
 10
1348.189172189083
 20
705.6447065354192
 30
0.0
 40
5.0
 41
0.0
 71
     5
 72
     5
  1
\A1;E
  7
ACAD
 11
0.0000000000000001
 21
1.0
 31
0.0
 73
     1
 44
1.0
1001
ACAD
1000
MTEXTBEGIN
1070
    73
1070
     1
1070
    44
1040
1.0
1070
    74
1070
     0
1000
MTEXTEND
  0
POINT
  5
73B3
330
72A3
100
AcDbEntity
  8
Defpoints
  6
Continuous
 62
     0
100
AcDbPoint
 10
1424.689172189083
 20
644.078298152536
 30
0.0
  0
POINT
  5
73B4
330
72A3
100
AcDbEntity
  8
Defpoints
  6
Continuous
 62
     0
100
AcDbPoint
 10
1424.689172189083
 20
767.2111149183019
 30
0.0
  0
POINT
  5
73B5
330
72A3
100
AcDbEntity
  8
Defpoints
  6
Continuous
 62
     0
100
AcDbPoint
 10
1351.689172189083
 20
767.2111149183019
 30
0.0
  0
ENDBLK
  5
72AE
330
72A3
100
AcDbEntity
  8
0
100
AcDbBlockEnd
  0
BLOCK
  5
72B9
330
72B0
100
AcDbEntity
  8
0
100
AcDbBlockBegin
  2
*D6
 70
     1
 10
0.0
 20
0.0
 30
0.0
  3
*D6
  1

  0
LINE
  5
72B1
330
72B0
100
AcDbEntity
  8
寸法
  6
Continuous
 62
     4
370
    -2
100
AcDbLine
 10
1426.689172189083
 20
642.078298152536
 30
0.0
 11
1426.689172189083
 21
519.0782981525361
 31
0.0
  0
LINE
  5
72B2
330
72B0
100
AcDbEntity
  8
寸法
  6
Continuous
 62
     4
370
    -2
100
AcDbLine
 10
1427.689172189083
 20
519.0782981525361
 30
0.0
 11
1450.689172189083
 21
519.0782981525361
 31
0.0
  0
INSERT
  5
72B3
330
72B0
100
AcDbEntity
  8
寸法
  6
Continuous
 62
     4
370
    -2
100
AcDbBlockReference
  2
_Dot
 10
1426.689172189083
 20
519.0782981525361
 30
0.0
 50
180.0
  0
INSERT
  5
72B4
330
72B0
100
AcDbEntity
  8
寸法
  6
Continuous
 62
     4
370
    -2
100
AcDbBlockReference
  2
_Dot
 10
1451.689172189083
 20
519.0782981525361
 30
0.0
  0
MTEXT
  5
72B5
330
72B0
100
AcDbEntity
  8
寸法
  6
Continuous
 62
     3
100
AcDbMText
 10
1439.189172189083
 20
522.5782981525362
 30
0.0
 40
5.0
 41
0.0
 71
     5
 72
     5
  1
\A1;25
  7
ACAD
 73
     1
 44
1.0
1001
ACAD
1000
MTEXTBEGIN
1070
    73
1070
     1
1070
    44
1040
1.0
1070
    74
1070
     0
1000
MTEXTEND
  0
POINT
  5
72B6
330
72B0
100
AcDbEntity
  8
Defpoints
  6
Continuous
 62
     0
100
AcDbPoint
 10
1426.689172189083
 20
642.078298152536
 30
0.0
  0
POINT
  5
72B7
330
72B0
100
AcDbEntity
  8
Defpoints
  6
Continuous
 62
     0
100
AcDbPoint
 10
1451.689172189083
 20
519.0782981525361
 30
0.0
  0
POINT
  5
72B8
330
72B0
100
AcDbEntity
  8
Defpoints
  6
Continuous
 62
     0
100
AcDbPoint
 10
1451.689172189083
 20
519.0782981525361
 30
0.0
  0
ENDBLK
  5
72BA
330
72B0
100
AcDbEntity
  8
0
100
AcDbBlockEnd
  0
BLOCK
  5
72DC
330
72D3
100
AcDbEntity
  8
0
100
AcDbBlockBegin
  2
*D7
 70
     1
 10
0.0
 20
0.0
 30
0.0
  3
*D7
  1

  0
LINE
  5
72D4
330
72D3
100
AcDbEntity
  8
寸法
  6
Continuous
 62
     4
370
    -2
100
AcDbLine
 10
1451.689172189083
 20
518.8282981525361
 30
0.0
 11
1451.689172189083
 21
519.0782981525361
 31
0.0
  0
LINE
  5
72D5
330
72D3
100
AcDbEntity
  8
寸法
  6
Continuous
 62
     4
370
    -2
100
AcDbLine
 10
1452.689172189083
 20
519.0782981525361
 30
0.0
 11
1600.689172189083
 21
519.0782981525361
 31
0.0
  0
INSERT
  5
72D6
330
72D3
100
AcDbEntity
  8
寸法
  6
Continuous
 62
     4
370
    -2
100
AcDbBlockReference
  2
_Dot
 10
1451.689172189083
 20
519.0782981525361
 30
0.0
 50
180.0
  0
INSERT
  5
72D7
330
72D3
100
AcDbEntity
  8
寸法
  6
Continuous
 62
     4
370
    -2
100
AcDbBlockReference
  2
_Dot
 10
1601.689172189083
 20
519.0782981525361
 30
0.0
  0
MTEXT
  5
72D8
330
72D3
100
AcDbEntity
  8
寸法
  6
Continuous
 62
     3
100
AcDbMText
 10
1526.689172189083
 20
522.5782981525362
 30
0.0
 40
5.0
 41
0.0
 71
     5
 72
     5
  1
\A1;150
  7
ACAD
 73
     1
 44
1.0
1001
ACAD
1000
MTEXTBEGIN
1070
    73
1070
     1
1070
    44
1040
1.0
1070
    74
1070
     0
1000
MTEXTEND
  0
POINT
  5
72D9
330
72D3
100
AcDbEntity
  8
Defpoints
  6
Continuous
 62
     0
100
AcDbPoint
 10
1451.689172189083
 20
518.8282981525361
 30
0.0
  0
POINT
  5
72DA
330
72D3
100
AcDbEntity
  8
Defpoints
  6
Continuous
 62
     0
100
AcDbPoint
 10
1601.689172189083
 20
519.0782981525361
 30
0.0
  0
POINT
  5
72DB
330
72D3
100
AcDbEntity
  8
Defpoints
  6
Continuous
 62
     0
100
AcDbPoint
 10
1601.689172189083
 20
519.0782981525361
 30
0.0
  0
ENDBLK
  5
72DD
330
72D3
100
AcDbEntity
  8
0
100
AcDbBlockEnd
  0
BLOCK
  5
72E8
330
72DF
100
AcDbEntity
  8
0
100
AcDbBlockBegin
  2
*D8
 70
     1
 10
0.0
 20
0.0
 30
0.0
  3
*D8
  1

  0
LINE
  5
73E2
330
72DF
100
AcDbEntity
  8
寸法
  6
Continuous
 62
     4
370
    -2
100
AcDbLine
 10
1601.935374127336
 20
519.1217101969528
 30
0.0
 11
1601.935374127336
 21
519.0782981525361
 31
0.0
  0
LINE
  5
73E3
330
72DF
100
AcDbEntity
  8
寸法
  6
Continuous
 62
     4
370
    -2
100
AcDbLine
 10
1602.935374127336
 20
519.0782981525361
 30
0.0
 11
1750.689172189083
 21
519.0782981525361
 31
0.0
  0
INSERT
  5
73E4
330
72DF
100
AcDbEntity
  8
寸法
  6
Continuous
 62
     4
370
    -2
100
AcDbBlockReference
  2
_Dot
 10
1601.935374127336
 20
519.0782981525361
 30
0.0
 50
180.0
  0
INSERT
  5
73E5
330
72DF
100
AcDbEntity
  8
寸法
  6
Continuous
 62
     4
370
    -2
100
AcDbBlockReference
  2
_Dot
 10
1751.689172189083
 20
519.0782981525361
 30
0.0
  0
MTEXT
  5
73E6
330
72DF
100
AcDbEntity
  8
寸法
  6
Continuous
 62
     3
100
AcDbMText
 10
1676.81227315821
 20
522.5782981525362
 30
0.0
 40
5.0
 41
0.0
 71
     5
 72
     5
  1
\A1;≦Ｃ
  7
ACAD
 73
     1
 44
1.0
1001
ACAD
1000
MTEXTBEGIN
1070
    73
1070
     1
1070
    44
1040
1.0
1070
    74
1070
     0
1000
MTEXTEND
  0
POINT
  5
73E7
330
72DF
100
AcDbEntity
  8
Defpoints
  6
Continuous
 62
     0
100
AcDbPoint
 10
1601.935374127336
 20
519.1217101969528
 30
0.0
  0
POINT
  5
73E8
330
72DF
100
AcDbEntity
  8
Defpoints
  6
Continuous
 62
     0
100
AcDbPoint
 10
1751.689172189083
 20
519.0782981525361
 30
0.0
  0
POINT
  5
73E9
330
72DF
100
AcDbEntity
  8
Defpoints
  6
Continuous
 62
     0
100
AcDbPoint
 10
1751.689172189083
 20
519.0782981525361
 30
0.0
  0
ENDBLK
  5
72E9
330
72DF
100
AcDbEntity
  8
0
100
AcDbBlockEnd
  0
BLOCK
  5
7330
330
7327
100
AcDbEntity
  8
0
100
AcDbBlockBegin
  2
*D9
 70
     1
 10
0.0
 20
0.0
 30
0.0
  3
*D9
  1

  0
LINE
  5
73DA
330
7327
100
AcDbEntity
  8
寸法
  6
Continuous
 62
     4
370
    -2
100
AcDbLine
 10
1827.689172189083
 20
599.1608268458706
 30
0.0
 11
1827.689172189083
 21
519.0782981525361
 31
0.0
  0
LINE
  5
73DB
330
7327
100
AcDbEntity
  8
寸法
  6
Continuous
 62
     4
370
    -2
100
AcDbLine
 10
1752.689172189083
 20
519.0782981525361
 30
0.0
 11
1826.689172189083
 21
519.0782981525361
 31
0.0
  0
INSERT
  5
73DC
330
7327
100
AcDbEntity
  8
寸法
  6
Continuous
 62
     4
370
    -2
100
AcDbBlockReference
  2
_Dot
 10
1751.689172189083
 20
519.0782981525361
 30
0.0
 50
180.0
  0
INSERT
  5
73DD
330
7327
100
AcDbEntity
  8
寸法
  6
Continuous
 62
     4
370
    -2
100
AcDbBlockReference
  2
_Dot
 10
1827.689172189083
 20
519.0782981525361
 30
0.0
  0
MTEXT
  5
73DE
330
7327
100
AcDbEntity
  8
寸法
  6
Continuous
 62
     3
100
AcDbMText
 10
1789.689172189083
 20
522.5782981525362
 30
0.0
 40
5.0
 41
0.0
 71
     5
 72
     5
  1
\A1;75≦
  7
ACAD
 73
     1
 44
1.0
1001
ACAD
1000
MTEXTBEGIN
1070
    73
1070
     1
1070
    44
1040
1.0
1070
    74
1070
     0
1000
MTEXTEND
  0
POINT
  5
73DF
330
7327
100
AcDbEntity
  8
Defpoints
  6
Continuous
 62
     0
100
AcDbPoint
 10
1751.689172189083
 20
519.0782981525361
 30
0.0
  0
POINT
  5
73E0
330
7327
100
AcDbEntity
  8
Defpoints
  6
Continuous
 62
     0
100
AcDbPoint
 10
1827.689172189083
 20
599.1608268458706
 30
0.0
  0
POINT
  5
73E1
330
7327
100
AcDbEntity
  8
Defpoints
  6
Continuous
 62
     0
100
AcDbPoint
 10
1827.689172189083
 20
519.0782981525361
 30
0.0
  0
ENDBLK
  5
7331
330
7327
100
AcDbEntity
  8
0
100
AcDbBlockEnd
  0
BLOCK
  5
733D
330
7333
100
AcDbEntity
  8
0
100
AcDbBlockBegin
  2
*D10
 70
     1
 10
0.0
 20
0.0
 30
0.0
  3
*D10
  1

  0
LINE
  5
73D1
330
7333
100
AcDbEntity
  8
寸法
  6
Continuous
 62
     4
370
    -2
100
AcDbLine
 10
1829.689172189083
 20
601.1608268458705
 30
0.0
 11
1867.689172189083
 21
601.1608268458705
 31
0.0
  0
LINE
  5
73D2
330
7333
100
AcDbEntity
  8
寸法
  6
Continuous
 62
     4
370
    -2
100
AcDbLine
 10
1755.654249441801
 20
644.078298152536
 30
0.0
 11
1867.689172189083
 21
644.0782981525359
 31
0.0
  0
LINE
  5
73D3
330
7333
100
AcDbEntity
  8
寸法
  6
Continuous
 62
     4
370
    -2
100
AcDbLine
 10
1867.689172189083
 20
602.1608268458706
 30
0.0
 11
1867.689172189083
 21
643.0782981525359
 31
0.0
  0
INSERT
  5
73D4
330
7333
100
AcDbEntity
  8
寸法
  6
Continuous
 62
     4
370
    -2
100
AcDbBlockReference
  2
_Dot
 10
1867.689172189083
 20
601.1608268458705
 30
0.0
 50
270.0
  0
INSERT
  5
73D5
330
7333
100
AcDbEntity
  8
寸法
  6
Continuous
 62
     4
370
    -2
100
AcDbBlockReference
  2
_Dot
 10
1867.689172189083
 20
644.0782981525359
 30
0.0
 50
90.0
  0
MTEXT
  5
73D6
330
7333
100
AcDbEntity
  8
寸法
  6
Continuous
 62
     3
100
AcDbMText
 10
1864.189172189083
 20
622.6195624992036
 30
0.0
 40
5.0
 41
0.0
 71
     5
 72
     5
  1
\A1;44
  7
ACAD
 11
0.0000000000000001
 21
1.0
 31
0.0
 73
     1
 44
1.0
1001
ACAD
1000
MTEXTBEGIN
1070
    73
1070
     1
1070
    44
1040
1.0
1070
    74
1070
     0
1000
MTEXTEND
  0
POINT
  5
73D7
330
7333
100
AcDbEntity
  8
Defpoints
  6
Continuous
 62
     0
100
AcDbPoint
 10
1829.689172189083
 20
601.1608268458705
 30
0.0
  0
POINT
  5
73D8
330
7333
100
AcDbEntity
  8
Defpoints
  6
Continuous
 62
     0
100
AcDbPoint
 10
1755.654249441801
 20
644.078298152536
 30
0.0
  0
POINT
  5
73D9
330
7333
100
AcDbEntity
  8
Defpoints
  6
Continuous
 62
     0
100
AcDbPoint
 10
1867.689172189083
 20
644.0782981525359
 30
0.0
  0
ENDBLK
  5
733E
330
7333
100
AcDbEntity
  8
0
100
AcDbBlockEnd
  0
BLOCK
  5
734A
330
7340
100
AcDbEntity
  8
0
100
AcDbBlockBegin
  2
*D11
 70
     1
 10
0.0
 20
0.0
 30
0.0
  3
*D11
  1

  0
LINE
  5
7341
330
7340
100
AcDbEntity
  8
寸法
  6
Continuous
 62
     4
370
    -2
100
AcDbLine
 10
1829.689172189083
 20
601.1608268458705
 30
0.0
 11
1887.689172189083
 21
601.1608268458705
 31
0.0
  0
LINE
  5
7342
330
7340
100
AcDbEntity
  8
寸法
  6
Continuous
 62
     4
370
    -2
100
AcDbLine
 10
1829.689172189083
 20
691.1608268458707
 30
0.0
 11
1887.689172189083
 21
691.1608268458707
 31
0.0
  0
LINE
  5
7343
330
7340
100
AcDbEntity
  8
寸法
  6
Continuous
 62
     4
370
    -2
100
AcDbLine
 10
1887.689172189083
 20
602.1608268458706
 30
0.0
 11
1887.689172189083
 21
690.1608268458707
 31
0.0
  0
INSERT
  5
7344
330
7340
100
AcDbEntity
  8
寸法
  6
Continuous
 62
     4
370
    -2
100
AcDbBlockReference
  2
_Dot
 10
1887.689172189083
 20
601.1608268458705
 30
0.0
 50
270.0
  0
INSERT
  5
7345
330
7340
100
AcDbEntity
  8
寸法
  6
Continuous
 62
     4
370
    -2
100
AcDbBlockReference
  2
_Dot
 10
1887.689172189083
 20
691.1608268458707
 30
0.0
 50
90.0
  0
MTEXT
  5
7346
330
7340
100
AcDbEntity
  8
寸法
  6
Continuous
 62
     3
100
AcDbMText
 10
1884.189172189083
 20
646.1608268458709
 30
0.0
 40
5.0
 41
0.0
 71
     5
 72
     5
  1
\A1;90
  7
ACAD
 11
0.0000000000000001
 21
1.0
 31
0.0
 73
     1
 44
1.0
1001
ACAD
1000
MTEXTBEGIN
1070
    73
1070
     1
1070
    44
1040
1.0
1070
    74
1070
     0
1000
MTEXTEND
  0
POINT
  5
7347
330
7340
100
AcDbEntity
  8
Defpoints
  6
Continuous
 62
     0
100
AcDbPoint
 10
1829.689172189083
 20
601.1608268458705
 30
0.0
  0
POINT
  5
7348
330
7340
100
AcDbEntity
  8
Defpoints
  6
Continuous
 62
     0
100
AcDbPoint
 10
1829.689172189083
 20
691.1608268458707
 30
0.0
  0
POINT
  5
7349
330
7340
100
AcDbEntity
  8
Defpoints
  6
Continuous
 62
     0
100
AcDbPoint
 10
1887.689172189083
 20
691.1608268458707
 30
0.0
  0
ENDBLK
  5
734B
330
7340
100
AcDbEntity
  8
0
100
AcDbBlockEnd
  0
BLOCK
  5
7357
330
734D
100
AcDbEntity
  8
0
100
AcDbBlockBegin
  2
*D12
 70
     1
 10
0.0
 20
0.0
 30
0.0
  3
*D12
  1

  0
LINE
  5
73BF
330
734D
100
AcDbEntity
  8
寸法
  6
Continuous
 62
     4
370
    -2
100
AcDbLine
 10
1827.689172189083
 20
693.1608268458703
 30
0.0
 11
1827.689172189083
 21
745.211114918302
 31
0.0
  0
LINE
  5
73C0
330
734D
100
AcDbEntity
  8
寸法
  6
Continuous
 62
     4
370
    -2
100
AcDbLine
 10
1442.689172189083
 20
725.3378218698415
 30
0.0
 11
1442.689172189083
 21
745.211114918302
 31
0.0
  0
LINE
  5
73C1
330
734D
100
AcDbEntity
  8
寸法
  6
Continuous
 62
     4
370
    -2
100
AcDbLine
 10
1826.689172189083
 20
745.211114918302
 30
0.0
 11
1443.689172189083
 21
745.211114918302
 31
0.0
  0
INSERT
  5
73C2
330
734D
100
AcDbEntity
  8
寸法
  6
Continuous
 62
     4
370
    -2
100
AcDbBlockReference
  2
_Dot
 10
1827.689172189083
 20
745.211114918302
 30
0.0
  0
INSERT
  5
73C3
330
734D
100
AcDbEntity
  8
寸法
  6
Continuous
 62
     4
370
    -2
100
AcDbBlockReference
  2
_Dot
 10
1442.689172189083
 20
745.211114918302
 30
0.0
 50
180.0
  0
MTEXT
  5
73C4
330
734D
100
AcDbEntity
  8
寸法
  6
Continuous
 62
     3
100
AcDbMText
 10
1635.189172189083
 20
748.711114918302
 30
0.0
 40
5.0
 41
0.0
 71
     5
 72
     5
  1
\A1;A
  7
ACAD
 73
     1
 44
1.0
1001
ACAD
1000
MTEXTBEGIN
1070
    73
1070
     1
1070
    44
1040
1.0
1070
    74
1070
     0
1000
MTEXTEND
  0
POINT
  5
73C5
330
734D
100
AcDbEntity
  8
Defpoints
  6
Continuous
 62
     0
100
AcDbPoint
 10
1827.689172189083
 20
693.1608268458703
 30
0.0
  0
POINT
  5
73C6
330
734D
100
AcDbEntity
  8
Defpoints
  6
Continuous
 62
     0
100
AcDbPoint
 10
1442.689172189083
 20
725.3378218698415
 30
0.0
  0
POINT
  5
73C7
330
734D
100
AcDbEntity
  8
Defpoints
  6
Continuous
 62
     0
100
AcDbPoint
 10
1442.689172189083
 20
745.211114918302
 30
0.0
  0
ENDBLK
  5
7358
330
734D
100
AcDbEntity
  8
0
100
AcDbBlockEnd
  0
BLOCK
  5
7364
330
735A
100
AcDbEntity
  8
0
100
AcDbBlockBegin
  2
*D13
 70
     1
 10
0.0
 20
0.0
 30
0.0
  3
*D13
  1

  0
LINE
  5
73C8
330
735A
100
AcDbEntity
  8
寸法
  6
Continuous
 62
     4
370
    -2
100
AcDbLine
 10
1827.689172189083
 20
693.1608268458703
 30
0.0
 11
1827.689172189083
 21
822.2111149183016
 31
0.0
  0
LINE
  5
73C9
330
735A
100
AcDbEntity
  8
寸法
  6
Continuous
 62
     4
370
    -2
100
AcDbLine
 10
1427.689172189083
 20
754.2111149183019
 30
0.0
 11
1427.689172189083
 21
822.2111149183016
 31
0.0
  0
LINE
  5
73CA
330
735A
100
AcDbEntity
  8
寸法
  6
Continuous
 62
     4
370
    -2
100
AcDbLine
 10
1826.689172189083
 20
822.2111149183016
 30
0.0
 11
1428.689172189083
 21
822.2111149183016
 31
0.0
  0
INSERT
  5
73CB
330
735A
100
AcDbEntity
  8
寸法
  6
Continuous
 62
     4
370
    -2
100
AcDbBlockReference
  2
_Dot
 10
1827.689172189083
 20
822.2111149183016
 30
0.0
  0
INSERT
  5
73CC
330
735A
100
AcDbEntity
  8
寸法
  6
Continuous
 62
     4
370
    -2
100
AcDbBlockReference
  2
_Dot
 10
1427.689172189083
 20
822.2111149183016
 30
0.0
 50
180.0
  0
MTEXT
  5
73CD
330
735A
100
AcDbEntity
  8
寸法
  6
Continuous
 62
     3
100
AcDbMText
 10
1627.689172189083
 20
825.7111149183016
 30
0.0
 40
5.0
 41
0.0
 71
     5
 72
     5
  1
\A1;W
  7
ACAD
 73
     1
 44
1.0
1001
ACAD
1000
MTEXTBEGIN
1070
    73
1070
     1
1070
    44
1040
1.0
1070
    74
1070
     0
1000
MTEXTEND
  0
POINT
  5
73CE
330
735A
100
AcDbEntity
  8
Defpoints
  6
Continuous
 62
     0
100
AcDbPoint
 10
1827.689172189083
 20
693.1608268458703
 30
0.0
  0
POINT
  5
73CF
330
735A
100
AcDbEntity
  8
Defpoints
  6
Continuous
 62
     0
100
AcDbPoint
 10
1427.689172189083
 20
754.2111149183019
 30
0.0
  0
POINT
  5
73D0
330
735A
100
AcDbEntity
  8
Defpoints
  6
Continuous
 62
     0
100
AcDbPoint
 10
1427.689172189083
 20
822.2111149183016
 30
0.0
  0
ENDBLK
  5
7365
330
735A
100
AcDbEntity
  8
0
100
AcDbBlockEnd
  0
BLOCK
  5
7371
330
7367
100
AcDbEntity
  8
0
100
AcDbBlockBegin
  2
*D14
 70
     1
 10
0.0
 20
0.0
 30
0.0
  3
*D14
  1

  0
LINE
  5
7368
330
7367
100
AcDbEntity
  8
寸法
  6
Continuous
 62
     4
370
    -2
100
AcDbLine
 10
1463.189172189083
 20
716.211114918302
 30
0.0
 11
1496.189172189083
 21
716.211114918302
 31
0.0
  0
LINE
  5
7369
330
7367
100
AcDbEntity
  8
寸法
  6
Continuous
 62
     4
370
    -2
100
AcDbLine
 10
1463.189172189083
 20
752.2111149183019
 30
0.0
 11
1496.189172189083
 21
752.2111149183019
 31
0.0
  0
LINE
  5
736A
330
7367
100
AcDbEntity
  8
寸法
  6
Continuous
 62
     4
370
    -2
100
AcDbLine
 10
1496.189172189083
 20
717.2111149183019
 30
0.0
 11
1496.189172189083
 21
751.2111149183019
 31
0.0
  0
INSERT
  5
736B
330
7367
100
AcDbEntity
  8
寸法
  6
Continuous
 62
     4
370
    -2
100
AcDbBlockReference
  2
_Dot
 10
1496.189172189083
 20
716.211114918302
 30
0.0
 50
270.0
  0
INSERT
  5
736C
330
7367
100
AcDbEntity
  8
寸法
  6
Continuous
 62
     4
370
    -2
100
AcDbBlockReference
  2
_Dot
 10
1496.189172189083
 20
752.2111149183019
 30
0.0
 50
90.0
  0
MTEXT
  5
736D
330
7367
100
AcDbEntity
  8
寸法
  6
Continuous
 62
     3
100
AcDbMText
 10
1492.689172189083
 20
734.2111149183022
 30
0.0
 40
5.0
 41
0.0
 71
     5
 72
     5
  1
\A1;36
  7
ACAD
 11
0.0000000000000001
 21
1.0
 31
0.0
 73
     1
 44
1.0
1001
ACAD
1000
MTEXTBEGIN
1070
    73
1070
     1
1070
    44
1040
1.0
1070
    74
1070
     0
1000
MTEXTEND
  0
POINT
  5
736E
330
7367
100
AcDbEntity
  8
Defpoints
  6
Continuous
 62
     0
100
AcDbPoint
 10
1463.189172189083
 20
716.211114918302
 30
0.0
  0
POINT
  5
736F
330
7367
100
AcDbEntity
  8
Defpoints
  6
Continuous
 62
     0
100
AcDbPoint
 10
1463.189172189083
 20
752.2111149183019
 30
0.0
  0
POINT
  5
7370
330
7367
100
AcDbEntity
  8
Defpoints
  6
Continuous
 62
     0
100
AcDbPoint
 10
1496.189172189083
 20
752.2111149183019
 30
0.0
  0
ENDBLK
  5
7372
330
7367
100
AcDbEntity
  8
0
100
AcDbBlockEnd
  0
BLOCK
  5
737E
330
7374
100
AcDbEntity
  8
0
100
AcDbBlockBegin
  2
*D15
 70
     1
 10
0.0
 20
0.0
 30
0.0
  3
*D15
  1

  0
LINE
  5
7375
330
7374
100
AcDbEntity
  8
寸法
  6
Continuous
 62
     4
370
    -2
100
AcDbLine
 10
1463.189172189083
 20
752.2111149183019
 30
0.0
 11
1496.189172189083
 21
752.2111149183019
 31
0.0
  0
LINE
  5
7376
330
7374
100
AcDbEntity
  8
寸法
  6
Continuous
 62
     4
370
    -2
100
AcDbLine
 10
1453.689172189083
 20
767.2111149183019
 30
0.0
 11
1496.189172189083
 21
767.2111149183019
 31
0.0
  0
LINE
  5
7377
330
7374
100
AcDbEntity
  8
寸法
  6
Continuous
 62
     4
370
    -2
100
AcDbLine
 10
1496.189172189083
 20
753.211114918302
 30
0.0
 11
1496.189172189083
 21
766.211114918302
 31
0.0
  0
INSERT
  5
7378
330
7374
100
AcDbEntity
  8
寸法
  6
Continuous
 62
     4
370
    -2
100
AcDbBlockReference
  2
_Dot
 10
1496.189172189083
 20
752.2111149183019
 30
0.0
 50
270.0
  0
INSERT
  5
7379
330
7374
100
AcDbEntity
  8
寸法
  6
Continuous
 62
     4
370
    -2
100
AcDbBlockReference
  2
_Dot
 10
1496.189172189083
 20
767.2111149183019
 30
0.0
 50
90.0
  0
MTEXT
  5
737A
330
7374
100
AcDbEntity
  8
寸法
  6
Continuous
 62
     3
100
AcDbMText
 10
1492.689172189083
 20
759.7111149183022
 30
0.0
 40
5.0
 41
0.0
 71
     5
 72
     5
  1
\A1;15
  7
ACAD
 11
0.0000000000000001
 21
1.0
 31
0.0
 73
     1
 44
1.0
1001
ACAD
1000
MTEXTBEGIN
1070
    73
1070
     1
1070
    44
1040
1.0
1070
    74
1070
     0
1000
MTEXTEND
  0
POINT
  5
737B
330
7374
100
AcDbEntity
  8
Defpoints
  6
Continuous
 62
     0
100
AcDbPoint
 10
1463.189172189083
 20
752.2111149183019
 30
0.0
  0
POINT
  5
737C
330
7374
100
AcDbEntity
  8
Defpoints
  6
Continuous
 62
     0
100
AcDbPoint
 10
1453.689172189083
 20
767.2111149183019
 30
0.0
  0
POINT
  5
737D
330
7374
100
AcDbEntity
  8
Defpoints
  6
Continuous
 62
     0
100
AcDbPoint
 10
1496.189172189083
 20
767.2111149183019
 30
0.0
  0
ENDBLK
  5
737F
330
7374
100
AcDbEntity
  8
0
100
AcDbBlockEnd
  0
BLOCK
  5
738B
330
7381
100
AcDbEntity
  8
0
100
AcDbBlockBegin
  2
*D16
 70
     1
 10
0.0
 20
0.0
 30
0.0
  3
*D16
  1

  0
LINE
  5
7382
330
7381
100
AcDbEntity
  8
寸法
  6
Continuous
 62
     4
370
    -2
100
AcDbLine
 10
1461.189172189083
 20
755.343931684068
 30
0.0
 11
1461.189172189083
 21
792.2111149183019
 31
0.0
  0
LINE
  5
7383
330
7381
100
AcDbEntity
  8
寸法
  6
Continuous
 62
     4
370
    -2
100
AcDbLine
 10
1441.189172189083
 20
769.211114918302
 30
0.0
 11
1441.189172189083
 21
792.2111149183019
 31
0.0
  0
LINE
  5
7384
330
7381
100
AcDbEntity
  8
寸法
  6
Continuous
 62
     4
370
    -2
100
AcDbLine
 10
1460.189172189083
 20
792.2111149183019
 30
0.0
 11
1442.189172189083
 21
792.2111149183019
 31
0.0
  0
INSERT
  5
7385
330
7381
100
AcDbEntity
  8
寸法
  6
Continuous
 62
     4
370
    -2
100
AcDbBlockReference
  2
_Dot
 10
1461.189172189083
 20
792.2111149183019
 30
0.0
  0
INSERT
  5
7386
330
7381
100
AcDbEntity
  8
寸法
  6
Continuous
 62
     4
370
    -2
100
AcDbBlockReference
  2
_Dot
 10
1441.189172189083
 20
792.2111149183019
 30
0.0
 50
180.0
  0
MTEXT
  5
7387
330
7381
100
AcDbEntity
  8
寸法
  6
Continuous
 62
     3
100
AcDbMText
 10
1451.189172189083
 20
795.7111149183019
 30
0.0
 40
5.0
 41
0.0
 71
     5
 72
     5
  1
\A1;20
  7
ACAD
 73
     1
 44
1.0
1001
ACAD
1000
MTEXTBEGIN
1070
    73
1070
     1
1070
    44
1040
1.0
1070
    74
1070
     0
1000
MTEXTEND
  0
POINT
  5
7388
330
7381
100
AcDbEntity
  8
Defpoints
  6
Continuous
 62
     0
100
AcDbPoint
 10
1461.189172189083
 20
755.343931684068
 30
0.0
  0
POINT
  5
7389
330
7381
100
AcDbEntity
  8
Defpoints
  6
Continuous
 62
     0
100
AcDbPoint
 10
1441.189172189083
 20
769.211114918302
 30
0.0
  0
POINT
  5
738A
330
7381
100
AcDbEntity
  8
Defpoints
  6
Continuous
 62
     0
100
AcDbPoint
 10
1441.189172189083
 20
792.2111149183019
 30
0.0
  0
ENDBLK
  5
738C
330
7381
100
AcDbEntity
  8
0
100
AcDbBlockEnd
  0
BLOCK
  5
7398
330
738E
100
AcDbEntity
  8
0
100
AcDbBlockBegin
  2
*D17
 70
     1
 10
0.0
 20
0.0
 30
0.0
  3
*D17
  1

  0
LINE
  5
73B6
330
738E
100
AcDbEntity
  8
寸法
  6
Continuous
 62
     4
370
    -2
100
AcDbLine
 10
1461.189172189083
 20
755.343931684068
 30
0.0
 11
1461.189172189083
 21
807.2111149183019
 31
0.0
  0
LINE
  5
73B7
330
738E
100
AcDbEntity
  8
寸法
  6
Continuous
 62
     4
370
    -2
100
AcDbLine
 10
1427.689172189083
 20
754.2111149183019
 30
0.0
 11
1427.689172189083
 21
807.2111149183019
 31
0.0
  0
LINE
  5
73B8
330
738E
100
AcDbEntity
  8
寸法
  6
Continuous
 62
     4
370
    -2
100
AcDbLine
 10
1460.189172189083
 20
807.2111149183019
 30
0.0
 11
1428.689172189083
 21
807.2111149183019
 31
0.0
  0
INSERT
  5
73B9
330
738E
100
AcDbEntity
  8
寸法
  6
Continuous
 62
     4
370
    -2
100
AcDbBlockReference
  2
_Dot
 10
1461.189172189083
 20
807.2111149183019
 30
0.0
  0
INSERT
  5
73BA
330
738E
100
AcDbEntity
  8
寸法
  6
Continuous
 62
     4
370
    -2
100
AcDbBlockReference
  2
_Dot
 10
1427.689172189083
 20
807.2111149183019
 30
0.0
 50
180.0
  0
MTEXT
  5
73BB
330
738E
100
AcDbEntity
  8
寸法
  6
Continuous
 62
     3
100
AcDbMText
 10
1444.439172189083
 20
810.7111149183019
 30
0.0
 40
5.0
 41
0.0
 71
     5
 72
     5
  1
\A1;33.5
  7
ACAD
 73
     1
 44
1.0
1001
ACAD
1000
MTEXTBEGIN
1070
    73
1070
     1
1070
    44
1040
1.0
1070
    74
1070
     0
1000
MTEXTEND
  0
POINT
  5
73BC
330
738E
100
AcDbEntity
  8
Defpoints
  6
Continuous
 62
     0
100
AcDbPoint
 10
1461.189172189083
 20
755.343931684068
 30
0.0
  0
POINT
  5
73BD
330
738E
100
AcDbEntity
  8
Defpoints
  6
Continuous
 62
     0
100
AcDbPoint
 10
1427.689172189083
 20
754.2111149183019
 30
0.0
  0
POINT
  5
73BE
330
738E
100
AcDbEntity
  8
Defpoints
  6
Continuous
 62
     0
100
AcDbPoint
 10
1427.689172189083
 20
807.2111149183019
 30
0.0
  0
ENDBLK
  5
7399
330
738E
100
AcDbEntity
  8
0
100
AcDbBlockEnd
  0
BLOCK
  5
73A3
330
739B
100
AcDbEntity
  8
0
100
AcDbBlockBegin
  2
*D18
 70
     1
 10
0.0
 20
0.0
 30
0.0
  3
*D18
  1

  0
LINE
  5
739C
330
739B
100
AcDbEntity
  8
寸法
  6
Continuous
 62
     4
370
    -2
100
AcDbLine
 10
1702.689172189083
 20
584.078298152536
 30
0.0
 11
1750.689172189083
 21
584.078298152536
 31
0.0
  0
INSERT
  5
739D
330
739B
100
AcDbEntity
  8
寸法
  6
Continuous
 62
     4
370
    -2
100
AcDbBlockReference
  2
_Dot
 10
1701.689172189083
 20
584.078298152536
 30
0.0
 50
180.0
  0
INSERT
  5
739E
330
739B
100
AcDbEntity
  8
寸法
  6
Continuous
 62
     4
370
    -2
100
AcDbBlockReference
  2
_Dot
 10
1751.689172189083
 20
584.078298152536
 30
0.0
  0
MTEXT
  5
739F
330
739B
100
AcDbEntity
  8
寸法
  6
Continuous
 62
     3
100
AcDbMText
 10
1726.689172189083
 20
587.578298152536
 30
0.0
 40
5.0
 41
0.0
 71
     5
 72
     5
  1
\A1;50
  7
ACAD
 73
     1
 44
1.0
1001
ACAD
1000
MTEXTBEGIN
1070
    73
1070
     1
1070
    44
1040
1.0
1070
    74
1070
     0
1000
MTEXTEND
  0
POINT
  5
73A0
330
739B
100
AcDbEntity
  8
Defpoints
  6
Continuous
 62
     0
100
AcDbPoint
 10
1701.689172189083
 20
584.078298152536
 30
0.0
  0
POINT
  5
73A1
330
739B
100
AcDbEntity
  8
Defpoints
  6
Continuous
 62
     0
100
AcDbPoint
 10
1751.689172189083
 20
584.078298152536
 30
0.0
  0
POINT
  5
73A2
330
739B
100
AcDbEntity
  8
Defpoints
  6
Continuous
 62
     0
100
AcDbPoint
 10
1751.689172189083
 20
584.078298152536
 30
0.0
  0
ENDBLK
  5
73A4
330
739B
100
AcDbEntity
  8
0
100
AcDbBlockEnd
  0
ENDSEC
  0
SECTION
  2
ENTITIES
  0
TEXT
  5
6D20
330
1E
100
AcDbEntity
  8
図枠
 62
     6
100
AcDbText
 10
1223.452485862518
 20
823.2339811095803
 30
0.0
 40
9.0
  1
◇アルミ１５０タイプ（１５０ＦＹＫ－Ａ）
100
AcDbText
  0
TEXT
  5
6D21
330
1E
100
AcDbEntity
  8
図枠
 62
     6
100
AcDbText
 10
1224.468186345609
 20
805.9670728970198
 30
0.0
 40
9.0
  1
　　屋根－壁（切欠き壁）
100
AcDbText
  0
TEXT
  5
6D22
330
1E
100
AcDbEntity
  8
図枠
 62
     6
100
AcDbText
 10
1224.468186345609
 20
786.668763718276
 30
0.0
 40
9.0
  1
　　Ｓ＝１／２
100
AcDbText
  0
TEXT
  5
6D23
330
1E
100
AcDbEntity
  8
図枠
 62
     7
100
AcDbText
 10
1834.578836195759
 20
671.4670080459447
 30
0.0
 40
5.0
  1
５
100
AcDbText
  0
CIRCLE
  5
6D24
330
1E
100
AcDbEntity
  8
図枠
  6
Continuous
 62
     4
100
AcDbCircle
 10
1837.578836195759
 20
674.4670080459448
 30
0.0
 40
6.0
  0
LINE
  5
6D25
330
1E
100
AcDbEntity
  8
図枠
  6
Continuous
 62
     4
100
AcDbLine
 10
1809.610822379402
 20
626.0249871292273
 30
0.0
 11
1834.578836195759
 21
669.2708556232382
 31
0.0
  0
CIRCLE
  5
6D26
330
1E
100
AcDbEntity
  8
図枠
  6
Continuous
 62
     4
100
AcDbCircle
 10
1809.610822379402
 20
626.0249871292273
 30
0.0
 40
0.9
  0
TEXT
  5
6D27
330
1E
100
AcDbEntity
  8
図枠
 62
     7
100
AcDbText
 10
1796.87429411827
 20
579.2106911070036
 30
0.0
 40
5.0
  1
11
100
AcDbText
  0
CIRCLE
  5
6D28
330
1E
100
AcDbEntity
  8
図枠
  6
Continuous
 62
     4
100
AcDbCircle
 10
1800.12429411827
 20
582.2106911070036
 30
0.0
 40
6.0
  0
LINE
  5
6D29
330
1E
100
AcDbEntity
  8
図枠
  6
Continuous
 62
     4
100
AcDbLine
 10
1786.666846581639
 20
605.5196739806404
 30
0.0
 11
1797.12429411827
 21
587.4068435297102
 31
0.0
  0
CIRCLE
  5
6D2A
330
1E
100
AcDbEntity
  8
図枠
  6
Continuous
 62
     4
100
AcDbCircle
 10
1786.666846581639
 20
605.5196739806404
 30
0.0
 40
0.9
  0
LINE
  5
6D2B
330
1E
100
AcDbEntity
  8
図枠
  6
Continuous
 62
     4
100
AcDbLine
 10
1811.442754899329
 20
673.6064448043148
 30
0.0
 11
1835.079236042732
 21
714.5460310568307
 31
0.0
  0
TEXT
  5
6D2C
330
1E
100
AcDbEntity
  8
図枠
 62
     7
100
AcDbText
 10
1835.079236042732
 20
716.7421834795375
 30
0.0
 40
5.0
  1
９
100
AcDbText
  0
CIRCLE
  5
6D2D
330
1E
100
AcDbEntity
  8
図枠
  6
Continuous
 62
     4
100
AcDbCircle
 10
1838.079236042732
 20
719.7421834795375
 30
0.0
 40
6.0
  0
TEXT
  5
6D2E
330
1E
100
AcDbEntity
  8
図枠
 62
     7
100
AcDbText
 10
1836.035009304363
 20
736.7752492442909
 30
0.0
 40
5.0
  1
１
100
AcDbText
  0
CIRCLE
  5
6D2F
330
1E
100
AcDbEntity
  8
図枠
  6
Continuous
 62
     4
100
AcDbCircle
 10
1810.898528160961
 20
691.0414343577151
 30
0.0
 40
0.9
  0
LINE
  5
6D30
330
1E
100
AcDbEntity
  8
図枠
  6
Continuous
 62
     4
100
AcDbLine
 10
1810.898528160961
 20
691.0414343577151
 30
0.0
 11
1836.035009304363
 21
734.5790968215839
 31
0.0
  0
CIRCLE
  5
6D31
330
1E
100
AcDbEntity
  8
図枠
  6
Continuous
 62
     4
100
AcDbCircle
 10
1839.035009304364
 20
739.775249244291
 30
0.0
 40
6.0
  0
CIRCLE
  5
6D32
330
1E
100
AcDbEntity
  8
図枠
  6
Continuous
 62
     4
100
AcDbCircle
 10
1811.442754899329
 20
673.6064448043148
 30
0.0
 40
0.9
  0
LINE
  5
6D33
330
1E
100
AcDbEntity
  8
躯体と製品
  6
Continuous
 62
     7
100
AcDbLine
 10
1698.649133633149
 20
655.078298152536
 30
0.0
 11
1698.241140697451
 21
655.5314202128847
 31
0.0
  0
LINE
  5
6D34
330
1E
100
AcDbEntity
  8
躯体と製品
  6
Continuous
 62
     4
100
AcDbLine
 10
1699.072595032853
 20
660.5340011329108
 30
0.0
 11
1698.786673755223
 21
655.078298152536
 31
0.0
  0
LINE
  5
6D35
330
1E
100
AcDbEntity
  8
躯体と製品
  6
Continuous
 62
     7
100
AcDbLine
 10
1704.232917905978
 20
655.2174044754269
 30
0.0
 11
1704.078424682883
 21
655.078298152536
 31
0.0
  0
LINE
  5
6D36
330
1E
100
AcDbEntity
  8
躯体と製品
  6
Continuous
 62
     4
100
AcDbLine
 10
1703.928930460364
 20
660.2794913777016
 30
0.0
 11
1703.656347473811
 21
655.078298152536
 31
0.0
  0
LINE
  5
6D37
330
1E
100
AcDbEntity
  8
図枠
  6
Continuous
 62
     4
100
AcDbLine
 10
1694.567420436062
 20
649.3144550851134
 30
0.0
 11
1684.870166804182
 21
632.5183191008165
 31
0.0
  0
CIRCLE
  5
6D38
330
1E
100
AcDbEntity
  8
図枠
  6
Continuous
 62
     4
100
AcDbCircle
 10
1681.870166804182
 20
627.32216667811
 30
0.0
 40
6.0
  0
CIRCLE
  5
6D39
330
1E
100
AcDbEntity
  8
図枠
  6
Continuous
 62
     4
100
AcDbCircle
 10
1694.567420436062
 20
649.3144550851134
 30
0.0
 40
0.9
  0
LINE
  5
6D3A
330
1E
100
AcDbEntity
  8
図枠
  6
Continuous
 62
     4
100
AcDbLine
 10
1699.563161213081
 20
618.9956367543891
 30
0.0
 11
1689.521547018334
 21
601.6030507790835
 31
0.0
  0
TEXT
  5
6D3B
330
1E
100
AcDbEntity
  8
図枠
 62
     7
100
AcDbText
 10
1683.271547018334
 20
593.4068983563768
 30
0.0
 40
5.0
  1
17
100
AcDbText
  0
CIRCLE
  5
6D3C
330
1E
100
AcDbEntity
  8
図枠
  6
Continuous
 62
     4
100
AcDbCircle
 10
1686.521547018334
 20
596.4068983563768
 30
0.0
 40
6.0
  0
LINE
  5
6D3D
330
1E
100
AcDbEntity
  8
図枠
  6
Continuous
 62
     4
100
AcDbLine
 10
1706.026583017778
 20
652.1788702997942
 30
0.0
 11
1722.448968682635
 21
623.7344639467719
 31
0.0
  0
TEXT
  5
6D3E
330
1E
100
AcDbEntity
  8
図枠
 62
     7
100
AcDbText
 10
1722.198968682635
 20
615.5383115240653
 30
0.0
 40
5.0
  1
16
100
AcDbText
  0
CIRCLE
  5
6D3F
330
1E
100
AcDbEntity
  8
図枠
  6
Continuous
 62
     4
100
AcDbCircle
 10
1725.448968682635
 20
618.5383115240652
 30
0.0
 40
6.0
  0
LINE
  5
6D40
330
1E
100
AcDbEntity
  8
図枠
  6
Continuous
 62
     4
100
AcDbLine
 10
1711.866654917227
 20
659.5669130641566
 30
0.0
 11
1723.648341048995
 21
639.160434085104
 31
0.0
  0
TEXT
  5
6D41
330
1E
100
AcDbEntity
  8
図枠
 62
     7
100
AcDbText
 10
1678.620166804182
 20
624.32216667811
 30
0.0
 40
5.0
  1
20
100
AcDbText
  0
CIRCLE
  5
6D42
330
1E
100
AcDbEntity
  8
図枠
  6
Continuous
 62
     4
100
AcDbCircle
 10
1726.648341048995
 20
633.9642816623975
 30
0.0
 40
6.0
  0
LINE
  5
6D43
330
1E
100
AcDbEntity
  8
図枠
  6
Continuous
 62
     4
100
AcDbLine
 10
1703.743617226515
 20
679.5414678398038
 30
0.0
 11
1721.569149765548
 21
710.4161958693794
 31
0.0
  0
TEXT
  5
6D44
330
1E
100
AcDbEntity
  8
図枠
 62
     7
100
AcDbText
 10
1723.648341048995
 20
630.9642816623975
 30
0.0
 40
5.0
  1
８
100
AcDbText
  0
CIRCLE
  5
6D45
330
1E
100
AcDbEntity
  8
図枠
  6
Continuous
 62
     4
100
AcDbCircle
 10
1724.569149765547
 20
715.6123482920859
 30
0.0
 40
6.0
  0
LINE
  5
6D46
330
1E
100
AcDbEntity
  8
図枠
  6
Continuous
 62
     4
100
AcDbLine
 10
1719.293001217472
 20
682.2637204832351
 30
0.0
 11
1737.580090989848
 21
713.9378890915634
 31
0.0
  0
CIRCLE
  5
6D47
330
1E
100
AcDbEntity
  8
図枠
  6
Continuous
 62
     4
100
AcDbCircle
 10
1740.580090989848
 20
719.1340415142701
 30
0.0
 40
6.0
  0
LINE
  5
6D48
330
1E
100
AcDbEntity
  8
図枠
  6
Continuous
 62
     4
100
AcDbLine
 10
1719.210863773262
 20
657.8296351384917
 30
0.0
 11
1744.023918028712
 21
700.8071057998941
 31
0.0
  0
TEXT
  5
6D49
330
1E
100
AcDbEntity
  8
図枠
 62
     7
100
AcDbText
 10
1744.023918028712
 20
703.0032582226008
 30
0.0
 40
5.0
  1
３
100
AcDbText
  0
CIRCLE
  5
6D4A
330
1E
100
AcDbEntity
  8
図枠
  6
Continuous
 62
     4
100
AcDbCircle
 10
1747.023918028712
 20
706.0032582226006
 30
0.0
 40
6.0
  0
CIRCLE
  5
6D4B
330
1E
100
AcDbEntity
  8
図枠
  6
Continuous
 62
     4
100
AcDbCircle
 10
1719.210863773262
 20
657.8296351384917
 30
0.0
 40
0.9
  0
LINE
  5
6D4C
330
1E
100
AcDbEntity
  8
図枠
  6
Continuous
 62
     4
100
AcDbLine
 10
1751.662512927843
 20
677.6764922526406
 30
0.0
 11
1765.587828039453
 21
701.7958455373557
 31
0.0
  0
TEXT
  5
6D4D
330
1E
100
AcDbEntity
  8
図枠
 62
     7
100
AcDbText
 10
1765.587828039453
 20
703.9919979600624
 30
0.0
 40
5.0
  1
６
100
AcDbText
  0
CIRCLE
  5
6D4E
330
1E
100
AcDbEntity
  8
図枠
  6
Continuous
 62
     4
100
AcDbCircle
 10
1768.587828039453
 20
706.9919979600626
 30
0.0
 40
6.0
  0
CIRCLE
  5
6D4F
330
1E
100
AcDbEntity
  8
図枠
  6
Continuous
 62
     4
100
AcDbCircle
 10
1711.866654917227
 20
659.5669130641566
 30
0.0
 40
0.9
  0
CIRCLE
  5
6D50
330
1E
100
AcDbEntity
  8
図枠
  6
Continuous
 62
     4
100
AcDbCircle
 10
1706.026583017778
 20
652.1788702997942
 30
0.0
 40
0.9
  0
CIRCLE
  5
6D51
330
1E
100
AcDbEntity
  8
図枠
  6
Continuous
 62
     4
100
AcDbCircle
 10
1719.293001217472
 20
682.2637204832351
 30
0.0
 40
0.9
  0
CIRCLE
  5
6D52
330
1E
100
AcDbEntity
  8
図枠
  6
Continuous
 62
     4
100
AcDbCircle
 10
1699.563161213081
 20
618.9956367543891
 30
0.0
 40
0.9
  0
CIRCLE
  5
6D53
330
1E
100
AcDbEntity
  8
図枠
  6
Continuous
 62
     4
100
AcDbCircle
 10
1703.743617226515
 20
679.5414678398038
 30
0.0
 40
0.9
  0
CIRCLE
  5
6D54
330
1E
100
AcDbEntity
  8
図枠
  6
Continuous
 62
     4
100
AcDbCircle
 10
1751.662512927843
 20
677.6764922526406
 30
0.0
 40
0.9
  0
TEXT
  5
6D55
330
1E
100
AcDbEntity
  8
図枠
 62
     7
100
AcDbText
 10
1721.319149765547
 20
712.6123482920861
 30
0.0
 40
5.0
  1
14
100
AcDbText
  0
TEXT
  5
6D56
330
1E
100
AcDbEntity
  8
図枠
 62
     7
100
AcDbText
 10
1737.580090989848
 20
716.1340415142703
 30
0.0
 40
5.0
  1
７
100
AcDbText
  0
LINE
  5
6D57
330
1E
100
AcDbEntity
  8
躯体と製品
  6
Continuous
 62
     7
100
AcDbLine
 10
1707.46267488098
 20
654.5739811382318
 30
0.0
 11
1707.46267488098
 21
650.078298152536
 31
0.0
  0
LINE
  5
6D58
330
1E
100
AcDbEntity
  8
躯体と製品
  6
Continuous
 62
     7
100
AcDbLine
 10
1704.575923535031
 20
654.5739811382318
 30
0.0
 11
1704.575923535031
 21
650.078298152536
 31
0.0
  0
LINE
  5
6D59
330
1E
100
AcDbEntity
  8
躯体と製品
  6
Continuous
 62
     7
100
AcDbLine
 10
1698.802420843135
 20
654.5739811382318
 30
0.0
 11
1698.802420843135
 21
650.078298152536
 31
0.0
  0
LINE
  5
6D5A
330
1E
100
AcDbEntity
  8
躯体と製品
  6
Continuous
 62
     7
100
AcDbLine
 10
1706.589172189083
 20
655.078298152536
 30
0.0
 11
1707.46267488098
 21
654.5739811382318
 31
0.0
  0
LINE
  5
6D5B
330
1E
100
AcDbEntity
  8
躯体と製品
  6
Continuous
 62
     7
100
AcDbLine
 10
1696.789172189083
 20
655.078298152536
 30
0.0
 11
1706.589172189083
 21
655.078298152536
 31
0.0
  0
LINE
  5
6D5C
330
1E
100
AcDbEntity
  8
躯体と製品
  6
Continuous
 62
     7
100
AcDbLine
 10
1696.789172189083
 20
655.078298152536
 30
0.0
 11
1695.915669497187
 21
654.5739811382318
 31
0.0
  0
LINE
  5
6D5D
330
1E
100
AcDbEntity
  8
躯体と製品
  6
Continuous
 62
     7
100
AcDbLine
 10
1695.915669497187
 20
654.5739811382318
 30
0.0
 11
1695.915669497187
 21
650.078298152536
 31
0.0
  0
ARC
  5
6D5E
330
1E
100
AcDbEntity
  8
躯体と製品
  6
Continuous
 62
     7
100
AcDbCircle
 10
1706.019299208005
 20
652.4647403771878
 30
0.0
 40
2.555822748428199
100
AcDbArc
 50
55.61575253203897
 51
124.384247467961
  0
ARC
  5
6D5F
330
1E
100
AcDbEntity
  8
躯体と製品
  6
Continuous
 62
     7
100
AcDbCircle
 10
1697.359045170161
 20
652.4647403771878
 30
0.0
 40
2.555822748428199
100
AcDbArc
 50
55.61575253203897
 51
124.384247467961
  0
ARC
  5
6D60
330
1E
100
AcDbEntity
  8
躯体と製品
  6
Continuous
 62
     7
100
AcDbCircle
 10
1701.689172189083
 20
645.4671451129802
 30
0.0
 40
9.553418012635715
100
AcDbArc
 50
72.41204622604974
 51
107.5879537739502
  0
LINE
  5
6D61
330
1E
100
AcDbEntity
  8
躯体と製品
  6
Continuous
 62
     7
100
AcDbLine
 10
1692.689172189083
 20
650.078298152536
 30
0.0
 11
1692.689172189083
 21
648.578298152536
 31
0.0
  0
LINE
  5
6D62
330
1E
100
AcDbEntity
  8
躯体と製品
  6
Continuous
 62
     7
100
AcDbLine
 10
1692.689172189083
 20
650.078298152536
 30
0.0
 11
1710.689172189083
 21
650.078298152536
 31
0.0
  0
LINE
  5
6D63
330
1E
100
AcDbEntity
  8
躯体と製品
  6
Continuous
 62
     7
100
AcDbLine
 10
1710.689172189083
 20
650.078298152536
 30
0.0
 11
1710.689172189083
 21
648.578298152536
 31
0.0
  0
CIRCLE
  5
6D64
330
1E
100
AcDbEntity
  8
図枠
  6
Continuous
 62
     4
100
AcDbCircle
 10
1487.962028526617
 20
602.7031515658222
 30
0.0
 40
6.0
  0
TEXT
  5
6D65
330
1E
100
AcDbEntity
  8
図枠
 62
     7
100
AcDbText
 10
1484.712028526617
 20
599.7031515658222
 30
0.0
 40
5.0
  1
12
100
AcDbText
  0
LINE
  5
6D66
330
1E
100
AcDbEntity
  8
図枠
  6
Continuous
 62
     4
100
AcDbLine
 10
1471.078741340196
 20
573.4604403601634
 30
0.0
 11
1484.962028526618
 21
597.5069991431158
 31
0.0
  0
CIRCLE
  5
6D67
330
1E
100
AcDbEntity
  8
図枠
  6
Continuous
 62
     4
100
AcDbCircle
 10
1471.078741340196
 20
573.4604403601634
 30
0.0
 40
0.9
  0
CIRCLE
  5
6D68
330
1E
100
AcDbEntity
  8
図枠
  6
Continuous
 62
     4
100
AcDbCircle
 10
1411.547172579239
 20
689.8019441196566
 30
0.0
 40
6.0
  0
TEXT
  5
6D69
330
1E
100
AcDbEntity
  8
図枠
 62
     7
100
AcDbText
 10
1408.297172579239
 20
686.8019441196565
 30
0.0
 40
5.0
  1
21
100
AcDbText
  0
LINE
  5
6D6A
330
1E
100
AcDbEntity
  8
図枠
  6
Continuous
 62
     4
100
AcDbLine
 10
1431.972975076932
 20
701.5947866901141
 30
0.0
 11
1416.743325001945
 21
692.8019441196566
 31
0.0
  0
CIRCLE
  5
6D6B
330
1E
100
AcDbEntity
  8
図枠
  6
Continuous
 62
     4
100
AcDbCircle
 10
1431.972975076932
 20
701.5947866901141
 30
0.0
 40
0.9
  0
TEXT
  5
6D6C
330
1E
100
AcDbEntity
  8
図枠
 62
     7
100
AcDbText
 10
1407.073712451504
 20
730.8588129046575
 30
0.0
 40
5.0
  1
19
100
AcDbText
  0
LINE
  5
6D6D
330
1E
100
AcDbEntity
  8
図枠
  6
Continuous
 62
     4
100
AcDbLine
 10
1434.052176033326
 20
710.1303493228352
 30
0.0
 11
1414.566353138623
 21
729.6161722175382
 31
0.0
  0
CIRCLE
  5
6D6E
330
1E
100
AcDbEntity
  8
図枠
  6
Continuous
 62
     4
100
AcDbCircle
 10
1410.323712451504
 20
733.8588129046574
 30
0.0
 40
6.0
  0
CIRCLE
  5
6D6F
330
1E
100
AcDbEntity
  8
図枠
  6
Continuous
 62
     4
100
AcDbCircle
 10
1382.257408439154
 20
732.7600726918781
 30
0.0
 40
6.0
  0
LINE
  5
6D70
330
1E
100
AcDbEntity
  8
図枠
  6
Continuous
 62
     4
100
AcDbLine
 10
1394.75553254624
 20
711.1126867391034
 30
0.0
 11
1385.257408439154
 21
727.5639202691715
 31
0.0
  0
TEXT
  5
6D71
330
1E
100
AcDbEntity
  8
図枠
 62
     7
100
AcDbText
 10
1379.007408439154
 20
729.7600726918783
 30
0.0
 40
5.0
  1
18
100
AcDbText
  0
CIRCLE
  5
6D72
330
1E
100
AcDbEntity
  8
図枠
  6
Continuous
 62
     4
100
AcDbCircle
 10
1394.75553254624
 20
711.1126867391034
 30
0.0
 40
0.9
  0
CIRCLE
  5
6D73
330
1E
100
AcDbEntity
  8
図枠
  6
Continuous
 62
     4
100
AcDbCircle
 10
1434.052176033326
 20
710.1303493228352
 30
0.0
 40
0.9
  0
LINE
  5
6D74
330
1E
100
AcDbEntity
  8
図枠
  6
Continuous
 62
     4
100
AcDbLine
 10
1433.659584655087
 20
740.9485018904783
 30
0.0
 11
1415.540469412414
 21
772.331730078984
 31
0.0
  0
TEXT
  5
6D75
330
1E
100
AcDbEntity
  8
図枠
 62
     7
100
AcDbText
 10
1409.540469412414
 20
774.5278825016908
 30
0.0
 40
5.0
  1
４
100
AcDbText
  0
CIRCLE
  5
6D76
330
1E
100
AcDbEntity
  8
図枠
  6
Continuous
 62
     4
100
AcDbCircle
 10
1412.540469412414
 20
777.5278825016909
 30
0.0
 40
6.0
  0
LINE
  5
6D77
330
1E
100
AcDbEntity
  8
図枠
  6
Continuous
 62
     4
100
AcDbLine
 10
1437.83108196249
 20
759.4673443083706
 30
0.0
 11
1418.021065744738
 21
793.7792988962797
 31
0.0
  0
TEXT
  5
6D78
330
1E
100
AcDbEntity
  8
図枠
 62
     7
100
AcDbText
 10
1411.771065744738
 20
795.9754513189866
 30
0.0
 40
5.0
  1
15
100
AcDbText
  0
CIRCLE
  5
6D79
330
1E
100
AcDbEntity
  8
図枠
  6
Continuous
 62
     4
100
AcDbCircle
 10
1415.021065744738
 20
798.9754513189866
 30
0.0
 40
6.0
  0
LINE
  5
6D7A
330
1E
100
AcDbEntity
  8
図枠
  6
Continuous
 62
     4
100
AcDbLine
 10
1454.210315068351
 20
751.467919510312
 30
0.0
 11
1472.447136573182
 21
783.0550209252423
 31
0.0
  0
TEXT
  5
6D7B
330
1E
100
AcDbEntity
  8
図枠
 62
     7
100
AcDbText
 10
1472.447136573182
 20
785.2511733479491
 30
0.0
 40
5.0
  1
２
100
AcDbText
  0
CIRCLE
  5
6D7C
330
1E
100
AcDbEntity
  8
図枠
  6
Continuous
 62
     4
100
AcDbCircle
 10
1475.447136573182
 20
788.251173347949
 30
0.0
 40
6.0
  0
LINE
  5
6D7D
330
1E
100
AcDbEntity
  8
図枠
  6
Continuous
 62
     4
100
AcDbLine
 10
1458.906871327223
 20
732.6708076544634
 30
0.0
 11
1480.3757277135
 21
769.8559576958944
 31
0.0
  0
CIRCLE
  5
6D7E
330
1E
100
AcDbEntity
  8
図枠
  6
Continuous
 62
     4
100
AcDbCircle
 10
1483.375727713499
 20
775.052110118601
 30
0.0
 40
6.0
  0
TEXT
  5
6D7F
330
1E
100
AcDbEntity
  8
図枠
 62
     7
100
AcDbText
 10
1480.1257277135
 20
772.0521101186011
 30
0.0
 40
5.0
  1
10
100
AcDbText
  0
LINE
  5
6D80
330
1E
100
AcDbEntity
  8
図枠
  6
Continuous
 62
     4
100
AcDbLine
 10
1458.410066437669
 20
713.6125814454175
 30
0.0
 11
1482.301674134499
 21
672.2311030400041
 31
0.0
  0
TEXT
  5
6D81
330
1E
100
AcDbEntity
  8
図枠
 62
     7
100
AcDbText
 10
1482.051674134499
 20
664.0349506172976
 30
0.0
 40
5.0
  1
13
100
AcDbText
  0
CIRCLE
  5
6D82
330
1E
100
AcDbEntity
  8
図枠
  6
Continuous
 62
     4
100
AcDbCircle
 10
1485.301674134499
 20
667.0349506172974
 30
0.0
 40
6.0
  0
CIRCLE
  5
6D83
330
1E
100
AcDbEntity
  8
図枠
  6
Continuous
 62
     4
100
AcDbCircle
 10
1437.83108196249
 20
759.4673443083706
 30
0.0
 40
0.9
  0
CIRCLE
  5
6D84
330
1E
100
AcDbEntity
  8
図枠
  6
Continuous
 62
     4
100
AcDbCircle
 10
1458.410066437669
 20
713.6125814454175
 30
0.0
 40
0.9
  0
CIRCLE
  5
6D85
330
1E
100
AcDbEntity
  8
図枠
  6
Continuous
 62
     4
100
AcDbCircle
 10
1458.906871327223
 20
732.6708076544634
 30
0.0
 40
0.9
  0
CIRCLE
  5
6D86
330
1E
100
AcDbEntity
  8
図枠
  6
Continuous
 62
     4
100
AcDbCircle
 10
1433.659584655087
 20
740.9485018904783
 30
0.0
 40
0.9
  0
CIRCLE
  5
6D87
330
1E
100
AcDbEntity
  8
図枠
  6
Continuous
 62
     4
100
AcDbCircle
 10
1454.210315068351
 20
751.467919510312
 30
0.0
 40
0.9
  0
LINE
  5
6D88
330
1E
100
AcDbEntity
  8
躯体と製品
  6
Continuous
 62
     7
100
AcDbLine
 10
1432.689172189083
 20
699.211114918302
 30
0.0
 11
1432.689172189083
 21
717.2111149183019
 31
0.0
  0
LINE
  5
6D89
330
1E
100
AcDbEntity
  8
躯体と製品
  6
Continuous
 62
     7
100
AcDbLine
 10
1432.689172189083
 20
699.211114918302
 30
0.0
 11
1431.189172189083
 21
699.211114918302
 31
0.0
  0
LINE
  5
6D8A
330
1E
100
AcDbEntity
  8
躯体と製品
  6
Continuous
 62
     7
100
AcDbLine
 10
1432.689172189083
 20
717.2111149183019
 30
0.0
 11
1431.189172189083
 21
717.2111149183019
 31
0.0
  0
ARC
  5
6D8B
330
1E
100
AcDbEntity
  8
躯体と製品
  6
Continuous
 62
     7
100
AcDbCircle
 10
1432.560462643116
 20
709.713874918302
 30
0.0
 40
3.0
100
AcDbArc
 50
38.61463799999811
 51
87.54107400000371
  0
ARC
  5
6D8C
330
1E
100
AcDbEntity
  8
躯体と製品
  6
Continuous
 62
     7
100
AcDbCircle
 10
1430.689173643116
 20
708.2111149183019
 30
0.0
 40
5.4
100
AcDbArc
 50
0.0
 51
38.85106200000375
  0
ARC
  5
6D8D
330
1E
100
AcDbEntity
  8
躯体と製品
  6
Continuous
 62
     7
100
AcDbCircle
 10
1430.689173643116
 20
708.2111149183019
 30
0.0
 40
5.4
100
AcDbArc
 50
321.3178130000017
 51
0.0
  0
ARC
  5
6D8E
330
1E
100
AcDbEntity
  8
躯体と製品
  6
Continuous
 62
     7
100
AcDbCircle
 10
1432.560462643116
 20
706.708351918302
 30
0.0
 40
3.0
100
AcDbArc
 50
272.4589259999963
 51
321.3853620000019
  0
LINE
  5
6D8F
330
1E
100
AcDbEntity
  8
躯体と製品
  6
Continuous
 62
     4
100
AcDbLine
 10
1443.320430886562
 20
759.2162540454538
 30
0.0
 11
1445.048782235305
 21
752.7001642666403
 31
0.0
  0
LINE
  5
6D90
330
1E
100
AcDbEntity
  8
躯体と製品
  6
Continuous
 62
     4
100
AcDbLine
 10
1441.32956214286
 20
766.7220655699638
 30
0.0
 11
1442.708408163084
 21
761.5236523737853
 31
0.0
  0
TEXT
  5
6D91
330
1E
100
AcDbEntity
  8
図枠
 62
     7
100
AcDbText
 10
1351.689172189083
 20
441.5782981525359
 30
0.0
 40
5.0
  1
止水補助板ホルダーＡＬ
100
AcDbText
  0
LINE
  5
6D9D
330
1E
100
AcDbEntity
  8
躯体と製品
  6
Continuous
 62
     7
100
AcDbLine
 10
1451.689172189083
 20
837.211114918302
 30
0.0
 11
1451.689172189083
 21
767.2111149183019
 31
0.0
  0
LINE
  5
6DAC
330
1E
100
AcDbEntity
  8
躯体と製品
  6
Continuous
 62
     4
100
AcDbLine
 10
1448.550781234655
 20
752.2111149183024
 30
0.0
 11
1451.117484323541
 21
754.7778180071883
 31
0.0
  0
LINE
  5
6DAD
330
1E
100
AcDbEntity
  8
躯体と製品
  6
Continuous
 62
     4
100
AcDbLine
 10
1445.722354109908
 20
752.2111149183019
 30
0.0
 11
1450.792489507095
 21
757.2812503154891
 31
0.0
  0
LINE
  5
6DAE
330
1E
100
AcDbEntity
  8
躯体と製品
  6
Continuous
 62
     4
100
AcDbLine
 10
1445.189172189083
 20
754.5063601222234
 30
0.0
 11
1450.690710756315
 21
760.007898689455
 31
0.0
  0
LINE
  5
6DAF
330
1E
100
AcDbEntity
  8
躯体と製品
  6
Continuous
 62
     4
100
AcDbLine
 10
1445.189172189083
 20
757.33478724697
 30
0.0
 11
1450.881939551146
 21
763.0275546090338
 31
0.0
  0
LINE
  5
6DB0
330
1E
100
AcDbEntity
  8
躯体と製品
  6
Continuous
 62
     4
100
AcDbLine
 10
1445.189172189083
 20
760.1632143717168
 30
0.0
 11
1451.499399927812
 21
766.4734421104456
 31
0.0
  0
LINE
  5
6DB1
330
1E
100
AcDbEntity
  8
躯体と製品
  6
Continuous
 62
     4
100
AcDbLine
 10
1445.189172189083
 20
762.9916414964632
 30
0.0
 11
1449.408645610921
 21
767.2111149183019
 31
0.0
  0
LINE
  5
6DB2
330
1E
100
AcDbEntity
  8
躯体と製品
  6
Continuous
 62
     4
100
AcDbLine
 10
1445.189172189083
 20
765.8200686212103
 30
0.0
 11
1446.580218486175
 21
767.2111149183019
 31
0.0
  0
ARC
  5
6DB3
330
1E
100
AcDbEntity
  8
躯体と製品
  6
Continuous
 62
     7
100
AcDbCircle
 10
1479.314172189081
 20
759.7111149183023
 30
0.0
 40
28.62499999999828
100
AcDbArc
 50
164.8107132628193
 51
195.1892867371807
  0
LINE
  5
6DC2
330
1E
100
AcDbEntity
  8
躯体と製品
  6
Continuous
 62
     7
100
AcDbLine
 10
1428.689172189083
 20
668.0782981525362
 30
0.0
 11
1428.689172189083
 21
752.2111149183019
 31
0.0
  0
LINE
  5
6DC3
330
1E
100
AcDbEntity
  8
躯体と製品
  6
Continuous
 62
     7
100
AcDbLine
 10
1427.689172189083
 20
668.0782981525362
 30
0.0
 11
1427.689172189083
 21
722.2111149183018
 31
0.0
  0
LINE
  5
6DC4
330
1E
100
AcDbEntity
  8
躯体と製品
  6
Continuous
 62
     7
100
AcDbLine
 10
1441.189172189083
 20
763.2111149183018
 30
0.0
 11
1441.189172189083
 21
766.211114918302
 31
0.0
  0
LINE
  5
6DC5
330
1E
100
AcDbEntity
  8
躯体と製品
  6
Continuous
 62
     7
100
AcDbLine
 10
1445.189172189083
 20
753.211114918302
 30
0.0
 11
1445.189172189083
 21
766.211114918302
 31
0.0
  0
ARC
  5
6DC6
330
1E
100
AcDbEntity
  8
躯体と製品
  6
Continuous
 62
     7
100
AcDbCircle
 10
1444.189172189083
 20
766.211114918302
 30
0.0
 40
1.0
100
AcDbArc
 50
0.0
 51
90.0
  0
LINE
  5
6DC7
330
1E
100
AcDbEntity
  8
躯体と製品
  6
Continuous
 62
     7
100
AcDbLine
 10
1444.189172189083
 20
767.2111149183019
 30
0.0
 11
1442.189172189083
 21
767.2111149183019
 31
0.0
  0
ARC
  5
6DC8
330
1E
100
AcDbEntity
  8
躯体と製品
  6
Continuous
 62
     7
100
AcDbCircle
 10
1442.189172189083
 20
766.211114918302
 30
0.0
 40
1.0
100
AcDbArc
 50
90.0
 51
180.0
  0
LINE
  5
6DC9
330
1E
100
AcDbEntity
  8
躯体と製品
  6
Continuous
 62
     7
100
AcDbLine
 10
1426.689172189083
 20
767.2111149183019
 30
0.0
 11
1426.689172189083
 21
644.078298152536
 31
0.0
  0
LINE
  5
6DCA
330
1E
100
AcDbEntity
  8
躯体と製品
  6
Continuous
 62
     7
100
AcDbLine
 10
1427.689172189083
 20
752.2111149183019
 30
0.0
 11
1428.689172189083
 21
752.2111149183019
 31
0.0
  0
LINE
  5
6DCB
330
1E
100
AcDbEntity
  8
躯体と製品
  6
Continuous
 62
     4
100
AcDbLine
 10
1426.689172189083
 20
751.8348489645527
 30
0.0
 11
1427.689172189083
 21
750.834848964553
 31
0.0
  0
LINE
  5
6DCC
330
1E
100
AcDbEntity
  8
躯体と製品
  6
Continuous
 62
     4
100
AcDbLine
 10
1426.689172189083
 20
750.4206354021796
 30
0.0
 11
1427.689172189083
 21
749.4206354021791
 31
0.0
  0
LINE
  5
6DCD
330
1E
100
AcDbEntity
  8
躯体と製品
  6
Continuous
 62
     4
100
AcDbLine
 10
1426.689172189083
 20
749.0064218398056
 30
0.0
 11
1427.689172189083
 21
748.0064218398053
 31
0.0
  0
LINE
  5
6DCE
330
1E
100
AcDbEntity
  8
躯体と製品
  6
Continuous
 62
     4
100
AcDbLine
 10
1426.689172189082
 20
747.5922082774351
 30
0.0
 11
1427.689172189083
 21
746.5922082774347
 31
0.0
  0
LINE
  5
6DCF
330
1E
100
AcDbEntity
  8
躯体と製品
  6
Continuous
 62
     4
100
AcDbLine
 10
1426.689172189083
 20
746.1779947150612
 30
0.0
 11
1427.689172189083
 21
745.1779947150614
 31
0.0
  0
LINE
  5
6DD0
330
1E
100
AcDbEntity
  8
躯体と製品
  6
Continuous
 62
     4
100
AcDbLine
 10
1426.689172189083
 20
744.7637811526878
 30
0.0
 11
1427.689172189083
 21
743.7637811526881
 31
0.0
  0
LINE
  5
6DD1
330
1E
100
AcDbEntity
  8
躯体と製品
  6
Continuous
 62
     4
100
AcDbLine
 10
1426.689172189083
 20
743.3495675903148
 30
0.0
 11
1427.689172189082
 21
742.3495675903152
 31
0.0
  0
LINE
  5
6DD2
330
1E
100
AcDbEntity
  8
躯体と製品
  6
Continuous
 62
     4
100
AcDbLine
 10
1426.689172189083
 20
741.9353540279415
 30
0.0
 11
1427.689172189082
 21
740.9353540279417
 31
0.0
  0
LINE
  5
6DD3
330
1E
100
AcDbEntity
  8
躯体と製品
  6
Continuous
 62
     4
100
AcDbLine
 10
1426.689172189083
 20
740.5211404655679
 30
0.0
 11
1427.689172189083
 21
739.5211404655675
 31
0.0
  0
LINE
  5
6DD4
330
1E
100
AcDbEntity
  8
躯体と製品
  6
Continuous
 62
     4
100
AcDbLine
 10
1426.689172189083
 20
739.1069269031947
 30
0.0
 11
1427.689172189083
 21
738.1069269031946
 31
0.0
  0
LINE
  5
6DD5
330
1E
100
AcDbEntity
  8
躯体と製品
  6
Continuous
 62
     4
100
AcDbLine
 10
1426.689172189083
 20
737.6927133408214
 30
0.0
 11
1427.689172189083
 21
736.6927133408212
 31
0.0
  0
LINE
  5
6DD6
330
1E
100
AcDbEntity
  8
躯体と製品
  6
Continuous
 62
     4
100
AcDbLine
 10
1426.689172189083
 20
736.2784997784499
 30
0.0
 11
1427.689172189083
 21
735.2784997784494
 31
0.0
  0
LINE
  5
6DD7
330
1E
100
AcDbEntity
  8
躯体と製品
  6
Continuous
 62
     4
100
AcDbLine
 10
1426.689172189083
 20
734.8642862160756
 30
0.0
 11
1427.689172189083
 21
733.8642862160758
 31
0.0
  0
LINE
  5
6DD8
330
1E
100
AcDbEntity
  8
躯体と製品
  6
Continuous
 62
     4
100
AcDbLine
 10
1426.689172189083
 20
733.4500726537026
 30
0.0
 11
1427.689172189083
 21
732.4500726537028
 31
0.0
  0
LINE
  5
6DD9
330
1E
100
AcDbEntity
  8
躯体と製品
  6
Continuous
 62
     4
100
AcDbLine
 10
1426.689172189083
 20
732.0358590913293
 30
0.0
 11
1427.689172189083
 21
731.0358590913295
 31
0.0
  0
LINE
  5
6DDA
330
1E
100
AcDbEntity
  8
躯体と製品
  6
Continuous
 62
     4
100
AcDbLine
 10
1426.689172189083
 20
730.6216455289564
 30
0.0
 11
1427.689172189083
 21
729.6216455289563
 31
0.0
  0
LINE
  5
6DDB
330
1E
100
AcDbEntity
  8
躯体と製品
  6
Continuous
 62
     4
100
AcDbLine
 10
1426.689172189083
 20
729.2074319665828
 30
0.0
 11
1427.689172189083
 21
728.2074319665825
 31
0.0
  0
LINE
  5
6DDC
330
1E
100
AcDbEntity
  8
躯体と製品
  6
Continuous
 62
     4
100
AcDbLine
 10
1426.689172189083
 20
727.7932184042095
 30
0.0
 11
1427.689172189083
 21
726.7932184042091
 31
0.0
  0
LINE
  5
6DDD
330
1E
100
AcDbEntity
  8
躯体と製品
  6
Continuous
 62
     4
100
AcDbLine
 10
1426.689172189082
 20
726.3790048418388
 30
0.0
 11
1427.689172189082
 21
725.3790048418387
 31
0.0
  0
LINE
  5
6DDE
330
1E
100
AcDbEntity
  8
躯体と製品
  6
Continuous
 62
     4
100
AcDbLine
 10
1426.689172189083
 20
724.9647912794646
 30
0.0
 11
1427.689172189083
 21
723.964791279465
 31
0.0
  0
LINE
  5
6DDF
330
1E
100
AcDbEntity
  8
躯体と製品
  6
Continuous
 62
     4
100
AcDbLine
 10
1426.689172189083
 20
723.5505777170915
 30
0.0
 11
1427.689172189083
 21
722.5505777170917
 31
0.0
  0
LINE
  5
6DE0
330
1E
100
AcDbEntity
  8
躯体と製品
  6
Continuous
 62
     3
100
AcDbLine
 10
1426.689172189083
 20
752.2111149183019
 30
0.0
 11
1426.689172189083
 21
722.2111149183018
 31
0.0
  0
LINE
  5
6DE1
330
1E
100
AcDbEntity
  8
躯体と製品
  6
Continuous
 62
     3
100
AcDbLine
 10
1426.689172189083
 20
722.2111149183018
 30
0.0
 11
1427.689172189083
 21
722.2111149183018
 31
0.0
  0
LINE
  5
6DE2
330
1E
100
AcDbEntity
  8
躯体と製品
  6
Continuous
 62
     3
100
AcDbLine
 10
1427.689172189083
 20
722.2111149183018
 30
0.0
 11
1427.689172189083
 21
752.2111149183019
 31
0.0
  0
LINE
  5
6DE3
330
1E
100
AcDbEntity
  8
躯体と製品
  6
Continuous
 62
     3
100
AcDbLine
 10
1427.689172189083
 20
752.2111149183019
 30
0.0
 11
1426.689172189083
 21
752.2111149183019
 31
0.0
  0
LINE
  5
6DE4
330
1E
100
AcDbEntity
  8
躯体と製品
  6
Continuous
 62
     7
100
AcDbLine
 10
1426.689172189083
 20
767.2111149183019
 30
0.0
 11
1451.689172189083
 21
767.2111149183019
 31
0.0
  0
LINE
  5
6DE5
330
1E
100
AcDbEntity
  8
躯体と製品
  6
CENTER1
 62
     4
100
AcDbLine
 10
1703.41381205082
 20
696.9099015193375
 30
0.0
 11
1701.061140714168
 21
652.0182581633678
 31
0.0
  0
LINE
  5
6DE6
330
1E
100
AcDbEntity
  8
躯体と製品
  6
CENTER1
 62
     4
100
AcDbLine
 10
1701.689172189083
 20
669.0018125804226
 30
0.0
 11
1701.689172189083
 21
580.078298152536
 31
0.0
  0
LINE
  5
6DE7
330
1E
100
AcDbEntity
  8
躯体と製品
  6
CENTER1
 62
     4
100
AcDbLine
 10
1441.389174189083
 20
708.2111149183019
 30
0.0
 11
1367.689172189083
 21
708.2111149183019
 31
0.0
  0
LINE
  5
6DE8
330
1E
100
AcDbEntity
  8
躯体と製品
  6
CENTER1
 62
     4
100
AcDbLine
 10
1429.566449506518
 20
758.7111149183019
 30
0.0
 11
1446.434483189083
 21
758.7111149183019
 31
0.0
  0
LINE
  5
6DE9
330
1E
100
AcDbEntity
  8
図枠
  6
Continuous
 62
     4
100
AcDbLine
 10
1561.189172189083
 20
710.1343617547906
 30
0.0
 11
1561.189172189083
 21
712.7547507189426
 31
0.0
  0
LINE
  5
6DEA
330
1E
100
AcDbEntity
  8
図枠
  6
Continuous
 62
     4
100
AcDbLine
 10
1511.189172189083
 20
712.7547507189426
 30
0.0
 11
1561.189172189083
 21
710.1343617547906
 31
0.0
  0
LINE
  5
6DEB
330
1E
100
AcDbEntity
  8
図枠
  6
Continuous
 62
     4
100
AcDbLine
 10
1511.189172189083
 20
712.7547507189426
 30
0.0
 11
1561.189172189083
 21
712.7547507189426
 31
0.0
  0
TEXT
  5
6DEC
330
1E
100
AcDbEntity
  8
図枠
 62
     7
100
AcDbText
 10
1881.689172189083
 20
494.6572985316358
 30
0.0
 40
5.0
  1
（単位：mm）
100
AcDbText
  0
TEXT
  5
6DED
330
1E
100
AcDbEntity
  8
図枠
 62
     7
100
AcDbText
 10
1616.689172189083
 20
494.6572985316358
 30
0.0
 40
5.0
  1
（2000mmセット）
100
AcDbText
  0
TEXT
  5
6DEE
330
1E
100
AcDbEntity
  8
図枠
 62
     7
100
AcDbText
 10
1548.689172189083
 20
494.6572985316358
 30
0.0
 40
5.0
  1
（3000mmセット）
100
AcDbText
  0
ARC
  5
6DEF
330
1E
100
AcDbEntity
  8
躯体と製品
  6
Continuous
 62
     7
100
AcDbCircle
 10
1451.689172189083
 20
643.078298152536
 30
0.0
 40
2.0
100
AcDbArc
 50
4.999999999999459
 51
90.0
  0
ARC
  5
6DF0
330
1E
100
AcDbEntity
  8
躯体と製品
  6
Continuous
 62
     7
100
AcDbCircle
 10
1451.689172189083
 20
668.0782981525362
 30
0.0
 40
23.0000000000001
100
AcDbArc
 50
180.0
 51
270.0
  0
ARC
  5
6DF1
330
1E
100
AcDbEntity
  8
躯体と製品
  6
Continuous
 62
     7
100
AcDbCircle
 10
1686.689172189083
 20
636.828298152536
 30
0.0
 40
9.25
100
AcDbArc
 50
90.0
 51
108.9246444160544
  0
LINE
  5
6DF2
330
1E
100
AcDbEntity
  8
躯体と製品
  6
Continuous
 62
     7
100
AcDbLine
 10
1716.689172189083
 20
646.078298152536
 30
0.0
 11
1686.689172189083
 21
646.078298152536
 31
0.0
  0
ARC
  5
6DF3
330
1E
100
AcDbEntity
  8
躯体と製品
  6
Continuous
 62
     7
100
AcDbCircle
 10
1716.689172189083
 20
636.828298152536
 30
0.0
 40
9.25
100
AcDbArc
 50
71.07535558394559
 51
90.0
  0
ARC
  5
6DF4
330
1E
100
AcDbEntity
  8
躯体と製品
  6
Continuous
 62
     7
100
AcDbCircle
 10
1751.661860045617
 20
643.0786704194916
 30
0.0
 40
2.0
100
AcDbArc
 50
4.999999999999459
 51
88.8945054323914
  0
LINE
  5
6DF5
330
1E
100
AcDbEntity
  8
躯体と製品
  6
Continuous
 62
     7
100
AcDbLine
 10
1751.700446691485
 20
645.078298152536
 30
0.0
 11
1722.689172189083
 21
645.078298152536
 31
0.0
  0
LINE
  5
6DF6
330
1E
100
AcDbEntity
  8
躯体と製品
  6
Continuous
 62
     7
100
AcDbLine
 10
1601.689172189083
 20
645.078298152536
 30
0.0
 11
1680.689172189083
 21
645.078298152536
 31
0.0
  0
ARC
  5
6DF7
330
1E
100
AcDbEntity
  8
躯体と製品
  6
Continuous
 62
     7
100
AcDbCircle
 10
1601.689172189083
 20
643.078298152536
 30
0.0
 40
2.0
100
AcDbArc
 50
90.0
 51
175.0000000000005
  0
ARC
  5
6DF8
330
1E
100
AcDbEntity
  8
躯体と製品
  6
Continuous
 62
     7
100
AcDbCircle
 10
1680.689172189083
 20
654.328298152536
 30
0.0
 40
10.25
100
AcDbArc
 50
270.0
 51
288.9246444160544
  0
ARC
  5
6DF9
330
1E
100
AcDbEntity
  8
躯体と製品
  6
Continuous
 62
     7
100
AcDbCircle
 10
1686.689172189083
 20
636.828298152536
 30
0.0
 40
8.25
100
AcDbArc
 50
90.0
 51
108.9246444160544
  0
ARC
  5
6DFA
330
1E
100
AcDbEntity
  8
躯体と製品
  6
Continuous
 62
     7
100
AcDbCircle
 10
1680.689172189083
 20
654.328298152536
 30
0.0
 40
9.25
100
AcDbArc
 50
270.0
 51
288.9246444160544
  0
ARC
  5
6DFB
330
1E
100
AcDbEntity
  8
躯体と製品
  6
Continuous
 62
     7
100
AcDbCircle
 10
1722.689172189083
 20
654.328298152536
 30
0.0
 40
10.25
100
AcDbArc
 50
251.0753555839456
 51
270.0
  0
ARC
  5
6DFC
330
1E
100
AcDbEntity
  8
躯体と製品
  6
Continuous
 62
     7
100
AcDbCircle
 10
1716.689172189083
 20
636.828298152536
 30
0.0
 40
8.25
100
AcDbArc
 50
71.07535558394559
 51
90.0
  0
ARC
  5
6DFD
330
1E
100
AcDbEntity
  8
躯体と製品
  6
Continuous
 62
     7
100
AcDbCircle
 10
1722.689172189083
 20
654.328298152536
 30
0.0
 40
9.25
100
AcDbArc
 50
251.0753555839456
 51
270.0
  0
LINE
  5
6DFE
330
1E
100
AcDbEntity
  8
躯体と製品
  6
Continuous
 62
     7
100
AcDbLine
 10
1427.689172189083
 20
705.7111149183019
 30
0.0
 11
1426.689172189083
 21
705.7111149183019
 31
0.0
  0
LINE
  5
6DFF
330
1E
100
AcDbEntity
  8
躯体と製品
  6
Continuous
 62
     7
100
AcDbLine
 10
1427.689172189083
 20
710.7111149183019
 30
0.0
 11
1426.689172189083
 21
710.7111149183019
 31
0.0
  0
TEXT
  5
6E00
330
1E
100
AcDbEntity
  8
寸法
 62
     7
100
AcDbText
 10
1611.189172189083
 20
737.5316101633513
 30
0.0
 40
5.0
  1
（キャップ幅）
100
AcDbText
  0
ARC
  5
6E26
330
1E
100
AcDbEntity
  8
躯体と製品
  6
Continuous
 62
     7
100
AcDbCircle
 10
1526.689172189083
 20
617.5696777519345
 30
0.0
 40
71.49137959939837
100
AcDbArc
 50
184.9999999999994
 51
355.0000000000006
  0
LINE
  5
6E27
330
1E
100
AcDbEntity
  8
躯体と製品
  6
Continuous
 62
     7
100
AcDbLine
 10
1600.692977490991
 20
643.1654538952837
 30
0.0
 11
1597.908505505268
 21
611.3387934628938
 31
0.0
  0
ARC
  5
6E28
330
1E
100
AcDbEntity
  8
躯体と製品
  6
Continuous
 62
     7
100
AcDbCircle
 10
1526.689172189083
 20
617.5696777519345
 30
0.0
 40
70.49137959939837
100
AcDbArc
 50
184.9999999999994
 51
355.0000000000006
  0
LINE
  5
6E29
330
1E
100
AcDbEntity
  8
躯体と製品
  6
Continuous
 62
     7
100
AcDbLine
 10
1599.6967827929
 20
643.2526096380312
 30
0.0
 11
1596.912310807177
 21
611.425949205642
 31
0.0
  0
LINE
  5
6E2A
330
1E
100
AcDbEntity
  8
躯体と製品
  6
Continuous
 62
     7
100
AcDbLine
 10
1453.681561585266
 20
643.2526096380312
 30
0.0
 11
1456.46603357099
 21
611.4259492056418
 31
0.0
  0
LINE
  5
6E2B
330
1E
100
AcDbEntity
  8
躯体と製品
  6
Continuous
 62
     7
100
AcDbLine
 10
1452.685366887175
 20
643.1654538952837
 30
0.0
 11
1455.469838872898
 21
611.3387934628938
 31
0.0
  0
ARC
  5
6E2C
330
1E
100
AcDbEntity
  8
躯体と製品
  6
Continuous
 62
     7
100
AcDbCircle
 10
1451.689172189083
 20
668.0782981525362
 30
0.0
 40
24.00000000000011
100
AcDbArc
 50
180.0
 51
270.0
  0
ARC
  5
6E2D
330
1E
100
AcDbEntity
  8
躯体と製品
  6
Continuous
 62
     7
100
AcDbCircle
 10
1451.689172189083
 20
643.078298152536
 30
0.0
 40
1.0
100
AcDbArc
 50
4.999999999999459
 51
90.0
  0
TEXT
  5
6E2E
330
1E
100
AcDbEntity
  8
図枠
 62
     7
100
AcDbText
 10
1522.689172189083
 20
712.7390277543391
 30
0.0
 40
5.0
  1
勾配３度
100
AcDbText
  0
LINE
  5
6E31
330
1E
100
AcDbEntity
  8
躯体と製品
  6
DASHED1
 62
     7
100
AcDbLine
 10
1438.296652517261
 20
705.0591038223112
 30
0.0
 11
1458.710475765091
 21
703.9892606792159
 31
0.0
  0
LINE
  5
6E32
330
1E
100
AcDbEntity
  8
躯体と製品
  6
DASHED1
 62
     7
100
AcDbLine
 10
1798.244517581646
 20
686.1950355566159
 30
0.0
 11
1804.509359692083
 21
685.8667090940492
 31
0.0
  0
LINE
  5
6E33
330
1E
100
AcDbEntity
  8
躯体と製品
  6
DASHED1
 62
     7
100
AcDbLine
 10
1798.480029384739
 20
690.6888684630116
 30
0.0
 11
1804.744871495176
 21
690.3605420004449
 31
0.0
  0
ARC
  5
6E37
330
1E
100
AcDbEntity
  8
躯体と製品
  6
Continuous
 62
     7
100
AcDbCircle
 10
1777.715474713595
 20
626.6866400634098
 30
0.0
 40
23.52581321753931
100
AcDbArc
 50
184.9999999999994
 51
355.0000000000006
  0
LINE
  5
6E38
330
1E
100
AcDbEntity
  8
躯体と製品
  6
Continuous
 62
     7
100
AcDbLine
 10
1803.165795072886
 20
647.656698162893
 30
0.0
 11
1801.151765109205
 21
624.6362303386923
 31
0.0
  0
ARC
  5
6E39
330
1E
100
AcDbEntity
  8
躯体と製品
  6
Continuous
 62
     7
100
AcDbCircle
 10
1777.715474713595
 20
626.6866400634098
 30
0.0
 40
22.52581321753931
100
AcDbArc
 50
184.9999999999994
 51
355.0000000000006
  0
LINE
  5
6E3A
330
1E
100
AcDbEntity
  8
躯体と製品
  6
Continuous
 62
     7
100
AcDbLine
 10
1802.169600374794
 20
647.7438539056406
 30
0.0
 11
1800.155570411113
 21
624.7233860814404
 31
0.0
  0
LINE
  5
6E3B
330
1E
100
AcDbEntity
  8
躯体と製品
  6
Continuous
 62
     7
100
AcDbLine
 10
1753.654249441801
 20
643.2529819049866
 30
0.0
 11
1755.275379016078
 21
624.7233860814404
 31
0.0
  0
LINE
  5
6E3C
330
1E
100
AcDbEntity
  8
躯体と製品
  6
Continuous
 62
     7
100
AcDbLine
 10
1752.658054743709
 20
643.1658261622392
 30
0.0
 11
1754.279184317986
 21
624.6362303386927
 31
0.0
  0
ARC
  5
6E3D
330
1E
100
AcDbEntity
  8
躯体と製品
  6
Continuous
 62
     7
100
AcDbCircle
 10
1804.261609240787
 20
647.5608268458707
 30
0.0
 40
2.1
100
AcDbArc
 50
90.0
 51
175.0000000000005
  0
LINE
  5
6E3E
330
1E
100
AcDbEntity
  8
躯体と製品
  6
Continuous
 62
     7
100
AcDbLine
 10
1804.261609240787
 20
649.6608268458706
 30
0.0
 11
1804.857407419489
 21
649.6608268458706
 31
0.0
  0
ARC
  5
6E3F
330
1E
100
AcDbEntity
  8
躯体と製品
  6
Continuous
 62
     7
100
AcDbCircle
 10
1804.261609240787
 20
647.5608268458707
 30
0.0
 40
1.1
100
AcDbArc
 50
90.0
 51
175.0000000000005
  0
LINE
  5
6E40
330
1E
100
AcDbEntity
  8
躯体と製品
  6
Continuous
 62
     7
100
AcDbLine
 10
1804.261609240787
 20
648.6608268458707
 30
0.0
 11
1804.857407419489
 21
648.6608268458707
 31
0.0
  0
LINE
  5
6E41
330
1E
100
AcDbEntity
  8
躯体と製品
  6
Continuous
 62
     7
100
AcDbLine
 10
1804.857407419489
 20
652.1608268458707
 30
0.0
 11
1804.857407419489
 21
649.6608268458706
 31
0.0
  0
LINE
  5
6E42
330
1E
100
AcDbEntity
  8
躯体と製品
  6
Continuous
 62
     7
100
AcDbLine
 10
1806.357407419489
 20
648.1608268458703
 30
0.0
 11
1808.008492419489
 21
648.6841998458706
 31
0.0
  0
LINE
  5
6E43
330
1E
100
AcDbEntity
  8
躯体と製品
  6
Continuous
 62
     7
100
AcDbLine
 10
1806.357407419489
 20
648.1608268458703
 30
0.0
 11
1806.357407419489
 21
646.1608268458706
 31
0.0
  0
LINE
  5
6E44
330
1E
100
AcDbEntity
  8
躯体と製品
  6
Continuous
 62
     7
100
AcDbLine
 10
1806.357407419489
 20
650.1608268458706
 30
0.0
 11
1806.357407419489
 21
652.1608268458707
 31
0.0
  0
ARC
  5
6E45
330
1E
100
AcDbEntity
  8
躯体と製品
  6
Continuous
 62
     7
100
AcDbCircle
 10
1805.857407419489
 20
652.1608268458707
 30
0.0
 40
0.5
100
AcDbArc
 50
0.0
 51
90.0
  0
LINE
  5
6E46
330
1E
100
AcDbEntity
  8
躯体と製品
  6
Continuous
 62
     7
100
AcDbLine
 10
1805.357407419489
 20
652.6608268458703
 30
0.0
 11
1805.857407419489
 21
652.6608268458703
 31
0.0
  0
LINE
  5
6E47
330
1E
100
AcDbEntity
  8
躯体と製品
  6
Continuous
 62
     7
100
AcDbLine
 10
1805.357407419489
 20
645.6608268458706
 30
0.0
 11
1805.857407419489
 21
645.6608268458706
 31
0.0
  0
ARC
  5
6E48
330
1E
100
AcDbEntity
  8
躯体と製品
  6
Continuous
 62
     7
100
AcDbCircle
 10
1805.857407419489
 20
646.1608268458706
 30
0.0
 40
0.5
100
AcDbArc
 50
270.0
 51
0.0
  0
ARC
  5
6E49
330
1E
100
AcDbEntity
  8
躯体と製品
  6
Continuous
 62
     7
100
AcDbCircle
 10
1805.357407419489
 20
646.1608268458706
 30
0.0
 40
0.5
100
AcDbArc
 50
180.0
 51
270.0
  0
ARC
  5
6E4A
330
1E
100
AcDbEntity
  8
躯体と製品
  6
Continuous
 62
     7
100
AcDbCircle
 10
1805.357407419489
 20
652.1608268458707
 30
0.0
 40
0.5
100
AcDbArc
 50
90.0
 51
180.0
  0
LINE
  5
6E4B
330
1E
100
AcDbEntity
  8
躯体と製品
  6
Continuous
 62
     7
100
AcDbLine
 10
1804.857407419489
 20
646.1608268458706
 30
0.0
 11
1804.857407419489
 21
648.6608268458707
 31
0.0
  0
ARC
  5
6E4C
330
1E
100
AcDbEntity
  8
躯体と製品
  6
Continuous
 62
     7
100
AcDbCircle
 10
1807.857407419489
 20
649.1608268458703
 30
0.0
 40
0.5
100
AcDbArc
 50
287.587954000005
 51
72.41204599999497
  0
LINE
  5
6E4D
330
1E
100
AcDbEntity
  8
躯体と製品
  6
Continuous
 62
     7
100
AcDbLine
 10
1806.357407419489
 20
650.1608268458706
 30
0.0
 11
1808.008492419489
 21
649.6374538458703
 31
0.0
  0
ARC
  5
6E4E
330
1E
100
AcDbEntity
  8
躯体と製品
  6
Continuous
 62
     3
100
AcDbCircle
 10
1804.257407419489
 20
647.5608268458707
 30
0.0
 40
0.5999999999999998
100
AcDbArc
 50
0.0
 51
180.0
  0
ARC
  5
6E4F
330
1E
100
AcDbEntity
  8
躯体と製品
  6
Continuous
 62
     3
100
AcDbCircle
 10
1804.257407419489
 20
651.7608268458705
 30
0.0
 40
0.5999999999999998
100
AcDbArc
 50
180.0
 51
0.0
  0
LINE
  5
6E50
330
1E
100
AcDbEntity
  8
躯体と製品
  6
Continuous
 62
     3
100
AcDbLine
 10
1803.657407419489
 20
647.5608268458707
 30
0.0
 11
1803.657407419489
 21
645.4608268458704
 31
0.0
  0
LINE
  5
6E51
330
1E
100
AcDbEntity
  8
躯体と製品
  6
Continuous
 62
     3
100
AcDbLine
 10
1804.857407419489
 20
647.5608268458707
 30
0.0
 11
1804.857407419489
 21
645.9608268458704
 31
0.0
  0
ARC
  5
6E52
330
1E
100
AcDbEntity
  8
躯体と製品
  6
Continuous
 62
     3
100
AcDbCircle
 10
1805.157407419489
 20
645.9608268458704
 30
0.0
 40
0.2999999999999998
100
AcDbArc
 50
180.0
 51
270.0
  0
LINE
  5
6E53
330
1E
100
AcDbEntity
  8
躯体と製品
  6
Continuous
 62
     3
100
AcDbLine
 10
1804.857407419489
 20
651.7608268458705
 30
0.0
 11
1804.857407419489
 21
653.3608268458706
 31
0.0
  0
ARC
  5
6E54
330
1E
100
AcDbEntity
  8
躯体と製品
  6
Continuous
 62
     3
100
AcDbCircle
 10
1805.157407419489
 20
653.3608268458706
 30
0.0
 40
0.2999999999999998
100
AcDbArc
 50
90.0
 51
180.0
  0
LINE
  5
6E55
330
1E
100
AcDbEntity
  8
躯体と製品
  6
Continuous
 62
     3
100
AcDbLine
 10
1803.657407419489
 20
651.7608268458705
 30
0.0
 11
1803.657407419489
 21
653.8608268458706
 31
0.0
  0
LINE
  5
6E56
330
1E
100
AcDbEntity
  8
躯体と製品
  6
Continuous
 62
     3
100
AcDbLine
 10
1815.857407419489
 20
615.6608268458706
 30
0.0
 11
1817.478675419489
 21
616.0661438458705
 31
0.0
  0
ARC
  5
6E57
330
1E
100
AcDbEntity
  8
躯体と製品
  6
Continuous
 62
     3
100
AcDbCircle
 10
1817.357407419489
 20
616.5512148458705
 30
0.0
 40
0.5
100
AcDbArc
 50
284.0362430000043
 51
0.0
  0
LINE
  5
6E58
330
1E
100
AcDbEntity
  8
躯体と製品
  6
Continuous
 62
     3
100
AcDbLine
 10
1815.857407419489
 20
616.1608268458706
 30
0.0
 11
1815.857407419489
 21
615.6608268458706
 31
0.0
  0
LINE
  5
6E59
330
1E
100
AcDbEntity
  8
躯体と製品
  6
Continuous
 62
     3
100
AcDbLine
 10
1817.857407419489
 20
616.8608268458706
 30
0.0
 11
1817.857407419489
 21
616.5512148458705
 31
0.0
  0
LINE
  5
6E5A
330
1E
100
AcDbEntity
  8
躯体と製品
  6
Continuous
 62
     3
100
AcDbLine
 10
1810.857407419489
 20
616.1608268458706
 30
0.0
 11
1815.857407419489
 21
616.1608268458706
 31
0.0
  0
ARC
  5
6E5B
330
1E
100
AcDbEntity
  8
躯体と製品
  6
Continuous
 62
     3
100
AcDbCircle
 10
1817.557407419489
 20
616.8608268458706
 30
0.0
 40
0.2999999999999998
100
AcDbArc
 50
0.0
 51
90.0
  0
ARC
  5
6E5C
330
1E
100
AcDbEntity
  8
躯体と製品
  6
Continuous
 62
     3
100
AcDbCircle
 10
1810.857407419489
 20
615.6608268458706
 30
0.0
 40
0.5
100
AcDbArc
 50
90.0
 51
180.0
  0
LINE
  5
6E5D
330
1E
100
AcDbEntity
  8
躯体と製品
  6
Continuous
 62
     3
100
AcDbLine
 10
1810.357407419489
 20
615.6608268458706
 30
0.0
 11
1810.357407419489
 21
606.8608268458706
 31
0.0
  0
LINE
  5
6E5E
330
1E
100
AcDbEntity
  8
躯体と製品
  6
Continuous
 62
     3
100
AcDbLine
 10
1810.857407419489
 20
617.1608268458705
 30
0.0
 11
1817.557407419489
 21
617.1608268458705
 31
0.0
  0
ARC
  5
6E5F
330
1E
100
AcDbEntity
  8
躯体と製品
  6
Continuous
 62
     3
100
AcDbCircle
 10
1810.857407419489
 20
617.6608268458704
 30
0.0
 40
0.5
100
AcDbArc
 50
180.0
 51
270.0
  0
LINE
  5
6E60
330
1E
100
AcDbEntity
  8
躯体と製品
  6
Continuous
 62
     3
100
AcDbLine
 10
1815.257407419489
 20
604.6608268458705
 30
0.0
 11
1811.357407419489
 21
604.6608268458705
 31
0.0
  0
ARC
  5
6E61
330
1E
100
AcDbEntity
  8
躯体と製品
  6
Continuous
 62
     3
100
AcDbCircle
 10
1811.357407419489
 20
607.1608268458706
 30
0.0
 40
2.5
100
AcDbArc
 50
180.0
 51
270.0
  0
LINE
  5
6E62
330
1E
100
AcDbEntity
  8
躯体と製品
  6
Continuous
 62
     3
100
AcDbLine
 10
1810.357407419489
 20
661.9108268458703
 30
0.0
 11
1810.357407419489
 21
617.6608268458704
 31
0.0
  0
LINE
  5
6E63
330
1E
100
AcDbEntity
  8
躯体と製品
  6
Continuous
 62
     3
100
AcDbLine
 10
1805.157407419489
 20
653.6608268458703
 30
0.0
 11
1808.557407419489
 21
653.6608268458703
 31
0.0
  0
LINE
  5
6E64
330
1E
100
AcDbEntity
  8
躯体と製品
  6
Continuous
 62
     3
100
AcDbLine
 10
1805.157407419489
 20
645.6608268458706
 30
0.0
 11
1808.557407419489
 21
645.6608268458706
 31
0.0
  0
ARC
  5
6E65
330
1E
100
AcDbEntity
  8
躯体と製品
  6
Continuous
 62
     3
100
AcDbCircle
 10
1808.557407419489
 20
645.9608268458704
 30
0.0
 40
0.2999999999999998
100
AcDbArc
 50
270.0
 51
0.0
  0
LINE
  5
6E66
330
1E
100
AcDbEntity
  8
躯体と製品
  6
Continuous
 62
     3
100
AcDbLine
 10
1808.857407419489
 20
653.3608268458706
 30
0.0
 11
1808.857407419489
 21
645.9608268458704
 31
0.0
  0
ARC
  5
6E67
330
1E
100
AcDbEntity
  8
躯体と製品
  6
Continuous
 62
     3
100
AcDbCircle
 10
1808.557407419489
 20
653.3608268458706
 30
0.0
 40
0.2999999999999998
100
AcDbArc
 50
0.0
 51
90.0
  0
LINE
  5
6E68
330
1E
100
AcDbEntity
  8
躯体と製品
  6
Continuous
 62
     3
100
AcDbLine
 10
1808.357407419489
 20
644.4608268458704
 30
0.0
 11
1804.657407419489
 21
644.4608268458704
 31
0.0
  0
ARC
  5
6E69
330
1E
100
AcDbEntity
  8
躯体と製品
  6
Continuous
 62
     3
100
AcDbCircle
 10
1804.657407419489
 20
645.4608268458704
 30
0.0
 40
1.0
100
AcDbArc
 50
180.0
 51
270.0
  0
ARC
  5
6E6A
330
1E
100
AcDbEntity
  8
躯体と製品
  6
Continuous
 62
     3
100
AcDbCircle
 10
1808.357407419489
 20
643.9608268458704
 30
0.0
 40
0.5
100
AcDbArc
 50
0.0
 51
90.0
  0
LINE
  5
6E6B
330
1E
100
AcDbEntity
  8
躯体と製品
  6
Continuous
 62
     3
100
AcDbLine
 10
1808.357407419489
 20
654.8608268458706
 30
0.0
 11
1804.657407419489
 21
654.8608268458706
 31
0.0
  0
ARC
  5
6E6C
330
1E
100
AcDbEntity
  8
躯体と製品
  6
Continuous
 62
     3
100
AcDbCircle
 10
1804.657407419489
 20
653.8608268458706
 30
0.0
 40
1.0
100
AcDbArc
 50
90.0
 51
180.0
  0
ARC
  5
6E6D
330
1E
100
AcDbEntity
  8
躯体と製品
  6
Continuous
 62
     3
100
AcDbCircle
 10
1808.357407419489
 20
655.3608268458706
 30
0.0
 40
0.5
100
AcDbArc
 50
270.0
 51
0.0
  0
LINE
  5
6E6E
330
1E
100
AcDbEntity
  8
躯体と製品
  6
Continuous
 62
     3
100
AcDbLine
 10
1808.857407419489
 20
655.3608268458706
 30
0.0
 11
1808.857407419489
 21
661.9108268458703
 31
0.0
  0
ARC
  5
6E6F
330
1E
100
AcDbEntity
  8
躯体と製品
  6
Continuous
 62
     3
100
AcDbCircle
 10
1809.607407419489
 20
661.9108268458703
 30
0.0
 40
0.75
100
AcDbArc
 50
0.0
 51
180.0
  0
LINE
  5
6E70
330
1E
100
AcDbEntity
  8
躯体と製品
  6
Continuous
 62
     3
100
AcDbLine
 10
1808.857407419489
 20
643.9608268458704
 30
0.0
 11
1808.857407419489
 21
607.1608268458706
 31
0.0
  0
ARC
  5
6E71
330
1E
100
AcDbEntity
  8
躯体と製品
  6
Continuous
 62
     3
100
AcDbCircle
 10
1815.257407419489
 20
605.2608268458705
 30
0.0
 40
0.5999999999999998
100
AcDbArc
 50
270.0
 51
90.0
  0
LINE
  5
6E72
330
1E
100
AcDbEntity
  8
躯体と製品
  6
Continuous
 62
     3
100
AcDbLine
 10
1815.257407419489
 20
605.8608268458706
 30
0.0
 11
1811.357407419489
 21
605.8608268458706
 31
0.0
  0
ARC
  5
6E73
330
1E
100
AcDbEntity
  8
躯体と製品
  6
Continuous
 62
     3
100
AcDbCircle
 10
1811.357407419489
 20
606.8608268458706
 30
0.0
 40
1.0
100
AcDbArc
 50
180.0
 51
270.0
  0
LINE
  5
6E74
330
1E
100
AcDbEntity
  8
躯体と製品
  6
Continuous
 62
     7
100
AcDbLine
 10
1458.800883787778
 20
715.211114918302
 30
0.0
 11
1457.8821068286
 21
713.3072990703421
 31
0.0
  0
ARC
  5
6E75
330
1E
100
AcDbEntity
  8
躯体と製品
  6
Continuous
 62
     7
100
AcDbCircle
 10
1455.000159933605
 20
714.6981197253619
 30
0.0
 40
3.2
100
AcDbArc
 50
218.2489213271288
 51
334.2381549109626
  0
LINE
  5
6E76
330
1E
100
AcDbEntity
  8
躯体と製品
  6
Continuous
 62
     7
100
AcDbLine
 10
1459.689172189083
 20
715.211114918302
 30
0.0
 11
1458.602593552349
 21
712.9595939065873
 31
0.0
  0
ARC
  5
6E77
330
1E
100
AcDbEntity
  8
躯体と製品
  6
Continuous
 62
     7
100
AcDbCircle
 10
1451.18245036061
 20
713.7259604707846
 30
0.0
 40
0.4
100
AcDbArc
 50
38.2489213271288
 51
218.2489213271288
  0
LINE
  5
6E78
330
1E
100
AcDbEntity
  8
躯体と製品
  6
Continuous
 62
     7
100
AcDbLine
 10
1451.496581795029
 20
713.9735921365909
 30
0.0
 11
1452.487108458253
 21
712.7170663989145
 31
0.0
  0
LINE
  5
6E79
330
1E
100
AcDbEntity
  8
躯体と製品
  6
Continuous
 62
     7
100
AcDbLine
 10
1450.868318926191
 20
713.4783288049789
 30
0.0
 11
1451.858845589415
 21
712.2218030673027
 31
0.0
  0
ARC
  5
6E7A
330
1E
100
AcDbEntity
  8
躯体と製品
  6
Continuous
 62
     7
100
AcDbCircle
 10
1455.000159933605
 20
714.6981197253619
 30
0.0
 40
4.0
100
AcDbArc
 50
218.2489213271288
 51
334.2381549109626
  0
LINE
  5
6E7B
330
1E
100
AcDbEntity
  8
躯体と製品
  6
Continuous
 62
     7
100
AcDbLine
 10
1450.689172189083
 20
715.211114918302
 30
0.0
 11
1459.689172189083
 21
715.211114918302
 31
0.0
  0
ARC
  5
6E7C
330
1E
100
AcDbEntity
  8
躯体と製品
  6
Continuous
 62
     7
100
AcDbCircle
 10
1459.189172189083
 20
715.711114918302
 30
0.0
 40
0.5
100
AcDbArc
 50
0.0
 51
90.0
  0
LINE
  5
6E7D
330
1E
100
AcDbEntity
  8
躯体と製品
  6
Continuous
 62
     7
100
AcDbLine
 10
1459.689172189083
 20
715.711114918302
 30
0.0
 11
1459.689172189083
 21
715.211114918302
 31
0.0
  0
LINE
  5
6E7E
330
1E
100
AcDbEntity
  8
躯体と製品
  6
Continuous
 62
     7
100
AcDbLine
 10
1450.989172189083
 20
716.211114918302
 30
0.0
 11
1459.189172189083
 21
716.211114918302
 31
0.0
  0
ARC
  5
6E7F
330
1E
100
AcDbEntity
  8
躯体と製品
  6
Continuous
 62
     7
100
AcDbCircle
 10
1450.689172189083
 20
716.211114918302
 30
0.0
 40
1.0
100
AcDbArc
 50
180.0
 51
270.0
  0
ARC
  5
6E80
330
1E
100
AcDbEntity
  8
躯体と製品
  6
Continuous
 62
     7
100
AcDbCircle
 10
1450.989172189083
 20
716.5111149183019
 30
0.0
 40
0.2999999999999999
100
AcDbArc
 50
180.0
 51
270.0
  0
LINE
  5
6E81
330
1E
100
AcDbEntity
  8
躯体と製品
  6
Continuous
 62
     3
100
AcDbLine
 10
1431.189172189083
 20
708.7111149183019
 30
0.0
 11
1431.189172189083
 21
726.7111149183019
 31
0.0
  0
LINE
  5
6E82
330
1E
100
AcDbEntity
  8
躯体と製品
  6
Continuous
 62
     3
100
AcDbLine
 10
1428.689172189083
 20
728.711114918302
 30
0.0
 11
1428.689172189083
 21
727.2111149183019
 31
0.0
  0
LINE
  5
6E83
330
1E
100
AcDbEntity
  8
躯体と製品
  6
Continuous
 62
     3
100
AcDbLine
 10
1428.689172189083
 20
689.2111149183019
 30
0.0
 11
1428.689172189083
 21
687.7111149183019
 31
0.0
  0
LINE
  5
6E84
330
1E
100
AcDbEntity
  8
躯体と製品
  6
Continuous
 62
     3
100
AcDbLine
 10
1437.439172189083
 20
681.2111149183019
 30
0.0
 11
1436.189172189083
 21
681.2111149183019
 31
0.0
  0
LINE
  5
6E85
330
1E
100
AcDbEntity
  8
躯体と製品
  6
Continuous
 62
     3
100
AcDbLine
 10
1437.439172189083
 20
677.2111149183019
 30
0.0
 11
1436.189172189083
 21
677.2111149183019
 31
0.0
  0
ARC
  5
6E86
330
1E
100
AcDbEntity
  8
躯体と製品
  6
Continuous
 62
     3
100
AcDbCircle
 10
1429.189172189083
 20
687.211114918302
 30
0.0
 40
0.5
100
AcDbArc
 50
0.0
 51
90.0
  0
LINE
  5
6E87
330
1E
100
AcDbEntity
  8
躯体と製品
  6
Continuous
 62
     3
100
AcDbLine
 10
1429.189172189083
 20
687.7111149183019
 30
0.0
 11
1428.689172189083
 21
687.7111149183019
 31
0.0
  0
LINE
  5
6E88
330
1E
100
AcDbEntity
  8
躯体と製品
  6
Continuous
 62
     3
100
AcDbLine
 10
1437.439172189083
 20
675.7111149183018
 30
0.0
 11
1428.689172189083
 21
675.7111149183018
 31
0.0
  0
LINE
  5
6E89
330
1E
100
AcDbEntity
  8
躯体と製品
  6
Continuous
 62
     3
100
AcDbLine
 10
1428.689172189083
 20
675.7111149183018
 30
0.0
 11
1428.689172189083
 21
677.2111149183019
 31
0.0
  0
LINE
  5
6E8A
330
1E
100
AcDbEntity
  8
躯体と製品
  6
Continuous
 62
     3
100
AcDbLine
 10
1429.189172189083
 20
677.2111149183019
 30
0.0
 11
1428.689172189083
 21
677.2111149183019
 31
0.0
  0
ARC
  5
6E8B
330
1E
100
AcDbEntity
  8
躯体と製品
  6
Continuous
 62
     3
100
AcDbCircle
 10
1429.189172189083
 20
677.711114918302
 30
0.0
 40
0.5
100
AcDbArc
 50
270.0
 51
0.0
  0
LINE
  5
6E8C
330
1E
100
AcDbEntity
  8
躯体と製品
  6
Continuous
 62
     3
100
AcDbLine
 10
1429.689172189083
 20
677.711114918302
 30
0.0
 11
1429.689172189083
 21
687.211114918302
 31
0.0
  0
LINE
  5
6E8D
330
1E
100
AcDbEntity
  8
躯体と製品
  6
Continuous
 62
     3
100
AcDbLine
 10
1431.189172189083
 20
677.711114918302
 30
0.0
 11
1431.189172189083
 21
680.7111149183017
 31
0.0
  0
LINE
  5
6E8E
330
1E
100
AcDbEntity
  8
躯体と製品
  6
Continuous
 62
     3
100
AcDbLine
 10
1436.189172189083
 20
677.2111149183019
 30
0.0
 11
1436.189172189083
 21
676.7111149183019
 31
0.0
  0
LINE
  5
6E8F
330
1E
100
AcDbEntity
  8
躯体と製品
  6
Continuous
 62
     3
100
AcDbLine
 10
1435.189172189083
 20
677.2111149183019
 30
0.0
 11
1436.189172189083
 21
676.7111149183019
 31
0.0
  0
LINE
  5
6E90
330
1E
100
AcDbEntity
  8
躯体と製品
  6
Continuous
 62
     3
100
AcDbLine
 10
1435.189172189083
 20
677.2111149183019
 30
0.0
 11
1435.189172189083
 21
676.7111149183019
 31
0.0
  0
LINE
  5
6E91
330
1E
100
AcDbEntity
  8
躯体と製品
  6
Continuous
 62
     3
100
AcDbLine
 10
1434.189172189083
 20
677.2111149183019
 30
0.0
 11
1435.189172189083
 21
676.7111149183019
 31
0.0
  0
ARC
  5
6E92
330
1E
100
AcDbEntity
  8
躯体と製品
  6
Continuous
 62
     3
100
AcDbCircle
 10
1437.439172189083
 20
676.461114918302
 30
0.0
 40
0.75
100
AcDbArc
 50
270.0
 51
90.0
  0
LINE
  5
6E93
330
1E
100
AcDbEntity
  8
躯体と製品
  6
Continuous
 62
     3
100
AcDbLine
 10
1431.689172189083
 20
677.2111149183019
 30
0.0
 11
1434.189172189083
 21
677.2111149183019
 31
0.0
  0
ARC
  5
6E94
330
1E
100
AcDbEntity
  8
躯体と製品
  6
Continuous
 62
     3
100
AcDbCircle
 10
1431.689172189083
 20
677.711114918302
 30
0.0
 40
0.5
100
AcDbArc
 50
180.0
 51
270.0
  0
ARC
  5
6E95
330
1E
100
AcDbEntity
  8
躯体と製品
  6
Continuous
 62
     3
100
AcDbCircle
 10
1442.439172189083
 20
688.461114918302
 30
0.0
 40
0.75
100
AcDbArc
 50
270.0
 51
90.0
  0
LINE
  5
6E96
330
1E
100
AcDbEntity
  8
躯体と製品
  6
Continuous
 62
     3
100
AcDbLine
 10
1431.689172189083
 20
689.2111149183019
 30
0.0
 11
1442.439172189083
 21
689.2111149183019
 31
0.0
  0
ARC
  5
6E97
330
1E
100
AcDbEntity
  8
躯体と製品
  6
Continuous
 62
     3
100
AcDbCircle
 10
1431.689172189083
 20
689.7111149183019
 30
0.0
 40
0.5
100
AcDbArc
 50
180.0
 51
270.0
  0
LINE
  5
6E98
330
1E
100
AcDbEntity
  8
躯体と製品
  6
Continuous
 62
     3
100
AcDbLine
 10
1431.189172189083
 20
689.7111149183019
 30
0.0
 11
1431.189172189083
 21
707.711114918302
 31
0.0
  0
LINE
  5
6E99
330
1E
100
AcDbEntity
  8
躯体と製品
  6
Continuous
 62
     3
100
AcDbLine
 10
1431.689172189083
 20
687.7111149183019
 30
0.0
 11
1442.439172189083
 21
687.7111149183019
 31
0.0
  0
ARC
  5
6E9A
330
1E
100
AcDbEntity
  8
躯体と製品
  6
Continuous
 62
     3
100
AcDbCircle
 10
1431.689172189083
 20
687.211114918302
 30
0.0
 40
0.5
100
AcDbArc
 50
90.0
 51
180.0
  0
LINE
  5
6E9B
330
1E
100
AcDbEntity
  8
躯体と製品
  6
Continuous
 62
     3
100
AcDbLine
 10
1431.189172189083
 20
687.211114918302
 30
0.0
 11
1431.189172189083
 21
683.2111149183019
 31
0.0
  0
LINE
  5
6E9C
330
1E
100
AcDbEntity
  8
躯体と製品
  6
Continuous
 62
     3
100
AcDbLine
 10
1441.189172189083
 20
727.711114918302
 30
0.0
 11
1441.189172189083
 21
728.211114918302
 31
0.0
  0
ARC
  5
6E9D
330
1E
100
AcDbEntity
  8
躯体と製品
  6
Continuous
 62
     3
100
AcDbCircle
 10
1440.689172189083
 20
727.711114918302
 30
0.0
 40
0.5
100
AcDbArc
 50
270.0
 51
0.0
  0
LINE
  5
6E9E
330
1E
100
AcDbEntity
  8
躯体と製品
  6
Continuous
 62
     3
100
AcDbLine
 10
1440.689172189083
 20
727.2111149183019
 30
0.0
 11
1431.689172189083
 21
727.2111149183019
 31
0.0
  0
ARC
  5
6E9F
330
1E
100
AcDbEntity
  8
躯体と製品
  6
Continuous
 62
     3
100
AcDbCircle
 10
1440.689172189083
 20
728.211114918302
 30
0.0
 40
0.5
100
AcDbArc
 50
0.0
 51
90.0
  0
ARC
  5
6EA0
330
1E
100
AcDbEntity
  8
躯体と製品
  6
Continuous
 62
     3
100
AcDbCircle
 10
1431.689172189083
 20
726.7111149183019
 30
0.0
 40
0.5
100
AcDbArc
 50
90.0
 51
180.0
  0
ARC
  5
6EA1
330
1E
100
AcDbEntity
  8
躯体と製品
  6
Continuous
 62
     3
100
AcDbCircle
 10
1437.439172189083
 20
681.9611149183018
 30
0.0
 40
0.75
100
AcDbArc
 50
270.0
 51
90.0
  0
LINE
  5
6EA2
330
1E
100
AcDbEntity
  8
躯体と製品
  6
Continuous
 62
     3
100
AcDbLine
 10
1436.189172189083
 20
681.711114918302
 30
0.0
 11
1436.189172189083
 21
681.2111149183019
 31
0.0
  0
LINE
  5
6EA3
330
1E
100
AcDbEntity
  8
躯体と製品
  6
Continuous
 62
     3
100
AcDbLine
 10
1435.189172189083
 20
681.2111149183019
 30
0.0
 11
1436.189172189083
 21
681.711114918302
 31
0.0
  0
LINE
  5
6EA4
330
1E
100
AcDbEntity
  8
躯体と製品
  6
Continuous
 62
     3
100
AcDbLine
 10
1435.189172189083
 20
681.711114918302
 30
0.0
 11
1435.189172189083
 21
681.2111149183019
 31
0.0
  0
LINE
  5
6EA5
330
1E
100
AcDbEntity
  8
躯体と製品
  6
Continuous
 62
     3
100
AcDbLine
 10
1434.189172189083
 20
681.2111149183019
 30
0.0
 11
1435.189172189083
 21
681.711114918302
 31
0.0
  0
LINE
  5
6EA6
330
1E
100
AcDbEntity
  8
躯体と製品
  6
Continuous
 62
     3
100
AcDbLine
 10
1431.689172189083
 20
681.2111149183019
 30
0.0
 11
1434.189172189083
 21
681.2111149183019
 31
0.0
  0
ARC
  5
6EA7
330
1E
100
AcDbEntity
  8
躯体と製品
  6
Continuous
 62
     3
100
AcDbCircle
 10
1431.689172189083
 20
680.7111149183017
 30
0.0
 40
0.5
100
AcDbArc
 50
90.0
 51
180.0
  0
ARC
  5
6EA8
330
1E
100
AcDbEntity
  8
躯体と製品
  6
Continuous
 62
     3
100
AcDbCircle
 10
1431.689172189083
 20
683.2111149183019
 30
0.0
 40
0.5
100
AcDbArc
 50
180.0
 51
270.0
  0
LINE
  5
6EA9
330
1E
100
AcDbEntity
  8
躯体と製品
  6
Continuous
 62
     3
100
AcDbLine
 10
1431.689172189083
 20
682.711114918302
 30
0.0
 11
1437.439172189083
 21
682.711114918302
 31
0.0
  0
LINE
  5
6EAA
330
1E
100
AcDbEntity
  8
躯体と製品
  6
Continuous
 62
     3
100
AcDbLine
 10
1431.689172189083
 20
728.711114918302
 30
0.0
 11
1440.689172189083
 21
728.711114918302
 31
0.0
  0
ARC
  5
6EAB
330
1E
100
AcDbEntity
  8
躯体と製品
  6
Continuous
 62
     3
100
AcDbCircle
 10
1431.689172189083
 20
729.2111149183019
 30
0.0
 40
0.5
100
AcDbArc
 50
180.0
 51
270.0
  0
LINE
  5
6EAC
330
1E
100
AcDbEntity
  8
躯体と製品
  6
Continuous
 62
     3
100
AcDbLine
 10
1429.189172189083
 20
689.2111149183019
 30
0.0
 11
1428.689172189083
 21
689.2111149183019
 31
0.0
  0
LINE
  5
6EAD
330
1E
100
AcDbEntity
  8
躯体と製品
  6
Continuous
 62
     3
100
AcDbLine
 10
1429.189172189083
 20
703.211114918302
 30
0.0
 11
1429.189172189083
 21
689.2111149183019
 31
0.0
  0
LINE
  5
6EAE
330
1E
100
AcDbEntity
  8
躯体と製品
  6
Continuous
 62
     3
100
AcDbLine
 10
1429.189172189083
 20
727.2111149183019
 30
0.0
 11
1429.189172189083
 21
713.2111149183018
 31
0.0
  0
LINE
  5
6EAF
330
1E
100
AcDbEntity
  8
躯体と製品
  6
Continuous
 62
     3
100
AcDbLine
 10
1428.689172189083
 20
727.2111149183019
 30
0.0
 11
1429.189172189083
 21
727.2111149183019
 31
0.0
  0
LINE
  5
6EB0
330
1E
100
AcDbEntity
  8
躯体と製品
  6
Continuous
 62
     3
100
AcDbLine
 10
1429.189172189083
 20
728.711114918302
 30
0.0
 11
1428.689172189083
 21
728.711114918302
 31
0.0
  0
LINE
  5
6EB1
330
1E
100
AcDbEntity
  8
躯体と製品
  6
Continuous
 62
     3
100
AcDbLine
 10
1431.189172189083
 20
729.2111149183019
 30
0.0
 11
1431.189172189083
 21
739.7111149183019
 31
0.0
  0
LINE
  5
6EB2
330
1E
100
AcDbEntity
  8
躯体と製品
  6
Continuous
 62
     3
100
AcDbLine
 10
1429.189172189083
 20
740.211114918302
 30
0.0
 11
1429.189172189083
 21
728.711114918302
 31
0.0
  0
ARC
  5
6EB3
330
1E
100
AcDbEntity
  8
躯体と製品
  6
Continuous
 62
     3
100
AcDbCircle
 10
1439.089172189083
 20
761.3111149183019
 30
0.0
 40
0.5999999999999999
100
AcDbArc
 50
270.0
 51
90.0
  0
ARC
  5
6EB4
330
1E
100
AcDbEntity
  8
躯体と製品
  6
Continuous
 62
     3
100
AcDbCircle
 10
1439.089172189083
 20
756.111114918302
 30
0.0
 40
0.5999999999999999
100
AcDbArc
 50
270.0
 51
90.0
  0
LINE
  5
6EB5
330
1E
100
AcDbEntity
  8
躯体と製品
  6
Continuous
 62
     3
100
AcDbLine
 10
1428.689172189083
 20
741.7111149183019
 30
0.0
 11
1428.689172189083
 21
740.211114918302
 31
0.0
  0
LINE
  5
6EB6
330
1E
100
AcDbEntity
  8
躯体と製品
  6
Continuous
 62
     3
100
AcDbLine
 10
1437.689172189083
 20
761.9111149183019
 30
0.0
 11
1439.089172189083
 21
761.9111149183019
 31
0.0
  0
LINE
  5
6EB7
330
1E
100
AcDbEntity
  8
躯体と製品
  6
Continuous
 62
     3
100
AcDbLine
 10
1438.389172189083
 20
750.0111149183019
 30
0.0
 11
1438.389172189083
 21
755.5111149183019
 31
0.0
  0
LINE
  5
6EB8
330
1E
100
AcDbEntity
  8
躯体と製品
  6
Continuous
 62
     3
100
AcDbLine
 10
1438.389172189083
 20
755.5111149183019
 30
0.0
 11
1439.089172189083
 21
755.5111149183019
 31
0.0
  0
LINE
  5
6EB9
330
1E
100
AcDbEntity
  8
躯体と製品
  6
Continuous
 62
     3
100
AcDbLine
 10
1437.689172189083
 20
762.7111149183019
 30
0.0
 11
1437.689172189083
 21
761.9111149183019
 31
0.0
  0
LINE
  5
6EBA
330
1E
100
AcDbEntity
  8
躯体と製品
  6
Continuous
 62
     3
100
AcDbLine
 10
1428.689172189083
 20
762.211114918302
 30
0.0
 11
1428.689172189083
 21
754.7111149183019
 31
0.0
  0
ARC
  5
6EBB
330
1E
100
AcDbEntity
  8
躯体と製品
  6
Continuous
 62
     3
100
AcDbCircle
 10
1429.189172189083
 20
762.211114918302
 30
0.0
 40
0.5
100
AcDbArc
 50
90.0
 51
180.0
  0
LINE
  5
6EBC
330
1E
100
AcDbEntity
  8
躯体と製品
  6
Continuous
 62
     3
100
AcDbLine
 10
1429.189172189083
 20
762.7111149183019
 30
0.0
 11
1437.689172189083
 21
762.7111149183019
 31
0.0
  0
LINE
  5
6EBD
330
1E
100
AcDbEntity
  8
躯体と製品
  6
Continuous
 62
     3
100
AcDbLine
 10
1432.189172189083
 20
757.211114918302
 30
0.0
 11
1431.689172189083
 21
756.711114918302
 31
0.0
  0
LINE
  5
6EBE
330
1E
100
AcDbEntity
  8
躯体と製品
  6
Continuous
 62
     3
100
AcDbLine
 10
1432.689172189083
 20
756.711114918302
 30
0.0
 11
1432.189172189083
 21
757.211114918302
 31
0.0
  0
LINE
  5
6EBF
330
1E
100
AcDbEntity
  8
躯体と製品
  6
Continuous
 62
     3
100
AcDbLine
 10
1433.189172189083
 20
757.211114918302
 30
0.0
 11
1432.689172189083
 21
756.711114918302
 31
0.0
  0
LINE
  5
6EC0
330
1E
100
AcDbEntity
  8
躯体と製品
  6
Continuous
 62
     3
100
AcDbLine
 10
1433.689172189083
 20
756.711114918302
 30
0.0
 11
1433.189172189083
 21
757.211114918302
 31
0.0
  0
LINE
  5
6EC1
330
1E
100
AcDbEntity
  8
躯体と製品
  6
Continuous
 62
     3
100
AcDbLine
 10
1434.189172189083
 20
757.211114918302
 30
0.0
 11
1433.689172189083
 21
756.711114918302
 31
0.0
  0
LINE
  5
6EC2
330
1E
100
AcDbEntity
  8
躯体と製品
  6
Continuous
 62
     3
100
AcDbLine
 10
1434.689172189083
 20
756.711114918302
 30
0.0
 11
1434.189172189083
 21
757.211114918302
 31
0.0
  0
LINE
  5
6EC3
330
1E
100
AcDbEntity
  8
躯体と製品
  6
Continuous
 62
     3
100
AcDbLine
 10
1435.189172189083
 20
757.211114918302
 30
0.0
 11
1434.689172189083
 21
756.711114918302
 31
0.0
  0
LINE
  5
6EC4
330
1E
100
AcDbEntity
  8
躯体と製品
  6
Continuous
 62
     3
100
AcDbLine
 10
1435.689172189083
 20
756.711114918302
 30
0.0
 11
1435.189172189083
 21
757.211114918302
 31
0.0
  0
LINE
  5
6EC5
330
1E
100
AcDbEntity
  8
躯体と製品
  6
Continuous
 62
     3
100
AcDbLine
 10
1436.189172189083
 20
757.211114918302
 30
0.0
 11
1435.689172189083
 21
756.711114918302
 31
0.0
  0
LINE
  5
6EC6
330
1E
100
AcDbEntity
  8
躯体と製品
  6
Continuous
 62
     3
100
AcDbLine
 10
1436.689172189083
 20
756.711114918302
 30
0.0
 11
1436.189172189083
 21
757.211114918302
 31
0.0
  0
LINE
  5
6EC7
330
1E
100
AcDbEntity
  8
躯体と製品
  6
Continuous
 62
     3
100
AcDbLine
 10
1432.189172189083
 20
760.2111149183019
 30
0.0
 11
1431.689172189083
 21
760.7111149183019
 31
0.0
  0
LINE
  5
6EC8
330
1E
100
AcDbEntity
  8
躯体と製品
  6
Continuous
 62
     3
100
AcDbLine
 10
1432.689172189083
 20
760.7111149183019
 30
0.0
 11
1432.189172189083
 21
760.2111149183019
 31
0.0
  0
LINE
  5
6EC9
330
1E
100
AcDbEntity
  8
躯体と製品
  6
Continuous
 62
     3
100
AcDbLine
 10
1433.189172189083
 20
760.2111149183019
 30
0.0
 11
1432.689172189083
 21
760.7111149183019
 31
0.0
  0
LINE
  5
6ECA
330
1E
100
AcDbEntity
  8
躯体と製品
  6
Continuous
 62
     3
100
AcDbLine
 10
1433.689172189083
 20
760.7111149183019
 30
0.0
 11
1433.189172189083
 21
760.2111149183019
 31
0.0
  0
LINE
  5
6ECB
330
1E
100
AcDbEntity
  8
躯体と製品
  6
Continuous
 62
     3
100
AcDbLine
 10
1434.189172189083
 20
760.2111149183019
 30
0.0
 11
1433.689172189083
 21
760.7111149183019
 31
0.0
  0
LINE
  5
6ECC
330
1E
100
AcDbEntity
  8
躯体と製品
  6
Continuous
 62
     3
100
AcDbLine
 10
1434.689172189083
 20
760.7111149183019
 30
0.0
 11
1434.189172189083
 21
760.2111149183019
 31
0.0
  0
LINE
  5
6ECD
330
1E
100
AcDbEntity
  8
躯体と製品
  6
Continuous
 62
     3
100
AcDbLine
 10
1435.189172189083
 20
760.2111149183019
 30
0.0
 11
1434.689172189083
 21
760.7111149183019
 31
0.0
  0
LINE
  5
6ECE
330
1E
100
AcDbEntity
  8
躯体と製品
  6
Continuous
 62
     3
100
AcDbLine
 10
1435.689172189083
 20
760.7111149183019
 30
0.0
 11
1435.189172189083
 21
760.2111149183019
 31
0.0
  0
LINE
  5
6ECF
330
1E
100
AcDbEntity
  8
躯体と製品
  6
Continuous
 62
     3
100
AcDbLine
 10
1436.189172189083
 20
760.2111149183019
 30
0.0
 11
1435.689172189083
 21
760.7111149183019
 31
0.0
  0
LINE
  5
6ED0
330
1E
100
AcDbEntity
  8
躯体と製品
  6
Continuous
 62
     3
100
AcDbLine
 10
1436.689172189083
 20
760.7111149183019
 30
0.0
 11
1436.189172189083
 21
760.2111149183019
 31
0.0
  0
LINE
  5
6ED1
330
1E
100
AcDbEntity
  8
躯体と製品
  6
Continuous
 62
     3
100
AcDbLine
 10
1436.689172189083
 20
756.711114918302
 30
0.0
 11
1439.189172189083
 21
756.711114918302
 31
0.0
  0
LINE
  5
6ED2
330
1E
100
AcDbEntity
  8
躯体と製品
  6
Continuous
 62
     3
100
AcDbLine
 10
1436.689172189083
 20
760.7111149183019
 30
0.0
 11
1439.189172189083
 21
760.7111149183019
 31
0.0
  0
ARC
  5
6ED3
330
1E
100
AcDbEntity
  8
躯体と製品
  6
Continuous
 62
     3
100
AcDbCircle
 10
1430.489172189083
 20
760.4111149183022
 30
0.0
 40
0.2999999999999999
100
AcDbArc
 50
90.0
 51
180.0
  0
LINE
  5
6ED4
330
1E
100
AcDbEntity
  8
躯体と製品
  6
Continuous
 62
     3
100
AcDbLine
 10
1430.489172189083
 20
760.7111149183019
 30
0.0
 11
1431.689172189083
 21
760.7111149183019
 31
0.0
  0
LINE
  5
6ED5
330
1E
100
AcDbEntity
  8
躯体と製品
  6
Continuous
 62
     3
100
AcDbLine
 10
1430.489172189083
 20
756.711114918302
 30
0.0
 11
1431.689172189083
 21
756.711114918302
 31
0.0
  0
ARC
  5
6ED6
330
1E
100
AcDbEntity
  8
躯体と製品
  6
Continuous
 62
     3
100
AcDbCircle
 10
1430.489172189083
 20
757.0111149183019
 30
0.0
 40
0.2999999999999999
100
AcDbArc
 50
180.0
 51
270.0
  0
LINE
  5
6ED7
330
1E
100
AcDbEntity
  8
躯体と製品
  6
Continuous
 62
     3
100
AcDbLine
 10
1430.189172189083
 20
757.0111149183019
 30
0.0
 11
1430.189172189083
 21
760.4111149183022
 31
0.0
  0
ARC
  5
6ED8
330
1E
100
AcDbEntity
  8
躯体と製品
  6
Continuous
 62
     3
100
AcDbCircle
 10
1434.789172189083
 20
734.8111149183019
 30
0.0
 40
0.5999999999999999
100
AcDbArc
 50
90.0
 51
270.0
  0
ARC
  5
6ED9
330
1E
100
AcDbEntity
  8
躯体と製品
  6
Continuous
 62
     3
100
AcDbCircle
 10
1435.689172189083
 20
735.911114918302
 30
0.0
 40
0.5
100
AcDbArc
 50
270.0
 51
0.0
  0
LINE
  5
6EDA
330
1E
100
AcDbEntity
  8
躯体と製品
  6
Continuous
 62
     3
100
AcDbLine
 10
1435.689172189083
 20
735.4111149183022
 30
0.0
 11
1434.789172189083
 21
735.4111149183022
 31
0.0
  0
LINE
  5
6EDB
330
1E
100
AcDbEntity
  8
躯体と製品
  6
Continuous
 62
     3
100
AcDbLine
 10
1435.689172189083
 20
740.211114918302
 30
0.0
 11
1431.689172189083
 21
740.211114918302
 31
0.0
  0
ARC
  5
6EDC
330
1E
100
AcDbEntity
  8
躯体と製品
  6
Continuous
 62
     3
100
AcDbCircle
 10
1435.689172189083
 20
739.7111149183019
 30
0.0
 40
0.5
100
AcDbArc
 50
0.0
 51
90.0
  0
LINE
  5
6EDD
330
1E
100
AcDbEntity
  8
躯体と製品
  6
Continuous
 62
     3
100
AcDbLine
 10
1436.189172189083
 20
739.7111149183019
 30
0.0
 11
1436.189172189083
 21
735.911114918302
 31
0.0
  0
LINE
  5
6EDE
330
1E
100
AcDbEntity
  8
躯体と製品
  6
Continuous
 62
     3
100
AcDbLine
 10
1436.689172189083
 20
734.2111149183018
 30
0.0
 11
1434.789172189083
 21
734.2111149183018
 31
0.0
  0
ARC
  5
6EDF
330
1E
100
AcDbEntity
  8
躯体と製品
  6
Continuous
 62
     3
100
AcDbCircle
 10
1436.689172189083
 20
735.2111149183019
 30
0.0
 40
1.0
100
AcDbArc
 50
270.0
 51
0.0
  0
LINE
  5
6EE0
330
1E
100
AcDbEntity
  8
躯体と製品
  6
Continuous
 62
     3
100
AcDbLine
 10
1437.689172189083
 20
735.2111149183019
 30
0.0
 11
1437.689172189083
 21
741.211114918302
 31
0.0
  0
ARC
  5
6EE1
330
1E
100
AcDbEntity
  8
躯体と製品
  6
Continuous
 62
     3
100
AcDbCircle
 10
1437.189172189083
 20
741.211114918302
 30
0.0
 40
0.5
100
AcDbArc
 50
0.0
 51
90.0
  0
LINE
  5
6EE2
330
1E
100
AcDbEntity
  8
躯体と製品
  6
Continuous
 62
     3
100
AcDbLine
 10
1437.189172189083
 20
741.7111149183019
 30
0.0
 11
1431.689172189083
 21
741.7111149183019
 31
0.0
  0
ARC
  5
6EE3
330
1E
100
AcDbEntity
  8
躯体と製品
  6
Continuous
 62
     3
100
AcDbCircle
 10
1431.689172189083
 20
742.2111149183019
 30
0.0
 40
0.5
100
AcDbArc
 50
180.0
 51
270.0
  0
ARC
  5
6EE4
330
1E
100
AcDbEntity
  8
躯体と製品
  6
Continuous
 62
     3
100
AcDbCircle
 10
1431.689172189083
 20
739.7111149183019
 30
0.0
 40
0.5
100
AcDbArc
 50
90.0
 51
180.0
  0
ARC
  5
6EE5
330
1E
100
AcDbEntity
  8
躯体と製品
  6
Continuous
 62
     3
100
AcDbCircle
 10
1443.289172189083
 20
749.1111149183018
 30
0.0
 40
0.5999999999999999
100
AcDbArc
 50
270.0
 51
90.0
  0
LINE
  5
6EE6
330
1E
100
AcDbEntity
  8
躯体と製品
  6
Continuous
 62
     3
100
AcDbLine
 10
1431.189172189083
 20
754.2111149183019
 30
0.0
 11
1431.189172189083
 21
742.2111149183019
 31
0.0
  0
ARC
  5
6EE7
330
1E
100
AcDbEntity
  8
躯体と製品
  6
Continuous
 62
     3
100
AcDbCircle
 10
1431.689172189083
 20
754.2111149183019
 30
0.0
 40
0.5
100
AcDbArc
 50
90.0
 51
180.0
  0
LINE
  5
6EE8
330
1E
100
AcDbEntity
  8
躯体と製品
  6
Continuous
 62
     3
100
AcDbLine
 10
1436.689172189083
 20
754.7111149183019
 30
0.0
 11
1431.689172189083
 21
754.7111149183019
 31
0.0
  0
ARC
  5
6EE9
330
1E
100
AcDbEntity
  8
躯体と製品
  6
Continuous
 62
     3
100
AcDbCircle
 10
1436.689172189083
 20
754.2111149183019
 30
0.0
 40
0.5
100
AcDbArc
 50
0.0
 51
90.0
  0
LINE
  5
6EEA
330
1E
100
AcDbEntity
  8
躯体と製品
  6
Continuous
 62
     3
100
AcDbLine
 10
1438.189172189083
 20
748.5111149183019
 30
0.0
 11
1443.289172189083
 21
748.5111149183019
 31
0.0
  0
ARC
  5
6EEB
330
1E
100
AcDbEntity
  8
躯体と製品
  6
Continuous
 62
     3
100
AcDbCircle
 10
1438.189172189083
 20
749.5111149183019
 30
0.0
 40
1.0
100
AcDbArc
 50
180.0
 51
270.0
  0
LINE
  5
6EEC
330
1E
100
AcDbEntity
  8
躯体と製品
  6
Continuous
 62
     3
100
AcDbLine
 10
1437.189172189083
 20
749.5111149183019
 30
0.0
 11
1437.189172189083
 21
754.2111149183019
 31
0.0
  0
LINE
  5
6EED
330
1E
100
AcDbEntity
  8
躯体と製品
  6
Continuous
 62
     3
100
AcDbLine
 10
1438.689172189083
 20
749.711114918302
 30
0.0
 11
1443.289172189083
 21
749.711114918302
 31
0.0
  0
ARC
  5
6EEE
330
1E
100
AcDbEntity
  8
躯体と製品
  6
Continuous
 62
     3
100
AcDbCircle
 10
1438.689172189083
 20
750.0111149183019
 30
0.0
 40
0.2999999999999999
100
AcDbArc
 50
180.0
 51
270.0
  0
LINE
  5
6EEF
330
1E
100
AcDbEntity
  8
躯体と製品
  6
Continuous
 62
     3
100
AcDbLine
 10
1428.689172189083
 20
740.211114918302
 30
0.0
 11
1429.189172189083
 21
740.211114918302
 31
0.0
  0
LINE
  5
6EF0
330
1E
100
AcDbEntity
  8
躯体と製品
  6
Continuous
 62
     3
100
AcDbLine
 10
1429.189172189083
 20
741.7111149183019
 30
0.0
 11
1428.689172189083
 21
741.7111149183019
 31
0.0
  0
LINE
  5
6EF1
330
1E
100
AcDbEntity
  8
躯体と製品
  6
Continuous
 62
     3
100
AcDbLine
 10
1429.189172189083
 20
754.7111149183019
 30
0.0
 11
1429.189172189083
 21
741.7111149183019
 31
0.0
  0
LINE
  5
6EF2
330
1E
100
AcDbEntity
  8
躯体と製品
  6
Continuous
 62
     3
100
AcDbLine
 10
1428.689172189083
 20
754.7111149183019
 30
0.0
 11
1429.189172189083
 21
754.7111149183019
 31
0.0
  0
LINE
  5
6EF3
330
1E
100
AcDbEntity
  8
躯体と製品
  6
Continuous
 62
     3
100
AcDbLine
 10
1428.689172189083
 20
713.2111149183018
 30
0.0
 11
1428.689172189083
 21
703.211114918302
 31
0.0
  0
LINE
  5
6EF4
330
1E
100
AcDbEntity
  8
躯体と製品
  6
Continuous
 62
     3
100
AcDbLine
 10
1431.189172189083
 20
707.711114918302
 30
0.0
 11
1430.689172189083
 21
708.2111149183019
 31
0.0
  0
LINE
  5
6EF5
330
1E
100
AcDbEntity
  8
躯体と製品
  6
Continuous
 62
     3
100
AcDbLine
 10
1431.189172189083
 20
708.7111149183019
 30
0.0
 11
1430.689172189083
 21
708.2111149183019
 31
0.0
  0
LINE
  5
6EF6
330
1E
100
AcDbEntity
  8
躯体と製品
  6
Continuous
 62
     3
100
AcDbLine
 10
1428.689172189083
 20
703.211114918302
 30
0.0
 11
1429.189172189083
 21
703.211114918302
 31
0.0
  0
LINE
  5
6EF7
330
1E
100
AcDbEntity
  8
躯体と製品
  6
Continuous
 62
     3
100
AcDbLine
 10
1428.689172189083
 20
713.2111149183018
 30
0.0
 11
1429.189172189083
 21
713.2111149183018
 31
0.0
  0
LINE
  5
6EF8
330
1E
100
AcDbEntity
  8
躯体と製品
  6
Continuous
 62
     3
100
AcDbLine
 10
1440.889172189083
 20
758.7111149183019
 30
0.0
 11
1441.189172189083
 21
759.0111149183019
 31
0.0
  0
LINE
  5
6EF9
330
1E
100
AcDbEntity
  8
躯体と製品
  6
Continuous
 62
     3
100
AcDbLine
 10
1440.189172189083
 20
764.2111149183019
 30
0.0
 11
1432.189172189083
 21
764.2111149183019
 31
0.0
  0
ARC
  5
6EFA
330
1E
100
AcDbEntity
  8
躯体と製品
  6
Continuous
 62
     3
100
AcDbCircle
 10
1440.189172189083
 20
763.2111149183018
 30
0.0
 40
1.0
100
AcDbArc
 50
0.0
 51
90.0
  0
ARC
  5
6EFB
330
1E
100
AcDbEntity
  8
躯体と製品
  6
Continuous
 62
     3
100
AcDbCircle
 10
1432.189172189083
 20
763.7111149183018
 30
0.0
 40
0.5
100
AcDbArc
 50
90.0
 51
180.0
  0
LINE
  5
6EFC
330
1E
100
AcDbEntity
  8
躯体と製品
  6
Continuous
 62
     3
100
AcDbLine
 10
1431.689172189083
 20
763.7111149183018
 30
0.0
 11
1431.689172189083
 21
763.2111149183018
 31
0.0
  0
ARC
  5
6EFD
330
1E
100
AcDbEntity
  8
躯体と製品
  6
Continuous
 62
     3
100
AcDbCircle
 10
1439.189172189083
 20
762.211114918302
 30
0.0
 40
0.5
100
AcDbArc
 50
0.0
 51
90.0
  0
LINE
  5
6EFE
330
1E
100
AcDbEntity
  8
躯体と製品
  6
Continuous
 62
     3
100
AcDbLine
 10
1432.189172189083
 20
762.7111149183019
 30
0.0
 11
1439.189172189083
 21
762.7111149183019
 31
0.0
  0
LINE
  5
6EFF
330
1E
100
AcDbEntity
  8
躯体と製品
  6
Continuous
 62
     3
100
AcDbLine
 10
1440.889172189083
 20
758.7111149183019
 30
0.0
 11
1441.189172189083
 21
758.4111149183017
 31
0.0
  0
ARC
  5
6F00
330
1E
100
AcDbEntity
  8
躯体と製品
  6
Continuous
 62
     3
100
AcDbCircle
 10
1432.189172189083
 20
763.2111149183018
 30
0.0
 40
0.5
100
AcDbArc
 50
180.0
 51
270.0
  0
LINE
  5
6F01
330
1E
100
AcDbEntity
  8
躯体と製品
  6
Continuous
 62
     3
100
AcDbLine
 10
1441.189172189083
 20
763.2111149183018
 30
0.0
 11
1441.189172189083
 21
759.0111149183019
 31
0.0
  0
LINE
  5
6F02
330
1E
100
AcDbEntity
  8
躯体と製品
  6
Continuous
 62
     3
100
AcDbLine
 10
1441.189172189083
 20
758.4111149183017
 30
0.0
 11
1441.189172189083
 21
752.711114918302
 31
0.0
  0
LINE
  5
6F03
330
1E
100
AcDbEntity
  8
躯体と製品
  6
Continuous
 62
     3
100
AcDbLine
 10
1439.689172189083
 20
751.7111149183019
 30
0.0
 11
1439.689172189083
 21
762.211114918302
 31
0.0
  0
ARC
  5
6F04
330
1E
100
AcDbEntity
  8
躯体と製品
  6
Continuous
 62
     3
100
AcDbCircle
 10
1459.189172189083
 20
750.2111149183019
 30
0.0
 40
0.5
100
AcDbArc
 50
0.0
 51
90.0
  0
LINE
  5
6F05
330
1E
100
AcDbEntity
  8
躯体と製品
  6
Continuous
 62
     3
100
AcDbLine
 10
1459.689172189083
 20
750.2111149183019
 30
0.0
 11
1459.689172189083
 21
718.2111149183019
 31
0.0
  0
ARC
  5
6F06
330
1E
100
AcDbEntity
  8
躯体と製品
  6
Continuous
 62
     3
100
AcDbCircle
 10
1460.189172189083
 20
751.2111149183018
 30
0.0
 40
1.0
100
AcDbArc
 50
0.0
 51
90.0
  0
LINE
  5
6F07
330
1E
100
AcDbEntity
  8
躯体と製品
  6
Continuous
 62
     3
100
AcDbLine
 10
1461.189172189083
 20
751.2111149183018
 30
0.0
 11
1461.189172189083
 21
717.2111149183019
 31
0.0
  0
ARC
  5
6F08
330
1E
100
AcDbEntity
  8
躯体と製品
  6
Continuous
 62
     3
100
AcDbCircle
 10
1459.189172189083
 20
718.2111149183019
 30
0.0
 40
0.5
100
AcDbArc
 50
270.0
 51
0.0
  0
ARC
  5
6F09
330
1E
100
AcDbEntity
  8
躯体と製品
  6
Continuous
 62
     3
100
AcDbCircle
 10
1460.189172189083
 20
717.2111149183019
 30
0.0
 40
1.0
100
AcDbArc
 50
270.0
 51
0.0
  0
LINE
  5
6F0A
330
1E
100
AcDbEntity
  8
躯体と製品
  6
Continuous
 62
     3
100
AcDbLine
 10
1441.689172189083
 20
752.2111149183019
 30
0.0
 11
1460.189172189083
 21
752.2111149183019
 31
0.0
  0
LINE
  5
6F0B
330
1E
100
AcDbEntity
  8
躯体と製品
  6
Continuous
 62
     3
100
AcDbLine
 10
1459.189172189083
 20
717.7111149183018
 30
0.0
 11
1451.189172189083
 21
717.7111149183018
 31
0.0
  0
LINE
  5
6F0C
330
1E
100
AcDbEntity
  8
躯体と製品
  6
Continuous
 62
     3
100
AcDbLine
 10
1460.189172189083
 20
716.211114918302
 30
0.0
 11
1451.189172189083
 21
716.211114918302
 31
0.0
  0
LINE
  5
6F0D
330
1E
100
AcDbEntity
  8
躯体と製品
  6
Continuous
 62
     3
100
AcDbLine
 10
1440.689172189083
 20
750.7111149183018
 30
0.0
 11
1459.189172189083
 21
750.7111149183018
 31
0.0
  0
ARC
  5
6F0E
330
1E
100
AcDbEntity
  8
躯体と製品
  6
Continuous
 62
     3
100
AcDbCircle
 10
1441.689172189083
 20
752.711114918302
 30
0.0
 40
0.5
100
AcDbArc
 50
180.0
 51
270.0
  0
ARC
  5
6F0F
330
1E
100
AcDbEntity
  8
躯体と製品
  6
Continuous
 62
     3
100
AcDbCircle
 10
1451.189172189083
 20
716.7111149183019
 30
0.0
 40
0.5
100
AcDbArc
 50
180.0
 51
270.0
  0
LINE
  5
6F10
330
1E
100
AcDbEntity
  8
躯体と製品
  6
Continuous
 62
     3
100
AcDbLine
 10
1450.689172189083
 20
716.7111149183019
 30
0.0
 11
1450.689172189083
 21
717.2111149183019
 31
0.0
  0
ARC
  5
6F11
330
1E
100
AcDbEntity
  8
躯体と製品
  6
Continuous
 62
     3
100
AcDbCircle
 10
1451.189172189083
 20
717.2111149183019
 30
0.0
 40
0.5
100
AcDbArc
 50
90.0
 51
180.0
  0
ARC
  5
6F12
330
1E
100
AcDbEntity
  8
躯体と製品
  6
Continuous
 62
     3
100
AcDbCircle
 10
1440.689172189083
 20
751.7111149183019
 30
0.0
 40
1.0
100
AcDbArc
 50
180.0
 51
270.0
  0
LINE
  5
6F13
330
1E
100
AcDbEntity
  8
躯体と製品
  6
Continuous
 62
     7
100
AcDbLine
 10
1439.189173189083
 20
751.0111169183017
 30
0.0
 11
1439.189173189083
 21
754.5111149183017
 31
0.0
  0
ARC
  5
6F14
330
1E
100
AcDbEntity
  8
躯体と製品
  6
Continuous
 62
     7
100
AcDbCircle
 10
1439.689174189083
 20
751.0111169183017
 30
0.0
 40
0.5000010000000003
100
AcDbArc
 50
180.0
 51
270.0
  0
ARC
  5
6F15
330
1E
100
AcDbEntity
  8
躯体と製品
  6
Continuous
 62
     7
100
AcDbCircle
 10
1439.689174189083
 20
751.0111169183017
 30
0.0
 40
1.299998999999999
100
AcDbArc
 50
180.0
 51
270.0
  0
LINE
  5
6F16
330
1E
100
AcDbEntity
  8
躯体と製品
  6
Continuous
 62
     7
100
AcDbLine
 10
1438.389172189083
 20
754.5111149183017
 30
0.0
 11
1439.189173189083
 21
754.5111149183017
 31
0.0
  0
LINE
  5
6F17
330
1E
100
AcDbEntity
  8
躯体と製品
  6
Continuous
 62
     7
100
AcDbLine
 10
1458.089173189083
 20
750.5111159183016
 30
0.0
 11
1439.689174189083
 21
750.5111159183016
 31
0.0
  0
ARC
  5
6F18
330
1E
100
AcDbEntity
  8
躯体と製品
  6
Continuous
 62
     7
100
AcDbCircle
 10
1458.089173189083
 20
749.2111169183017
 30
0.0
 40
1.299998999999999
100
AcDbArc
 50
0.0
 51
90.0
  0
ARC
  5
6F19
330
1E
100
AcDbEntity
  8
躯体と製品
  6
Continuous
 62
     7
100
AcDbCircle
 10
1458.089173189083
 20
749.2111169183017
 30
0.0
 40
0.5000010000000003
100
AcDbArc
 50
0.0
 51
90.0
  0
LINE
  5
6F1A
330
1E
100
AcDbEntity
  8
躯体と製品
  6
Continuous
 62
     7
100
AcDbLine
 10
1458.589174189083
 20
749.2111169183017
 30
0.0
 11
1458.589174189083
 21
720.5111159183015
 31
0.0
  0
LINE
  5
6F1B
330
1E
100
AcDbEntity
  8
躯体と製品
  6
Continuous
 62
     7
100
AcDbLine
 10
1459.389172189083
 20
749.2111169183017
 30
0.0
 11
1459.389172189083
 21
720.5111159183015
 31
0.0
  0
LINE
  5
6F1C
330
1E
100
AcDbEntity
  8
躯体と製品
  6
Continuous
 62
     7
100
AcDbLine
 10
1458.589174189083
 20
720.5111159183015
 30
0.0
 11
1459.389172189083
 21
720.5111159183015
 31
0.0
  0
LINE
  5
6F1D
330
1E
100
AcDbEntity
  8
躯体と製品
  6
Continuous
 62
     7
100
AcDbLine
 10
1458.089173189083
 20
749.7111149183017
 30
0.0
 11
1439.689174189083
 21
749.7111149183017
 31
0.0
  0
LINE
  5
6F1E
330
1E
100
AcDbEntity
  8
躯体と製品
  6
Continuous
 62
     7
100
AcDbLine
 10
1438.389172189083
 20
754.5111149183017
 30
0.0
 11
1438.389175189083
 21
751.0111169183017
 31
0.0
  0
LINE
  5
6F1F
330
1E
100
AcDbEntity
  8
躯体と製品
  6
Continuous
 62
     4
100
AcDbLine
 10
1458.589174189083
 20
720.7606590803156
 30
0.0
 11
1459.389172189083
 21
721.5606570803165
 31
0.0
  0
LINE
  5
6F20
330
1E
100
AcDbEntity
  8
躯体と製品
  6
Continuous
 62
     4
100
AcDbLine
 10
1458.589174189083
 20
722.174872642689
 30
0.0
 11
1459.389172189083
 21
722.9748706426894
 31
0.0
  0
LINE
  5
6F21
330
1E
100
AcDbEntity
  8
躯体と製品
  6
Continuous
 62
     4
100
AcDbLine
 10
1458.589174189083
 20
723.5890862050634
 30
0.0
 11
1459.389172189083
 21
724.389084205063
 31
0.0
  0
LINE
  5
6F22
330
1E
100
AcDbEntity
  8
躯体と製品
  6
Continuous
 62
     4
100
AcDbLine
 10
1458.589174189083
 20
725.0032997674363
 30
0.0
 11
1459.389172189083
 21
725.8032977674363
 31
0.0
  0
LINE
  5
6F23
330
1E
100
AcDbEntity
  8
躯体と製品
  6
Continuous
 62
     4
100
AcDbLine
 10
1458.589174189083
 20
726.4175133298095
 30
0.0
 11
1459.389172189083
 21
727.2175113298094
 31
0.0
  0
LINE
  5
6F24
330
1E
100
AcDbEntity
  8
躯体と製品
  6
Continuous
 62
     4
100
AcDbLine
 10
1458.589174189083
 20
727.831726892183
 30
0.0
 11
1459.389172189083
 21
728.6317248921825
 31
0.0
  0
LINE
  5
6F25
330
1E
100
AcDbEntity
  8
躯体と製品
  6
Continuous
 62
     4
100
AcDbLine
 10
1458.589174189083
 20
729.2459404545562
 30
0.0
 11
1459.389172189083
 21
730.0459384545558
 31
0.0
  0
LINE
  5
6F26
330
1E
100
AcDbEntity
  8
躯体と製品
  6
Continuous
 62
     4
100
AcDbLine
 10
1458.589174189083
 20
730.6601540169294
 30
0.0
 11
1459.389172189083
 21
731.460152016929
 31
0.0
  0
LINE
  5
6F27
330
1E
100
AcDbEntity
  8
躯体と製品
  6
Continuous
 62
     4
100
AcDbLine
 10
1458.589174189083
 20
732.0743675793029
 30
0.0
 11
1459.389172189083
 21
732.8743655793023
 31
0.0
  0
LINE
  5
6F28
330
1E
100
AcDbEntity
  8
躯体と製品
  6
Continuous
 62
     4
100
AcDbLine
 10
1458.589174189083
 20
733.4885811416759
 30
0.0
 11
1459.389172189083
 21
734.2885791416756
 31
0.0
  0
LINE
  5
6F29
330
1E
100
AcDbEntity
  8
躯体と製品
  6
Continuous
 62
     4
100
AcDbLine
 10
1458.589174189083
 20
734.9027947040491
 30
0.0
 11
1459.389172189083
 21
735.7027927040499
 31
0.0
  0
LINE
  5
6F2A
330
1E
100
AcDbEntity
  8
躯体と製品
  6
Continuous
 62
     4
100
AcDbLine
 10
1458.589174189083
 20
736.3170082664225
 30
0.0
 11
1459.389172189083
 21
737.117006266423
 31
0.0
  0
LINE
  5
6F2B
330
1E
100
AcDbEntity
  8
躯体と製品
  6
Continuous
 62
     4
100
AcDbLine
 10
1458.589174189083
 20
737.7312218287955
 30
0.0
 11
1459.389172189083
 21
738.5312198287963
 31
0.0
  0
LINE
  5
6F2C
330
1E
100
AcDbEntity
  8
躯体と製品
  6
Continuous
 62
     4
100
AcDbLine
 10
1458.589174189083
 20
739.145435391169
 30
0.0
 11
1459.389172189083
 21
739.9454333911696
 31
0.0
  0
LINE
  5
6F2D
330
1E
100
AcDbEntity
  8
躯体と製品
  6
Continuous
 62
     4
100
AcDbLine
 10
1458.589174189082
 20
740.5596489535423
 30
0.0
 11
1459.389172189083
 21
741.359646953543
 31
0.0
  0
LINE
  5
6F2E
330
1E
100
AcDbEntity
  8
躯体と製品
  6
Continuous
 62
     4
100
AcDbLine
 10
1458.589174189082
 20
741.9738625159113
 30
0.0
 11
1459.389172189083
 21
742.773860515912
 31
0.0
  0
LINE
  5
6F2F
330
1E
100
AcDbEntity
  8
躯体と製品
  6
Continuous
 62
     4
100
AcDbLine
 10
1458.589174189082
 20
743.3880760782848
 30
0.0
 11
1459.389172189083
 21
744.1880740782855
 31
0.0
  0
LINE
  5
6F30
330
1E
100
AcDbEntity
  8
躯体と製品
  6
Continuous
 62
     4
100
AcDbLine
 10
1458.589174189084
 20
744.8022896406598
 30
0.0
 11
1459.389172189083
 21
745.6022876406598
 31
0.0
  0
LINE
  5
6F31
330
1E
100
AcDbEntity
  8
躯体と製品
  6
Continuous
 62
     4
100
AcDbLine
 10
1458.589174189084
 20
746.2165032030331
 30
0.0
 11
1459.389172189083
 21
747.016501203033
 31
0.0
  0
LINE
  5
6F32
330
1E
100
AcDbEntity
  8
躯体と製品
  6
Continuous
 62
     4
100
AcDbLine
 10
1458.589174189084
 20
747.6307167654066
 30
0.0
 11
1459.389172189083
 21
748.4307147654062
 31
0.0
  0
LINE
  5
6F33
330
1E
100
AcDbEntity
  8
躯体と製品
  6
Continuous
 62
     4
100
AcDbLine
 10
1458.589174189084
 20
749.0449303277797
 30
0.0
 11
1459.279032543618
 21
749.7347886823138
 31
0.0
  0
LINE
  5
6F34
330
1E
100
AcDbEntity
  8
躯体と製品
  6
Continuous
 62
     4
100
AcDbLine
 10
1457.841145217233
 20
749.7111149183023
 30
0.0
 11
1458.554870264046
 21
750.4248399651152
 31
0.0
  0
LINE
  5
6F35
330
1E
100
AcDbEntity
  8
躯体と製品
  6
Continuous
 62
     4
100
AcDbLine
 10
1456.426931654859
 20
749.7111149183013
 30
0.0
 11
1457.226932654858
 21
750.5111159183011
 31
0.0
  0
LINE
  5
6F36
330
1E
100
AcDbEntity
  8
躯体と製品
  6
Continuous
 62
     4
100
AcDbLine
 10
1455.012718092485
 20
749.7111149183017
 30
0.0
 11
1455.812719092485
 21
750.5111159183012
 31
0.0
  0
LINE
  5
6F37
330
1E
100
AcDbEntity
  8
躯体と製品
  6
Continuous
 62
     4
100
AcDbLine
 10
1453.598504530112
 20
749.711114918302
 30
0.0
 11
1454.398505530112
 21
750.5111159183012
 31
0.0
  0
LINE
  5
6F38
330
1E
100
AcDbEntity
  8
躯体と製品
  6
Continuous
 62
     4
100
AcDbLine
 10
1452.184290967739
 20
749.711114918302
 30
0.0
 11
1452.984291967739
 21
750.5111159183017
 31
0.0
  0
LINE
  5
6F39
330
1E
100
AcDbEntity
  8
躯体と製品
  6
Continuous
 62
     4
100
AcDbLine
 10
1450.770077405365
 20
749.7111149183011
 30
0.0
 11
1451.570078405366
 21
750.511115918302
 31
0.0
  0
LINE
  5
6F3A
330
1E
100
AcDbEntity
  8
躯体と製品
  6
Continuous
 62
     4
100
AcDbLine
 10
1449.355863842992
 20
749.7111149183015
 30
0.0
 11
1450.155864842993
 21
750.511115918302
 31
0.0
  0
LINE
  5
6F3B
330
1E
100
AcDbEntity
  8
躯体と製品
  6
Continuous
 62
     4
100
AcDbLine
 10
1447.941650280618
 20
749.7111149183011
 30
0.0
 11
1448.741651280619
 21
750.5111159183017
 31
0.0
  0
LINE
  5
6F3C
330
1E
100
AcDbEntity
  8
躯体と製品
  6
Continuous
 62
     4
100
AcDbLine
 10
1446.527436718245
 20
749.7111149183011
 30
0.0
 11
1447.327437718245
 21
750.5111159183011
 31
0.0
  0
LINE
  5
6F3D
330
1E
100
AcDbEntity
  8
躯体と製品
  6
Continuous
 62
     4
100
AcDbLine
 10
1445.113223155872
 20
749.7111149183013
 30
0.0
 11
1445.913224155871
 21
750.5111159183011
 31
0.0
  0
LINE
  5
6F3E
330
1E
100
AcDbEntity
  8
躯体と製品
  6
Continuous
 62
     4
100
AcDbLine
 10
1443.699009593499
 20
749.7111149183015
 30
0.0
 11
1444.499010593498
 21
750.5111159183011
 31
0.0
  0
LINE
  5
6F3F
330
1E
100
AcDbEntity
  8
躯体と製品
  6
Continuous
 62
     4
100
AcDbLine
 10
1442.284796031129
 20
749.711114918302
 30
0.0
 11
1443.084797031129
 21
750.5111159183016
 31
0.0
  0
LINE
  5
6F40
330
1E
100
AcDbEntity
  8
躯体と製品
  6
Continuous
 62
     4
100
AcDbLine
 10
1440.870582468756
 20
749.711114918302
 30
0.0
 11
1441.670583468756
 21
750.5111159183017
 31
0.0
  0
LINE
  5
6F41
330
1E
100
AcDbEntity
  8
躯体と製品
  6
Continuous
 62
     4
100
AcDbLine
 10
1439.474259694366
 20
749.7290057062858
 30
0.0
 11
1440.256369906383
 21
750.5111159183019
 31
0.0
  0
LINE
  5
6F42
330
1E
100
AcDbEntity
  8
躯体と製品
  6
Continuous
 62
     4
100
AcDbLine
 10
1438.612951233975
 20
750.2819108082678
 30
0.0
 11
1439.207614914719
 21
750.8765744890117
 31
0.0
  0
LINE
  5
6F43
330
1E
100
AcDbEntity
  8
躯体と製品
  6
Continuous
 62
     4
100
AcDbLine
 10
1438.389174793742
 20
751.4723479304077
 30
0.0
 11
1439.189173189083
 21
752.2723463257484
 31
0.0
  0
LINE
  5
6F44
330
1E
100
AcDbEntity
  8
躯体と製品
  6
Continuous
 62
     4
100
AcDbLine
 10
1438.389173581559
 20
752.8865602805983
 30
0.0
 11
1439.189173189083
 21
753.686559888122
 31
0.0
  0
LINE
  5
6F45
330
1E
100
AcDbEntity
  8
躯体と製品
  6
Continuous
 62
     4
100
AcDbLine
 10
1438.389172369377
 20
754.3007726307894
 30
0.0
 11
1438.599514656889
 21
754.5111149183012
 31
0.0
  0
LINE
  5
6F46
330
1E
100
AcDbEntity
  8
躯体と製品
  6
Continuous
 62
     7
100
AcDbLine
 10
1431.189172189083
 20
757.211114918302
 30
0.0
 11
1431.689172189083
 21
756.711114918302
 31
0.0
  0
LINE
  5
6F47
330
1E
100
AcDbEntity
  8
躯体と製品
  6
Continuous
 62
     7
100
AcDbLine
 10
1431.189172189083
 20
760.2111149183019
 30
0.0
 11
1431.689172189083
 21
760.7111149183019
 31
0.0
  0
LINE
  5
6F48
330
1E
100
AcDbEntity
  8
躯体と製品
  6
Continuous
 62
     7
100
AcDbLine
 10
1431.189172189083
 20
760.2111149183019
 30
0.0
 11
1431.189172189083
 21
757.211114918302
 31
0.0
  0
LINE
  5
6F49
330
1E
100
AcDbEntity
  8
躯体と製品
  6
Continuous
 62
     4
100
AcDbLine
 10
1431.689172189083
 20
760.7111149183019
 30
0.0
 11
1431.689172189083
 21
756.711114918302
 31
0.0
  0
LINE
  5
6F4A
330
1E
100
AcDbEntity
  8
躯体と製品
  6
Continuous
 62
     7
100
AcDbLine
 10
1439.689172189083
 20
760.7111149183019
 30
0.0
 11
1436.689172189083
 21
760.7111149183019
 31
0.0
  0
LINE
  5
6F4B
330
1E
100
AcDbEntity
  8
躯体と製品
  6
Continuous
 62
     4
100
AcDbLine
 10
1439.689172189083
 20
760.2111149183019
 30
0.0
 11
1431.189172189083
 21
760.2111149183019
 31
0.0
  0
LINE
  5
6F4C
330
1E
100
AcDbEntity
  8
躯体と製品
  6
Continuous
 62
     4
100
AcDbLine
 10
1439.689172189083
 20
757.211114918302
 30
0.0
 11
1431.189172189083
 21
757.211114918302
 31
0.0
  0
LINE
  5
6F4D
330
1E
100
AcDbEntity
  8
躯体と製品
  6
Continuous
 62
     7
100
AcDbLine
 10
1439.689172189083
 20
756.711114918302
 30
0.0
 11
1436.689172189083
 21
756.711114918302
 31
0.0
  0
ARC
  5
6F4E
330
1E
100
AcDbEntity
  8
躯体と製品
  6
Continuous
 62
     7
100
AcDbCircle
 10
1442.189172189083
 20
753.211114918302
 30
0.0
 40
1.0
100
AcDbArc
 50
180.0
 51
270.0
  0
ARC
  5
6F4F
330
1E
100
AcDbEntity
  8
躯体と製品
  6
Continuous
 62
     7
100
AcDbCircle
 10
1444.189172189083
 20
753.211114918302
 30
0.0
 40
1.0
100
AcDbArc
 50
270.0
 51
0.0
  0
LINE
  5
6F50
330
1E
100
AcDbEntity
  8
躯体と製品
  6
Continuous
 62
     7
100
AcDbLine
 10
1442.189172189083
 20
752.2111149183019
 30
0.0
 11
1444.189172189083
 21
752.2111149183019
 31
0.0
  0
ARC
  5
6F51
330
1E
100
AcDbEntity
  8
躯体と製品
  6
Continuous
 62
     7
100
AcDbCircle
 10
1443.254891763737
 20
757.7906361948976
 30
0.0
 40
0.4204787234042585
100
AcDbArc
 50
345.9042107558272
 51
90.0
  0
ARC
  5
6F52
330
1E
100
AcDbEntity
  8
躯体と製品
  6
Continuous
 62
     7
100
AcDbCircle
 10
1441.189172189083
 20
760.1896863468734
 30
0.0
 40
2.021428571428586
100
AcDbArc
 50
42.74124453868362
 51
90.0
  0
ARC
  5
6F53
330
1E
100
AcDbEntity
  8
躯体と製品
  6
Continuous
 62
     7
100
AcDbCircle
 10
1441.189172189083
 20
757.2325434897306
 30
0.0
 40
2.021428571428568
100
AcDbArc
 50
270.0
 51
317.2587554613163
  0
ARC
  5
6F54
330
1E
100
AcDbEntity
  8
躯体と製品
  6
Continuous
 62
     7
100
AcDbCircle
 10
1443.254891763737
 20
759.631593641706
 30
0.0
 40
0.4204787234042585
100
AcDbArc
 50
270.0
 51
14.0957892441728
  0
LINE
  5
6F55
330
1E
100
AcDbEntity
  8
躯体と製品
  6
Continuous
 62
     7
100
AcDbLine
 10
1443.254891763737
 20
759.2111149183018
 30
0.0
 11
1443.254891763737
 21
758.2111149183019
 31
0.0
  0
ARC
  5
6F56
330
1E
100
AcDbEntity
  8
躯体と製品
  6
Continuous
 62
     7
100
AcDbCircle
 10
1439.589172189083
 20
758.7111149183019
 30
0.0
 40
4.2
100
AcDbArc
 50
317.2587554613163
 51
345.9042107558272
  0
ARC
  5
6F57
330
1E
100
AcDbEntity
  8
躯体と製品
  6
Continuous
 62
     7
100
AcDbCircle
 10
1439.589172189083
 20
758.7111149183019
 30
0.0
 40
4.2
100
AcDbArc
 50
14.0957892441728
 51
42.74124453868362
  0
POINT
  5
6F58
330
1E
100
AcDbEntity
  8
躯体と製品
 62
     4
100
AcDbPoint
 10
1461.189172189083
 20
752.2111149183019
 30
0.0
  0
POINT
  5
6F59
330
1E
100
AcDbEntity
  8
躯体と製品
 62
     4
100
AcDbPoint
 10
1461.189172189083
 20
716.211114918302
 30
0.0
  0
LINE
  5
6F5A
330
1E
100
AcDbEntity
  8
躯体と製品
  6
DASHED1
 62
     7
100
AcDbLine
 10
1413.774526189083
 20
705.9514879183018
 30
0.0
 11
1414.689172189083
 21
704.211112918302
 31
0.0
  0
LINE
  5
6F5B
330
1E
100
AcDbEntity
  8
躯体と製品
  6
DASHED1
 62
     7
100
AcDbLine
 10
1414.689172189083
 20
704.211112918302
 30
0.0
 11
1426.689172189083
 21
704.211112918302
 31
0.0
  0
LINE
  5
6F5C
330
1E
100
AcDbEntity
  8
躯体と製品
  6
DASHED1
 62
     7
100
AcDbLine
 10
1406.888791189083
 20
711.770170918302
 30
0.0
 11
1411.888792189083
 21
713.590021918302
 31
0.0
  0
LINE
  5
6F5D
330
1E
100
AcDbEntity
  8
躯体と製品
  6
DASHED1
 62
     7
100
AcDbLine
 10
1406.888791189083
 20
712.834348918302
 30
0.0
 11
1411.546771189083
 21
714.529714918302
 31
0.0
  0
LINE
  5
6F5E
330
1E
100
AcDbEntity
  8
躯体と製品
  6
DASHED1
 62
     7
100
AcDbLine
 10
1406.888791189083
 20
704.652055918302
 30
0.0
 11
1411.888792189083
 21
702.8322049183018
 31
0.0
  0
LINE
  5
6F5F
330
1E
100
AcDbEntity
  8
躯体と製品
  6
DASHED1
 62
     7
100
AcDbLine
 10
1411.546771189083
 20
701.892511918302
 30
0.0
 11
1418.350393189083
 21
700.9001569183019
 31
0.0
  0
ARC
  5
6F60
330
1E
100
AcDbEntity
  8
躯体と製品
  6
DASHED1
 62
     7
100
AcDbCircle
 10
1418.408125189083
 20
701.2959679183018
 30
0.0
 40
0.3999990000000001
100
AcDbArc
 50
261.7015340000029
 51
351.8698979999985
  0
LINE
  5
6F61
330
1E
100
AcDbEntity
  8
躯体と製品
  6
DASHED1
 62
     7
100
AcDbLine
 10
1418.804107189083
 20
701.2393999183021
 30
0.0
 11
1418.832223189083
 21
701.4362269183019
 31
0.0
  0
ARC
  5
6F62
330
1E
100
AcDbEntity
  8
躯体と製品
  6
DASHED1
 62
     7
100
AcDbCircle
 10
1418.436244189083
 20
701.492794918302
 30
0.0
 40
0.3999990000000001
100
AcDbArc
 50
351.8698979999985
 51
81.86989800000221
  0
LINE
  5
6F63
330
1E
100
AcDbEntity
  8
躯体と製品
  6
DASHED1
 62
     7
100
AcDbLine
 10
1418.492812189083
 20
701.888773918302
 30
0.0
 11
1411.888792189083
 21
702.8322049183018
 31
0.0
  0
LINE
  5
6F64
330
1E
100
AcDbEntity
  8
躯体と製品
  6
DASHED1
 62
     7
100
AcDbLine
 10
1411.546771189083
 20
714.529714918302
 30
0.0
 11
1418.350393189083
 21
715.5220699183021
 31
0.0
  0
ARC
  5
6F65
330
1E
100
AcDbEntity
  8
躯体と製品
  6
DASHED1
 62
     7
100
AcDbCircle
 10
1418.408125189083
 20
715.126258918302
 30
0.0
 40
0.3999990000000001
100
AcDbArc
 50
8.130102000001478
 51
98.29846599999713
  0
LINE
  5
6F66
330
1E
100
AcDbEntity
  8
躯体と製品
  6
DASHED1
 62
     7
100
AcDbLine
 10
1418.804107189083
 20
715.1828269183019
 30
0.0
 11
1418.832223189083
 21
714.9860029183019
 31
0.0
  0
ARC
  5
6F67
330
1E
100
AcDbEntity
  8
躯体と製品
  6
DASHED1
 62
     7
100
AcDbCircle
 10
1418.436244189083
 20
714.929431918302
 30
0.0
 40
0.3999990000000001
100
AcDbArc
 50
278.1301019999978
 51
8.130102000001478
  0
LINE
  5
6F68
330
1E
100
AcDbEntity
  8
躯体と製品
  6
DASHED1
 62
     7
100
AcDbLine
 10
1414.689172189083
 20
712.211113918302
 30
0.0
 11
1413.774526189083
 21
710.470738918302
 31
0.0
  0
LINE
  5
6F69
330
1E
100
AcDbEntity
  8
躯体と製品
  6
DASHED1
 62
     7
100
AcDbLine
 10
1426.689172189083
 20
713.2111129183019
 30
0.0
 11
1421.689171189083
 21
712.211113918302
 31
0.0
  0
LINE
  5
6F6A
330
1E
100
AcDbEntity
  8
躯体と製品
  6
DASHED1
 62
     7
100
AcDbLine
 10
1426.689172189083
 20
709.2111139183018
 30
0.0
 11
1421.689171189083
 21
708.2111149183019
 31
0.0
  0
LINE
  5
6F6B
330
1E
100
AcDbEntity
  8
躯体と製品
  6
DASHED1
 62
     7
100
AcDbLine
 10
1426.689172189083
 20
707.2111129183022
 30
0.0
 11
1421.689171189083
 21
708.2111149183019
 31
0.0
  0
LINE
  5
6F6C
330
1E
100
AcDbEntity
  8
躯体と製品
  6
DASHED1
 62
     7
100
AcDbLine
 10
1421.689171189083
 20
708.2111149183019
 30
0.0
 11
1426.689172189083
 21
708.2111149183019
 31
0.0
  0
LINE
  5
6F6D
330
1E
100
AcDbEntity
  8
躯体と製品
  6
DASHED1
 62
     7
100
AcDbLine
 10
1392.558616189083
 20
710.0805589183021
 30
0.0
 11
1390.689172189083
 21
708.2111149183019
 31
0.0
  0
LINE
  5
6F6E
330
1E
100
AcDbEntity
  8
躯体と製品
  6
DASHED1
 62
     7
100
AcDbLine
 10
1413.774526189083
 20
710.470738918302
 30
0.0
 11
1411.777267189083
 21
710.5754089183019
 31
0.0
  0
LINE
  5
6F6F
330
1E
100
AcDbEntity
  8
躯体と製品
  6
DASHED1
 62
     7
100
AcDbLine
 10
1411.777267189083
 20
710.5754089183019
 30
0.0
 11
1411.881940189083
 21
712.5726679183019
 31
0.0
  0
LINE
  5
6F70
330
1E
100
AcDbEntity
  8
躯体と製品
  6
DASHED1
 62
     7
100
AcDbLine
 10
1411.881940189083
 20
712.5726679183019
 30
0.0
 11
1409.884681189083
 21
712.6773409183019
 31
0.0
  0
LINE
  5
6F71
330
1E
100
AcDbEntity
  8
躯体と製品
  6
DASHED1
 62
     7
100
AcDbLine
 10
1389.728914189083
 20
710.2288549183023
 30
0.0
 11
1389.912091189083
 21
713.724058918302
 31
0.0
  0
LINE
  5
6F72
330
1E
100
AcDbEntity
  8
躯体と製品
  6
DASHED1
 62
     7
100
AcDbLine
 10
1389.912091189083
 20
713.724058918302
 30
0.0
 11
1387.810159189083
 21
711.8314729183023
 31
0.0
  0
LINE
  5
6F73
330
1E
100
AcDbEntity
  8
躯体と製品
  6
DASHED1
 62
     7
100
AcDbLine
 10
1387.810159189083
 20
711.8314729183023
 30
0.0
 11
1387.731655189083
 21
710.333527918302
 31
0.0
  0
LINE
  5
6F74
330
1E
100
AcDbEntity
  8
躯体と製品
  6
DASHED1
 62
     7
100
AcDbLine
 10
1387.731655189083
 20
710.333527918302
 30
0.0
 11
1418.689171189083
 21
708.7111129183019
 31
0.0
  0
LINE
  5
6F75
330
1E
100
AcDbEntity
  8
躯体と製品
  6
DASHED1
 62
     7
100
AcDbLine
 10
1409.884681189083
 20
712.6773409183019
 30
0.0
 11
1408.781380189083
 21
710.732416918302
 31
0.0
  0
LINE
  5
6F76
330
1E
100
AcDbEntity
  8
躯体と製品
  6
DASHED1
 62
     7
100
AcDbLine
 10
1408.781380189083
 20
710.732416918302
 30
0.0
 11
1406.784121189083
 21
710.8370899183021
 31
0.0
  0
LINE
  5
6F77
330
1E
100
AcDbEntity
  8
躯体と製品
  6
DASHED1
 62
     7
100
AcDbLine
 10
1406.784121189083
 20
710.8370899183021
 30
0.0
 11
1406.888791189083
 21
712.834348918302
 31
0.0
  0
LINE
  5
6F78
330
1E
100
AcDbEntity
  8
躯体と製品
  6
DASHED1
 62
     7
100
AcDbLine
 10
1406.888791189083
 20
712.834348918302
 30
0.0
 11
1404.891532189083
 21
712.939018918302
 31
0.0
  0
LINE
  5
6F79
330
1E
100
AcDbEntity
  8
躯体と製品
  6
DASHED1
 62
     7
100
AcDbLine
 10
1404.891532189083
 20
712.939018918302
 30
0.0
 11
1403.788231189083
 21
710.994097918302
 31
0.0
  0
LINE
  5
6F7A
330
1E
100
AcDbEntity
  8
躯体と製品
  6
DASHED1
 62
     7
100
AcDbLine
 10
1403.788231189083
 20
710.994097918302
 30
0.0
 11
1401.790972189083
 21
711.0987679183023
 31
0.0
  0
LINE
  5
6F7B
330
1E
100
AcDbEntity
  8
躯体と製品
  6
DASHED1
 62
     7
100
AcDbLine
 10
1401.790972189083
 20
711.0987679183023
 30
0.0
 11
1401.895645189083
 21
713.096026918302
 31
0.0
  0
LINE
  5
6F7C
330
1E
100
AcDbEntity
  8
躯体と製品
  6
DASHED1
 62
     7
100
AcDbLine
 10
1401.895645189083
 20
713.096026918302
 30
0.0
 11
1399.898386189083
 21
713.200699918302
 31
0.0
  0
LINE
  5
6F7D
330
1E
100
AcDbEntity
  8
躯体と製品
  6
DASHED1
 62
     7
100
AcDbLine
 10
1399.898386189083
 20
713.200699918302
 30
0.0
 11
1398.795085189083
 21
711.255775918302
 31
0.0
  0
LINE
  5
6F7E
330
1E
100
AcDbEntity
  8
躯体と製品
  6
DASHED1
 62
     7
100
AcDbLine
 10
1398.795085189083
 20
711.255775918302
 30
0.0
 11
1396.797826189083
 21
711.3604489183019
 31
0.0
  0
LINE
  5
6F7F
330
1E
100
AcDbEntity
  8
躯体と製品
  6
DASHED1
 62
     7
100
AcDbLine
 10
1396.902496189083
 20
713.3577079183021
 30
0.0
 11
1394.905237189083
 21
713.462380918302
 31
0.0
  0
LINE
  5
6F80
330
1E
100
AcDbEntity
  8
躯体と製品
  6
DASHED1
 62
     7
100
AcDbLine
 10
1394.905237189083
 20
713.462380918302
 30
0.0
 11
1393.801936189083
 21
711.517456918302
 31
0.0
  0
LINE
  5
6F81
330
1E
100
AcDbEntity
  8
躯体と製品
  6
DASHED1
 62
     7
100
AcDbLine
 10
1393.801936189083
 20
711.517456918302
 30
0.0
 11
1391.804677189083
 21
711.622129918302
 31
0.0
  0
LINE
  5
6F82
330
1E
100
AcDbEntity
  8
躯体と製品
  6
DASHED1
 62
     7
100
AcDbLine
 10
1391.804677189083
 20
711.622129918302
 30
0.0
 11
1391.909350189083
 21
713.619388918302
 31
0.0
  0
LINE
  5
6F83
330
1E
100
AcDbEntity
  8
躯体と製品
  6
DASHED1
 62
     7
100
AcDbLine
 10
1391.909350189083
 20
713.619388918302
 30
0.0
 11
1389.912091189083
 21
713.724058918302
 31
0.0
  0
LINE
  5
6F84
330
1E
100
AcDbEntity
  8
躯体と製品
  6
DASHED1
 62
     7
100
AcDbLine
 10
1418.689171189083
 20
707.7111139183021
 30
0.0
 11
1418.689171189083
 21
708.7111129183019
 31
0.0
  0
LINE
  5
6F85
330
1E
100
AcDbEntity
  8
躯体と製品
  6
DASHED1
 62
     7
100
AcDbLine
 10
1426.689172189083
 20
703.2111139183021
 30
0.0
 11
1421.689171189083
 21
704.211112918302
 31
0.0
  0
LINE
  5
6F86
330
1E
100
AcDbEntity
  8
躯体と製品
  6
DASHED1
 62
     7
100
AcDbLine
 10
1413.774526189083
 20
705.9514879183018
 30
0.0
 11
1411.777267189083
 21
705.8468179183021
 31
0.0
  0
LINE
  5
6F87
330
1E
100
AcDbEntity
  8
躯体と製品
  6
DASHED1
 62
     7
100
AcDbLine
 10
1411.777267189083
 20
705.8468179183021
 30
0.0
 11
1411.881940189083
 21
703.8495589183018
 31
0.0
  0
LINE
  5
6F88
330
1E
100
AcDbEntity
  8
躯体と製品
  6
DASHED1
 62
     7
100
AcDbLine
 10
1411.881940189083
 20
703.8495589183018
 30
0.0
 11
1409.884681189083
 21
703.7448859183021
 31
0.0
  0
LINE
  5
6F89
330
1E
100
AcDbEntity
  8
躯体と製品
  6
DASHED1
 62
     7
100
AcDbLine
 10
1389.728914189083
 20
706.1933719183023
 30
0.0
 11
1389.912091189083
 21
702.698167918302
 31
0.0
  0
LINE
  5
6F8A
330
1E
100
AcDbEntity
  8
躯体と製品
  6
DASHED1
 62
     7
100
AcDbLine
 10
1389.912091189083
 20
702.698167918302
 30
0.0
 11
1387.810159189083
 21
704.5907539183018
 31
0.0
  0
LINE
  5
6F8B
330
1E
100
AcDbEntity
  8
躯体と製品
  6
DASHED1
 62
     7
100
AcDbLine
 10
1387.810159189083
 20
704.5907539183018
 30
0.0
 11
1387.731655189083
 21
706.088698918302
 31
0.0
  0
LINE
  5
6F8C
330
1E
100
AcDbEntity
  8
躯体と製品
  6
DASHED1
 62
     7
100
AcDbLine
 10
1387.731655189083
 20
706.088698918302
 30
0.0
 11
1418.689171189083
 21
707.7111139183021
 31
0.0
  0
LINE
  5
6F8D
330
1E
100
AcDbEntity
  8
躯体と製品
  6
DASHED1
 62
     7
100
AcDbLine
 10
1409.884681189083
 20
703.7448859183021
 30
0.0
 11
1408.781380189083
 21
705.6898099183023
 31
0.0
  0
LINE
  5
6F8E
330
1E
100
AcDbEntity
  8
躯体と製品
  6
DASHED1
 62
     7
100
AcDbLine
 10
1408.781380189083
 20
705.6898099183023
 30
0.0
 11
1406.784121189083
 21
705.5851369183019
 31
0.0
  0
LINE
  5
6F8F
330
1E
100
AcDbEntity
  8
躯体と製品
  6
DASHED1
 62
     7
100
AcDbLine
 10
1406.784121189083
 20
705.5851369183019
 30
0.0
 11
1406.888791189083
 21
703.5878779183018
 31
0.0
  0
LINE
  5
6F90
330
1E
100
AcDbEntity
  8
躯体と製品
  6
DASHED1
 62
     7
100
AcDbLine
 10
1406.888791189083
 20
703.5878779183018
 30
0.0
 11
1404.891532189083
 21
703.4832079183019
 31
0.0
  0
LINE
  5
6F91
330
1E
100
AcDbEntity
  8
躯体と製品
  6
DASHED1
 62
     7
100
AcDbLine
 10
1404.891532189083
 20
703.4832079183019
 30
0.0
 11
1403.788231189083
 21
705.428128918302
 31
0.0
  0
LINE
  5
6F92
330
1E
100
AcDbEntity
  8
躯体と製品
  6
DASHED1
 62
     7
100
AcDbLine
 10
1403.788231189083
 20
705.428128918302
 30
0.0
 11
1401.790972189083
 21
705.3234589183018
 31
0.0
  0
LINE
  5
6F93
330
1E
100
AcDbEntity
  8
躯体と製品
  6
DASHED1
 62
     7
100
AcDbLine
 10
1401.790972189083
 20
705.3234589183018
 30
0.0
 11
1401.895645189083
 21
703.326199918302
 31
0.0
  0
LINE
  5
6F94
330
1E
100
AcDbEntity
  8
躯体と製品
  6
DASHED1
 62
     7
100
AcDbLine
 10
1401.895645189083
 20
703.326199918302
 30
0.0
 11
1399.898386189083
 21
703.2215269183018
 31
0.0
  0
LINE
  5
6F95
330
1E
100
AcDbEntity
  8
躯体と製品
  6
DASHED1
 62
     7
100
AcDbLine
 10
1399.898386189083
 20
703.2215269183018
 30
0.0
 11
1398.795085189083
 21
705.166450918302
 31
0.0
  0
LINE
  5
6F96
330
1E
100
AcDbEntity
  8
躯体と製品
  6
DASHED1
 62
     7
100
AcDbLine
 10
1398.795085189083
 20
705.166450918302
 30
0.0
 11
1396.797826189083
 21
705.061777918302
 31
0.0
  0
LINE
  5
6F97
330
1E
100
AcDbEntity
  8
躯体と製品
  6
DASHED1
 62
     7
100
AcDbLine
 10
1396.797826189083
 20
705.061777918302
 30
0.0
 11
1396.902496189083
 21
703.0645189183019
 31
0.0
  0
LINE
  5
6F98
330
1E
100
AcDbEntity
  8
躯体と製品
  6
DASHED1
 62
     7
100
AcDbLine
 10
1396.902496189083
 20
703.0645189183019
 30
0.0
 11
1394.905237189083
 21
702.959845918302
 31
0.0
  0
LINE
  5
6F99
330
1E
100
AcDbEntity
  8
躯体と製品
  6
DASHED1
 62
     7
100
AcDbLine
 10
1394.905237189083
 20
702.959845918302
 30
0.0
 11
1393.801936189083
 21
704.904769918302
 31
0.0
  0
LINE
  5
6F9A
330
1E
100
AcDbEntity
  8
躯体と製品
  6
DASHED1
 62
     7
100
AcDbLine
 10
1393.801936189083
 20
704.904769918302
 30
0.0
 11
1391.804677189083
 21
704.8000969183021
 31
0.0
  0
LINE
  5
6F9B
330
1E
100
AcDbEntity
  8
躯体と製品
  6
DASHED1
 62
     7
100
AcDbLine
 10
1391.804677189083
 20
704.8000969183021
 30
0.0
 11
1391.909350189083
 21
702.802837918302
 31
0.0
  0
LINE
  5
6F9C
330
1E
100
AcDbEntity
  8
躯体と製品
  6
DASHED1
 62
     7
100
AcDbLine
 10
1391.909350189083
 20
702.802837918302
 30
0.0
 11
1389.912091189083
 21
702.698167918302
 31
0.0
  0
LINE
  5
6F9D
330
1E
100
AcDbEntity
  8
躯体と製品
  6
DASHED1
 62
     7
100
AcDbLine
 10
1392.558616189083
 20
706.3416679183019
 30
0.0
 11
1390.689172189083
 21
708.2111149183019
 31
0.0
  0
LINE
  5
6F9E
330
1E
100
AcDbEntity
  8
躯体と製品
  6
DASHED1
 62
     7
100
AcDbLine
 10
1418.492812189083
 20
714.533452918302
 30
0.0
 11
1411.888792189083
 21
713.590021918302
 31
0.0
  0
LINE
  5
6F9F
330
1E
100
AcDbEntity
  8
躯体と製品
  6
DASHED1
 62
     7
100
AcDbLine
 10
1406.888791189083
 20
703.5878779183018
 30
0.0
 11
1411.546771189083
 21
701.892511918302
 31
0.0
  0
LINE
  5
6FA0
330
1E
100
AcDbEntity
  8
躯体と製品
  6
DASHED1
 62
     7
100
AcDbLine
 10
1414.689172189083
 20
712.211113918302
 30
0.0
 11
1426.689172189083
 21
712.211113918302
 31
0.0
  0
LINE
  5
6FA1
330
1E
100
AcDbEntity
  8
躯体と製品
  6
DASHED1
 62
     7
100
AcDbLine
 10
1396.797826189083
 20
711.3604489183019
 30
0.0
 11
1396.902496189083
 21
713.3577079183021
 31
0.0
  0
ARC
  5
6FA2
330
1E
100
AcDbEntity
  8
躯体と製品
  6
Continuous
 62
     7
100
AcDbCircle
 10
1456.23599449613
 20
719.2274592103103
 30
0.0
 40
0.5
100
AcDbArc
 50
268.0950670994443
 51
358.0950670957424
  0
ARC
  5
6FA3
330
1E
100
AcDbEntity
  8
躯体と製品
  6
Continuous
 62
     7
100
AcDbCircle
 10
1457.252062466973
 20
719.6939416628886
 30
0.0
 40
0.4999999999354556
100
AcDbArc
 50
358.0950670994413
 51
178.0950670994412
  0
LINE
  5
6FA4
330
1E
100
AcDbEntity
  8
躯体と製品
  6
Continuous
 62
     7
100
AcDbLine
 10
1457.718544919548
 20
718.6778736919494
 30
0.0
 11
1457.751786145903
 21
719.6773210497424
 31
0.0
  0
ARC
  5
6FA5
330
1E
100
AcDbEntity
  8
躯体と製品
  6
Continuous
 62
     7
100
AcDbCircle
 10
1456.719097561819
 20
718.7111149183019
 30
0.0
 40
1.0
100
AcDbArc
 50
268.0950670994443
 51
358.0950670957424
  0
LINE
  5
6FA6
330
1E
100
AcDbEntity
  8
躯体と製品
  6
Continuous
 62
     7
100
AcDbLine
 10
1456.735718174995
 20
719.2108385971339
 30
0.0
 11
1456.752338788172
 21
719.7105622760305
 31
0.0
  0
LINE
  5
6FA7
330
1E
100
AcDbEntity
  8
躯体と製品
  6
Continuous
 62
     7
100
AcDbLine
 10
1450.722413415371
 20
718.9105622760328
 30
0.0
 11
1456.219373882986
 21
718.7277355314449
 31
0.0
  0
ARC
  5
6FA8
330
1E
100
AcDbEntity
  8
躯体と製品
  6
Continuous
 62
     7
100
AcDbCircle
 10
1450.689172189083
 20
717.911114918302
 30
0.0
 40
1.0
100
AcDbArc
 50
88.09506709944431
 51
180.0
  0
LINE
  5
6FA9
330
1E
100
AcDbEntity
  8
躯体と製品
  6
Continuous
 62
     7
100
AcDbLine
 10
1450.999144556969
 20
717.90080535918
 30
0.0
 11
1456.685856335531
 21
717.7116675605711
 31
0.0
  0
ARC
  5
6FAA
330
1E
100
AcDbEntity
  8
躯体と製品
  6
Continuous
 62
     7
100
AcDbCircle
 10
1450.989172189083
 20
717.6009711518604
 30
0.0
 40
0.2999999999999999
100
AcDbArc
 50
88.09506709944431
 51
180.0
  0
LINE
  5
6FAB
330
1E
100
AcDbEntity
  8
躯体と製品
  6
Continuous
 62
     7
100
AcDbLine
 10
1449.689172189083
 20
717.911114918302
 30
0.0
 11
1449.689172189083
 21
716.211114918302
 31
0.0
  0
LINE
  5
6FAC
330
1E
100
AcDbEntity
  8
躯体と製品
  6
Continuous
 62
     7
100
AcDbLine
 10
1450.689172189083
 20
717.6009711518604
 30
0.0
 11
1450.689172189083
 21
716.5111149183019
 31
0.0
  0
LINE
  5
6FAD
330
1E
100
AcDbEntity
  8
躯体と製品
  6
Continuous
 62
     4
100
AcDbLine
 10
1473.858087795042
 20
706.4130771759249
 30
0.0
 11
1472.498318978686
 21
707.7728459922802
 31
0.0
  0
LINE
  5
6FAE
330
1E
100
AcDbEntity
  8
躯体と製品
  6
Continuous
 62
     4
100
AcDbLine
 10
1472.827591898423
 20
706.0293595101701
 30
0.0
 11
1471.005890556993
 21
707.8510608515999
 31
0.0
  0
LINE
  5
6FAF
330
1E
100
AcDbEntity
  8
躯体と製品
  6
Continuous
 62
     4
100
AcDbLine
 10
1471.335163476732
 20
706.1075743694898
 30
0.0
 11
1469.513462135302
 21
707.9292757109199
 31
0.0
  0
LINE
  5
6FB0
330
1E
100
AcDbEntity
  8
躯体と製品
  6
Continuous
 62
     4
100
AcDbLine
 10
1469.842735055039
 20
706.1857892288094
 30
0.0
 11
1468.021033713609
 21
708.0074905702397
 31
0.0
  0
LINE
  5
6FB1
330
1E
100
AcDbEntity
  8
躯体と製品
  6
Continuous
 62
     4
100
AcDbLine
 10
1468.350306633345
 20
706.2640040881294
 30
0.0
 11
1466.528605291915
 21
708.0857054295594
 31
0.0
  0
LINE
  5
6FB2
330
1E
100
AcDbEntity
  8
躯体と製品
  6
Continuous
 62
     4
100
AcDbLine
 10
1466.857878211652
 20
706.3422189474493
 30
0.0
 11
1465.036176870222
 21
708.1639202888792
 31
0.0
  0
LINE
  5
6FB3
330
1E
100
AcDbEntity
  8
躯体と製品
  6
Continuous
 62
     4
100
AcDbLine
 10
1465.36544978996
 20
706.4204338067689
 30
0.0
 11
1463.543748448529
 21
708.2421351481989
 31
0.0
  0
LINE
  5
6FB4
330
1E
100
AcDbEntity
  8
躯体と製品
  6
Continuous
 62
     4
100
AcDbLine
 10
1463.873021368266
 20
706.4986486660886
 30
0.0
 11
1462.051320026836
 21
708.3203500075187
 31
0.0
  0
LINE
  5
6FB5
330
1E
100
AcDbEntity
  8
躯体と製品
  6
Continuous
 62
     4
100
AcDbLine
 10
1462.380592946573
 20
706.5768635254087
 30
0.0
 11
1460.558891605143
 21
708.3985648668386
 31
0.0
  0
LINE
  5
6FB6
330
1E
100
AcDbEntity
  8
躯体と製品
  6
Continuous
 62
     4
100
AcDbLine
 10
1460.888164524879
 20
706.655078384729
 30
0.0
 11
1459.06646318345
 21
708.4767797261584
 31
0.0
  0
LINE
  5
6FB7
330
1E
100
AcDbEntity
  8
躯体と製品
  6
Continuous
 62
     7
100
AcDbLine
 10
1473.835210503904
 20
705.9765524566922
 30
0.0
 11
1473.925430589502
 21
707.6980542419683
 31
0.0
  0
LINE
  5
6FB8
330
1E
100
AcDbEntity
  8
躯体と製品
  6
Continuous
 62
     7
100
AcDbLine
 10
1458.855767482586
 20
706.7615918003363
 30
0.0
 11
1458.945987568184
 21
708.4830935856123
 31
0.0
  0
LINE
  5
6FB9
330
1E
100
AcDbEntity
  8
躯体と製品
  6
Continuous
 62
     4
100
AcDbLine
 10
1798.412686590279
 20
689.4038913969683
 30
0.0
 11
1797.052917773924
 21
690.7636602133235
 31
0.0
  0
LINE
  5
6FBA
330
1E
100
AcDbEntity
  8
躯体と製品
  6
Continuous
 62
     4
100
AcDbLine
 10
1797.38219069366
 20
689.0201737312136
 30
0.0
 11
1795.56048935223
 21
690.8418750726434
 31
0.0
  0
LINE
  5
6FBB
330
1E
100
AcDbEntity
  8
躯体と製品
  6
Continuous
 62
     4
100
AcDbLine
 10
1795.889762271969
 20
689.0983885905333
 30
0.0
 11
1794.068060930539
 21
690.920089931963
 31
0.0
  0
LINE
  5
6FBC
330
1E
100
AcDbEntity
  8
躯体と製品
  6
Continuous
 62
     4
100
AcDbLine
 10
1794.397333850276
 20
689.1766034498528
 30
0.0
 11
1792.575632508846
 21
690.9983047912827
 31
0.0
  0
LINE
  5
6FBD
330
1E
100
AcDbEntity
  8
躯体と製品
  6
Continuous
 62
     4
100
AcDbLine
 10
1792.904905428583
 20
689.2548183091728
 30
0.0
 11
1791.083204087153
 21
691.0765196506027
 31
0.0
  0
LINE
  5
6FBE
330
1E
100
AcDbEntity
  8
躯体と製品
  6
Continuous
 62
     4
100
AcDbLine
 10
1791.41247700689
 20
689.3330331684926
 30
0.0
 11
1789.59077566546
 21
691.1547345099227
 31
0.0
  0
LINE
  5
6FBF
330
1E
100
AcDbEntity
  8
躯体と製品
  6
Continuous
 62
     4
100
AcDbLine
 10
1789.920048585196
 20
689.4112480278122
 30
0.0
 11
1788.098347243766
 21
691.2329493692425
 31
0.0
  0
LINE
  5
6FC0
330
1E
100
AcDbEntity
  8
躯体と製品
  6
Continuous
 62
     4
100
AcDbLine
 10
1788.427620163504
 20
689.4894628871318
 30
0.0
 11
1786.605918822073
 21
691.3111642285622
 31
0.0
  0
LINE
  5
6FC1
330
1E
100
AcDbEntity
  8
躯体と製品
  6
Continuous
 62
     4
100
AcDbLine
 10
1786.93519174181
 20
689.5676777464522
 30
0.0
 11
1785.11349040038
 21
691.3893790878821
 31
0.0
  0
LINE
  5
6FC2
330
1E
100
AcDbEntity
  8
躯体と製品
  6
Continuous
 62
     4
100
AcDbLine
 10
1785.442763320116
 20
689.6458926057723
 30
0.0
 11
1783.621061978687
 21
691.4675939472017
 31
0.0
  0
LINE
  5
6FC3
330
1E
100
AcDbEntity
  8
躯体と製品
  6
Continuous
 62
     7
100
AcDbLine
 10
1798.389809299141
 20
688.9673666777355
 30
0.0
 11
1798.480029384739
 21
690.6888684630115
 31
0.0
  0
LINE
  5
6FC4
330
1E
100
AcDbEntity
  8
躯体と製品
  6
Continuous
 62
     7
100
AcDbLine
 10
1783.410366277823
 20
689.7524060213798
 30
0.0
 11
1783.500586363421
 21
691.4739078066555
 31
0.0
  0
ARC
  5
6FC5
330
1E
100
AcDbEntity
  8
躯体と製品
  6
Continuous
 62
     3
100
AcDbCircle
 10
1824.689172189083
 20
688.3139331457258
 30
0.0
 40
1.0
100
AcDbArc
 50
0.0
 51
86.99999999999441
  0
LINE
  5
6FC6
330
1E
100
AcDbEntity
  8
躯体と製品
  6
Continuous
 62
     3
100
AcDbLine
 10
1443.532164320354
 20
709.2908978322925
 30
0.0
 11
1824.741508145326
 21
689.3125626804805
 31
0.0
  0
POINT
  5
6FC7
330
1E
100
AcDbEntity
  8
躯体と製品
 62
     4
100
AcDbPoint
 10
1827.689172189083
 20
601.1608268458705
 30
0.0
  0
POINT
  5
6FC8
330
1E
100
AcDbEntity
  8
躯体と製品
 62
     4
100
AcDbPoint
 10
1827.689172189083
 20
691.1608268458707
 30
0.0
  0
LINE
  5
6FC9
330
1E
100
AcDbEntity
  8
躯体と製品
  6
Continuous
 62
     3
100
AcDbLine
 10
1827.689172189083
 20
688.3139331457258
 30
0.0
 11
1827.689172189083
 21
604.1608268458706
 31
0.0
  0
LINE
  5
6FCA
330
1E
100
AcDbEntity
  8
躯体と製品
  6
Continuous
 62
     3
100
AcDbLine
 10
1817.689172189083
 20
601.1608268458705
 30
0.0
 11
1817.689172189083
 21
603.1608268458706
 31
0.0
  0
ARC
  5
6FCB
330
1E
100
AcDbEntity
  8
躯体と製品
  6
Continuous
 62
     3
100
AcDbCircle
 10
1824.689172189083
 20
604.1608268458706
 30
0.0
 40
1.0
100
AcDbArc
 50
270.0
 51
0.0
  0
LINE
  5
6FCC
330
1E
100
AcDbEntity
  8
躯体と製品
  6
Continuous
 62
     3
100
AcDbLine
 10
1824.689172189083
 20
603.1608268458706
 30
0.0
 11
1817.689172189083
 21
603.1608268458706
 31
0.0
  0
LINE
  5
6FCD
330
1E
100
AcDbEntity
  8
躯体と製品
  6
Continuous
 62
     3
100
AcDbLine
 10
1825.689172189083
 20
604.1608268458706
 30
0.0
 11
1825.689172189083
 21
688.3139331457258
 31
0.0
  0
ARC
  5
6FCE
330
1E
100
AcDbEntity
  8
躯体と製品
  6
Continuous
 62
     3
100
AcDbCircle
 10
1824.689172189083
 20
604.1608268458706
 30
0.0
 40
3.0
100
AcDbArc
 50
270.0
 51
0.0
  0
ARC
  5
6FCF
330
1E
100
AcDbEntity
  8
躯体と製品
  6
Continuous
 62
     3
100
AcDbCircle
 10
1824.689172189083
 20
688.3139331457258
 30
0.0
 40
3.0
100
AcDbArc
 50
0.0
 51
86.99999999999441
  0
LINE
  5
6FD0
330
1E
100
AcDbEntity
  8
躯体と製品
  6
Continuous
 62
     3
100
AcDbLine
 10
1824.689172189083
 20
601.1608268458705
 30
0.0
 11
1817.689172189083
 21
601.1608268458705
 31
0.0
  0
ARC
  5
6FD1
330
1E
100
AcDbEntity
  8
躯体と製品
  6
Continuous
 62
     3
100
AcDbCircle
 10
1443.689172189083
 20
712.2867864365562
 30
0.0
 40
1.0
100
AcDbArc
 50
180.0
 51
266.9999999999944
  0
LINE
  5
6FD2
330
1E
100
AcDbEntity
  8
躯体と製品
  6
Continuous
 62
     3
100
AcDbLine
 10
1442.689172189083
 20
712.2867864365562
 30
0.0
 11
1442.689172189083
 21
723.3378218698415
 31
0.0
  0
ARC
  5
6FD3
330
1E
100
AcDbEntity
  8
躯体と製品
  6
Continuous
 62
     3
100
AcDbCircle
 10
1443.689172189083
 20
712.2867864365562
 30
0.0
 40
3.0
100
AcDbArc
 50
180.0
 51
266.9999999999944
  0
LINE
  5
6FD4
330
1E
100
AcDbEntity
  8
躯体と製品
  6
Continuous
 62
     3
100
AcDbLine
 10
1440.689172189083
 20
712.2867864365562
 30
0.0
 11
1440.689172189083
 21
723.3378218698415
 31
0.0
  0
LINE
  5
6FD5
330
1E
100
AcDbEntity
  8
躯体と製品
  6
Continuous
 62
     3
100
AcDbLine
 10
1440.689172189083
 20
723.3378218698415
 30
0.0
 11
1442.689172189083
 21
723.3378218698415
 31
0.0
  0
LINE
  5
6FD6
330
1E
100
AcDbEntity
  8
躯体と製品
  6
Continuous
 62
     3
100
AcDbLine
 10
1443.63683623284
 20
711.2881569018018
 30
0.0
 11
1824.846180057812
 21
691.3098217499896
 31
0.0
  0
LINE
  5
6FD7
330
1E
100
AcDbEntity
  8
躯体と製品
  6
DASHED1
 62
     4
100
AcDbLine
 10
1762.286384545386
 20
668.8292753816377
 30
0.0
 11
1762.380589266624
 21
670.6268085441958
 31
0.0
  0
LINE
  5
6FD8
330
1E
100
AcDbEntity
  8
躯体と製品
  6
DASHED1
 62
     4
100
AcDbLine
 10
1582.533068289563
 20
678.2497475053678
 30
0.0
 11
1582.6272730108
 21
680.0472806679258
 31
0.0
  0
LINE
  5
6FD9
330
1E
100
AcDbEntity
  8
躯体と製品
  6
DASHED1
 62
     4
100
AcDbLine
 10
1783.331862343458
 20
688.2544617192477
 30
0.0
 11
1473.75670656954
 21
704.4786081545606
 31
0.0
  0
LINE
  5
6FDA
330
1E
100
AcDbEntity
  8
躯体と製品
  6
Continuous
 62
     3
100
AcDbLine
 10
1798.075793561683
 20
682.9755894692079
 30
0.0
 11
1458.541751745128
 21
700.769814591809
 31
0.0
  0
LINE
  5
6FDB
330
1E
100
AcDbEntity
  8
躯体と製品
  6
Continuous
 62
     3
100
AcDbLine
 10
1798.154297496048
 20
684.4735337713403
 30
0.0
 11
1458.620255679493
 21
702.267758893941
 31
0.0
  0
LINE
  5
6FDC
330
1E
100
AcDbEntity
  8
躯体と製品
  6
DASHED1
 62
     4
100
AcDbLine
 10
1796.976738480581
 20
662.0043692393619
 30
0.0
 11
1457.442696664026
 21
679.7985943619631
 31
0.0
  0
LINE
  5
6FDD
330
1E
100
AcDbEntity
  8
躯体と製品
  6
DASHED1
 62
     4
100
AcDbLine
 10
1797.055242414946
 20
663.5023135414939
 30
0.0
 11
1457.521200598391
 21
681.2965386640946
 31
0.0
  0
LINE
  5
6FDE
330
1E
100
AcDbEntity
  8
躯体と製品
  6
DASHED1
 62
     4
100
AcDbLine
 10
1797.238418261796
 20
666.9975169131346
 30
0.0
 11
1457.704376445241
 21
684.791742035736
 31
0.0
  0
LINE
  5
6FDF
330
1E
100
AcDbEntity
  8
躯体と製品
  6
DASHED1
 62
     4
100
AcDbLine
 10
1797.332622983034
 20
668.7950500756929
 30
0.0
 11
1457.798581166478
 21
686.5892751982943
 31
0.0
  0
LINE
  5
6FE0
330
1E
100
AcDbEntity
  8
躯体と製品
  6
Continuous
 62
     3
100
AcDbLine
 10
1796.924402524339
 20
661.0057397046075
 30
0.0
 11
1457.390360707784
 21
678.7999648272083
 31
0.0
  0
LINE
  5
6FE1
330
1E
100
AcDbEntity
  8
躯体と製品
  6
Continuous
 62
     3
100
AcDbLine
 10
1798.389809299141
 20
688.9673666777355
 30
0.0
 11
1458.855767482586
 21
706.7615918003363
 31
0.0
  0
LINE
  5
6FE2
330
1E
100
AcDbEntity
  8
躯体と製品
  6
Continuous
 62
     4
100
AcDbLine
 10
1798.247599762841
 20
686.2538470772908
 30
0.0
 11
1795.904517723019
 21
688.5969291171122
 31
0.0
  0
LINE
  5
6FE3
330
1E
100
AcDbEntity
  8
躯体と製品
  6
Continuous
 62
     4
100
AcDbLine
 10
1798.318024738496
 20
687.5976356640083
 30
0.0
 11
1797.396946144712
 21
688.5187142577922
 31
0.0
  0
LINE
  5
6FE4
330
1E
100
AcDbEntity
  8
躯体と製品
  6
Continuous
 62
     4
100
AcDbLine
 10
1798.177174787185
 20
684.9100584905727
 30
0.0
 11
1794.412089301326
 21
688.6751439764318
 31
0.0
  0
LINE
  5
6FE5
330
1E
100
AcDbEntity
  8
躯体と製品
  6
Continuous
 62
     4
100
AcDbLine
 10
1797.146678890567
 20
684.5263408248182
 30
0.0
 11
1792.919660879633
 21
688.7533588357516
 31
0.0
  0
LINE
  5
6FE6
330
1E
100
AcDbEntity
  8
躯体と製品
  6
Continuous
 62
     4
100
AcDbLine
 10
1795.654250468875
 20
684.6045556841378
 30
0.0
 11
1791.427232457942
 21
688.8315736950715
 31
0.0
  0
LINE
  5
6FE7
330
1E
100
AcDbEntity
  8
躯体と製品
  6
Continuous
 62
     4
100
AcDbLine
 10
1794.161822047183
 20
684.6827705434575
 30
0.0
 11
1789.934804036249
 21
688.9097885543913
 31
0.0
  0
LINE
  5
6FE8
330
1E
100
AcDbEntity
  8
躯体と製品
  6
Continuous
 62
     4
100
AcDbLine
 10
1792.669393625489
 20
684.7609854027773
 30
0.0
 11
1788.442375614556
 21
688.9880034137109
 31
0.0
  0
LINE
  5
6FE9
330
1E
100
AcDbEntity
  8
躯体と製品
  6
Continuous
 62
     4
100
AcDbLine
 10
1791.176965203796
 20
684.8392002620969
 30
0.0
 11
1786.949947192862
 21
689.066218273031
 31
0.0
  0
LINE
  5
6FEA
330
1E
100
AcDbEntity
  8
躯体と製品
  6
Continuous
 62
     4
100
AcDbLine
 10
1789.684536782103
 20
684.9174151214168
 30
0.0
 11
1785.457518771169
 21
689.1444331323507
 31
0.0
  0
LINE
  5
6FEB
330
1E
100
AcDbEntity
  8
躯体と製品
  6
Continuous
 62
     4
100
AcDbLine
 10
1788.19210836041
 20
684.9956299807363
 30
0.0
 11
1783.965090349476
 21
689.2226479916705
 31
0.0
  0
LINE
  5
6FEC
330
1E
100
AcDbEntity
  8
躯体と製品
  6
Continuous
 62
     4
100
AcDbLine
 10
1786.699679938717
 20
685.0738448400566
 30
0.0
 11
1783.341184560571
 21
688.4323402182028
 31
0.0
  0
LINE
  5
6FED
330
1E
100
AcDbEntity
  8
躯体と製品
  6
Continuous
 62
     4
100
AcDbLine
 10
1785.207251517023
 20
685.1520596993768
 30
0.0
 11
1783.270759584915
 21
687.0885516314851
 31
0.0
  0
LINE
  5
6FEE
330
1E
100
AcDbEntity
  8
躯体と製品
  6
Continuous
 62
     7
100
AcDbLine
 10
1783.174854474729
 20
685.258573114984
 30
0.0
 11
1783.384198299701
 21
689.2530912540025
 31
0.0
  0
LINE
  5
6FEF
330
1E
100
AcDbEntity
  8
躯体と製品
  6
Continuous
 62
     7
100
AcDbLine
 10
1798.36364132102
 20
688.4680519103583
 30
0.0
 11
1783.384198299701
 21
689.2530912540025
 31
0.0
  0
LINE
  5
6FF0
330
1E
100
AcDbEntity
  8
躯体と製品
  6
Continuous
 62
     4
100
AcDbLine
 10
1783.714823095332
 20
685.230274558696
 30
0.0
 11
1783.200334609259
 21
685.7447630447691
 31
0.0
  0
ARC
  5
6FF1
330
1E
100
AcDbEntity
  8
躯体と製品
  6
Continuous
 62
     3
100
AcDbCircle
 10
1807.190026440983
 20
659.7225624570366
 30
0.0
 40
0.5999999999999984
100
AcDbArc
 50
166.9999999999997
 51
346.9999999999997
  0
ARC
  5
6FF2
330
1E
100
AcDbEntity
  8
躯体と製品
  6
Continuous
 62
     3
100
AcDbCircle
 10
1806.701411912639
 20
662.4960930465331
 30
0.0
 40
0.5
100
AcDbArc
 50
346.9999999999997
 51
86.99999999999441
  0
ARC
  5
6FF3
330
1E
100
AcDbEntity
  8
躯体と製品
  6
Continuous
 62
     3
100
AcDbCircle
 10
1808.77516618004
 20
662.5876866597995
 30
0.0
 40
0.2999999999999999
100
AcDbArc
 50
86.99999999999441
 51
166.9999999999997
  0
ARC
  5
6FF4
330
1E
100
AcDbEntity
  8
躯体と製品
  6
Continuous
 62
     3
100
AcDbCircle
 10
1811.457407419489
 20
614.5608268458707
 30
0.0
 40
0.6000000000000015
100
AcDbArc
 50
90.0
 51
270.0
  0
LINE
  5
6FF5
330
1E
100
AcDbEntity
  8
躯体と製品
  6
Continuous
 62
     3
100
AcDbLine
 10
1822.624881697445
 20
606.8455141400735
 30
0.0
 11
1822.624881697445
 21
603.1608268458706
 31
0.0
  0
LINE
  5
6FF6
330
1E
100
AcDbEntity
  8
躯体と製品
  6
Continuous
 62
     3
100
AcDbLine
 10
1825.624881697444
 20
605.6608268458705
 30
0.0
 11
1825.624881697444
 21
607.1608268458706
 31
0.0
  0
LINE
  5
6FF7
330
1E
100
AcDbEntity
  8
躯体と製品
  6
Continuous
 62
     3
100
AcDbLine
 10
1823.124881697444
 20
603.1608268458706
 30
0.0
 11
1822.624881697445
 21
603.1608268458706
 31
0.0
  0
ARC
  5
6FF8
330
1E
100
AcDbEntity
  8
躯体と製品
  6
Continuous
 62
     3
100
AcDbCircle
 10
1823.124881697444
 20
605.6608268458705
 30
0.0
 40
2.5
100
AcDbArc
 50
270.0
 51
0.0
  0
LINE
  5
6FF9
330
1E
100
AcDbEntity
  8
躯体と製品
  6
Continuous
 62
     3
100
AcDbLine
 10
1815.857407419489
 20
615.1608268458706
 30
0.0
 11
1815.857407419489
 21
616.1608268458706
 31
0.0
  0
LINE
  5
6FFA
330
1E
100
AcDbEntity
  8
躯体と製品
  6
Continuous
 62
     3
100
AcDbLine
 10
1815.857407419489
 20
616.1608268458706
 30
0.0
 11
1813.857407419489
 21
615.1608268458706
 31
0.0
  0
LINE
  5
6FFB
330
1E
100
AcDbEntity
  8
躯体と製品
  6
Continuous
 62
     3
100
AcDbLine
 10
1811.457407419489
 20
615.1608268458706
 30
0.0
 11
1813.857407419489
 21
615.1608268458706
 31
0.0
  0
ARC
  5
6FFC
330
1E
100
AcDbEntity
  8
躯体と製品
  6
Continuous
 62
     3
100
AcDbCircle
 10
1820.239958841222
 20
615.6608268458706
 30
0.0
 40
0.5
100
AcDbArc
 50
270.0
 51
11.99999999999979
  0
LINE
  5
6FFD
330
1E
100
AcDbEntity
  8
躯体と製品
  6
Continuous
 62
     3
100
AcDbLine
 10
1820.707583276895
 20
613.9608268458705
 30
0.0
 11
1811.457407419489
 21
613.9608268458705
 31
0.0
  0
LINE
  5
6FFE
330
1E
100
AcDbEntity
  8
躯体と製品
  6
Continuous
 62
     3
100
AcDbLine
 10
1821.196657077262
 20
613.5647826912793
 30
0.0
 11
1822.624881697445
 21
606.8455141400735
 31
0.0
  0
ARC
  5
6FFF
330
1E
100
AcDbEntity
  8
躯体と製品
  6
Continuous
 62
     3
100
AcDbCircle
 10
1820.707583276895
 20
613.4608268458705
 30
0.0
 40
0.5
100
AcDbArc
 50
11.99999999999979
 51
90.0
  0
ARC
  5
7000
330
1E
100
AcDbEntity
  8
躯体と製品
  6
Continuous
 62
     3
100
AcDbCircle
 10
1797.476053247959
 20
661.9782012612406
 30
0.0
 40
0.5
100
AcDbArc
 50
177.0000000000011
 51
266.9999999999944
  0
LINE
  5
7001
330
1E
100
AcDbEntity
  8
躯体と製品
  6
Continuous
 62
     3
100
AcDbLine
 10
1797.949200037215
 20
661.4527185157418
 30
0.0
 11
1797.449885269837
 21
661.4788864938629
 31
0.0
  0
ARC
  5
7002
330
1E
100
AcDbEntity
  8
躯体と製品
  6
Continuous
 62
     3
100
AcDbCircle
 10
1797.975368015336
 20
661.9520332831188
 30
0.0
 40
0.5
100
AcDbArc
 50
266.9999999999944
 51
357.0000000000011
  0
ARC
  5
7003
330
1E
100
AcDbEntity
  8
躯体と製品
  6
Continuous
 62
     3
100
AcDbCircle
 10
1809.915877442736
 20
661.8269438735199
 30
0.0
 40
1.0
100
AcDbArc
 50
11.99999999999979
 51
86.99999999999441
  0
ARC
  5
7004
330
1E
100
AcDbEntity
  8
躯体と製品
  6
Continuous
 62
     3
100
AcDbCircle
 10
1810.734488791989
 20
662.7854146166075
 30
0.0
 40
3.0
100
AcDbArc
 50
11.99999999999979
 51
86.99999999999441
  0
ARC
  5
7005
330
1E
100
AcDbEntity
  8
躯体と製品
  6
Continuous
 62
     3
100
AcDbCircle
 10
1797.842404941659
 20
668.9686080045224
 30
0.0
 40
0.5
100
AcDbArc
 50
86.99999999999441
 51
177.0000000000011
  0
LINE
  5
7006
330
1E
100
AcDbEntity
  8
躯体と製品
  6
Continuous
 62
     3
100
AcDbLine
 10
1798.367887687158
 20
669.4417547937785
 30
0.0
 11
1797.868572919781
 21
669.4679227718999
 31
0.0
  0
ARC
  5
7007
330
1E
100
AcDbEntity
  8
躯体と製品
  6
Continuous
 62
     3
100
AcDbCircle
 10
1798.341719709037
 20
668.9424400264011
 30
0.0
 40
0.5
100
AcDbArc
 50
357.0000000000011
 51
86.99999999999441
  0
LINE
  5
7008
330
1E
100
AcDbEntity
  8
躯体と製品
  6
Continuous
 62
     3
100
AcDbLine
 10
1813.66893159419
 20
663.4091496890607
 30
0.0
 11
1825.624881697444
 21
607.1608268458706
 31
0.0
  0
LINE
  5
7009
330
1E
100
AcDbEntity
  8
躯体と製品
  6
Continuous
 62
     3
100
AcDbLine
 10
1810.89402504347
 20
662.0348555643374
 30
0.0
 11
1820.729032641589
 21
615.7647826912794
 31
0.0
  0
LINE
  5
700A
330
1E
100
AcDbEntity
  8
躯体と製品
  6
Continuous
 62
     3
100
AcDbLine
 10
1820.239958841222
 20
615.1608268458706
 30
0.0
 11
1815.857407419489
 21
615.1608268458706
 31
0.0
  0
LINE
  5
700B
330
1E
100
AcDbEntity
  8
躯体と製品
  6
Continuous
 62
     3
100
AcDbLine
 10
1798.736362563928
 20
666.9190129787702
 30
0.0
 11
1798.841034476414
 21
668.9162720482795
 31
0.0
  0
LINE
  5
700C
330
1E
100
AcDbEntity
  8
躯体と製品
  6
Continuous
 62
     3
100
AcDbLine
 10
1799.209509353184
 20
666.3935302332715
 30
0.0
 11
1810.891496660718
 21
665.7813032208712
 31
0.0
  0
ARC
  5
700D
330
1E
100
AcDbEntity
  8
躯体と製品
  6
Continuous
 62
     3
100
AcDbCircle
 10
1799.235677331305
 20
666.892845000649
 30
0.0
 40
0.5
100
AcDbArc
 50
177.0000000000011
 51
266.9999999999944
  0
LINE
  5
700E
330
1E
100
AcDbEntity
  8
躯体と製品
  6
Continuous
 62
     3
100
AcDbLine
 10
1798.527018738957
 20
662.9244948397522
 30
0.0
 11
1798.474682782713
 21
661.9258653049977
 31
0.0
  0
ARC
  5
700F
330
1E
100
AcDbEntity
  8
躯体と製品
  6
Continuous
 62
     3
100
AcDbCircle
 10
1799.026333506333
 20
662.8983268616307
 30
0.0
 40
0.5
100
AcDbArc
 50
86.99999999999441
 51
177.0000000000011
  0
LINE
  5
7010
330
1E
100
AcDbEntity
  8
躯体と製品
  6
Continuous
 62
     3
100
AcDbLine
 10
1808.482855160604
 20
662.6551719761026
 30
0.0
 11
1807.774648479855
 21
659.5875918244303
 31
0.0
  0
LINE
  5
7011
330
1E
100
AcDbEntity
  8
躯体と製品
  6
Continuous
 62
     3
100
AcDbLine
 10
1809.968213398979
 20
662.8255734082744
 30
0.0
 11
1808.790866966912
 21
662.8872755202256
 31
0.0
  0
LINE
  5
7012
330
1E
100
AcDbEntity
  8
躯体と製品
  6
Continuous
 62
     3
100
AcDbLine
 10
1799.052501484455
 20
663.3976416290079
 30
0.0
 11
1806.727579890761
 21
662.9954078139103
 31
0.0
  0
LINE
  5
7013
330
1E
100
AcDbEntity
  8
躯体と製品
  6
Continuous
 62
     3
100
AcDbLine
 10
1807.188596945032
 20
662.3836175193612
 30
0.0
 11
1806.605404402112
 21
659.8575330896427
 31
0.0
  0
LINE
  5
7014
330
1E
100
AcDbEntity
  8
躯体と製品
  6
Continuous
 62
     3
100
AcDbLine
 10
1796.924402524339
 20
661.0057397046075
 30
0.0
 11
1798.389809299141
 21
688.9673666777355
 31
0.0
  0
LINE
  5
7015
330
1E
100
AcDbEntity
  8
躯体と製品
  6
DASHED1
 62
     7
100
AcDbLine
 10
1768.751308543169
 20
667.9897768986815
 30
0.0
 11
1797.212250283675
 21
666.4982021457578
 31
0.0
  0
ARC
  5
7016
330
1E
100
AcDbEntity
  8
躯体と製品
  6
DASHED1
 62
     7
100
AcDbCircle
 10
1768.672804608805
 20
666.4918325965496
 30
0.0
 40
1.5
100
AcDbArc
 50
86.99999999999441
 51
266.9999999999944
  0
LINE
  5
7017
330
1E
100
AcDbEntity
  8
躯体と製品
  6
DASHED1
 62
     7
100
AcDbLine
 10
1768.59430067444
 20
664.9938882944177
 30
0.0
 11
1772.089504046082
 21
664.8107124475674
 31
0.0
  0
LINE
  5
7018
330
1E
100
AcDbEntity
  8
躯体と製品
  6
DASHED1
 62
     7
100
AcDbLine
 10
1772.141840002324
 20
665.8093419823224
 30
0.0
 11
1772.089504046082
 21
664.8107124475674
 31
0.0
  0
LINE
  5
7019
330
1E
100
AcDbEntity
  8
躯体と製品
  6
DASHED1
 62
     7
100
AcDbLine
 10
1772.141840002324
 20
665.8093419823224
 30
0.0
 11
1792.114430697416
 21
664.7626228574631
 31
0.0
  0
LINE
  5
701A
330
1E
100
AcDbEntity
  8
躯体と製品
  6
DASHED1
 62
     7
100
AcDbLine
 10
1792.114430697416
 20
664.7626228574631
 30
0.0
 11
1792.062094741173
 21
663.7639933227085
 31
0.0
  0
LINE
  5
701B
330
1E
100
AcDbEntity
  8
躯体と製品
  6
DASHED1
 62
     7
100
AcDbLine
 10
1792.062094741173
 20
663.7639933227085
 30
0.0
 11
1797.055242414946
 21
663.5023135414939
 31
0.0
  0
LINE
  5
701C
330
1E
100
AcDbEntity
  8
躯体と製品
  6
Continuous
 62
     4
100
AcDbLine
 10
1783.950334898426
 20
689.7241074650917
 30
0.0
 11
1783.435846412353
 21
690.2385959511645
 31
0.0
  0
LINE
  5
701D
330
1E
100
AcDbEntity
  8
躯体と製品
  6
Continuous
 62
     4
100
AcDbLine
 10
1473.693000967604
 20
703.2630328562475
 30
0.0
 11
1471.349918927782
 21
705.6061148960688
 31
0.0
  0
LINE
  5
701E
330
1E
100
AcDbEntity
  8
躯体と製品
  6
Continuous
 62
     4
100
AcDbLine
 10
1473.763425943259
 20
704.6068214429649
 30
0.0
 11
1472.842347349475
 21
705.5279000367491
 31
0.0
  0
LINE
  5
701F
330
1E
100
AcDbEntity
  8
躯体と製品
  6
Continuous
 62
     4
100
AcDbLine
 10
1473.622575991948
 20
701.9192442695294
 30
0.0
 11
1469.857490506089
 21
705.6843297553887
 31
0.0
  0
LINE
  5
7020
330
1E
100
AcDbEntity
  8
躯体と製品
  6
Continuous
 62
     4
100
AcDbLine
 10
1472.59208009533
 20
701.5355266037747
 30
0.0
 11
1468.365062084396
 21
705.7625446147083
 31
0.0
  0
LINE
  5
7021
330
1E
100
AcDbEntity
  8
躯体と製品
  6
Continuous
 62
     4
100
AcDbLine
 10
1471.099651673639
 20
701.6137414630946
 30
0.0
 11
1466.872633662705
 21
705.8407594740282
 31
0.0
  0
LINE
  5
7022
330
1E
100
AcDbEntity
  8
躯体と製品
  6
Continuous
 62
     4
100
AcDbLine
 10
1469.607223251945
 20
701.6919563224139
 30
0.0
 11
1465.380205241012
 21
705.9189743333481
 31
0.0
  0
LINE
  5
7023
330
1E
100
AcDbEntity
  8
躯体と製品
  6
Continuous
 62
     4
100
AcDbLine
 10
1468.114794830252
 20
701.7701711817339
 30
0.0
 11
1463.887776819318
 21
705.997189192668
 31
0.0
  0
LINE
  5
7024
330
1E
100
AcDbEntity
  8
躯体と製品
  6
Continuous
 62
     4
100
AcDbLine
 10
1466.622366408559
 20
701.8483860410537
 30
0.0
 11
1462.395348397626
 21
706.0754040519875
 31
0.0
  0
LINE
  5
7025
330
1E
100
AcDbEntity
  8
躯体と製品
  6
Continuous
 62
     4
100
AcDbLine
 10
1465.129937986866
 20
701.9266009003733
 30
0.0
 11
1460.902919975932
 21
706.1536189113073
 31
0.0
  0
LINE
  5
7026
330
1E
100
AcDbEntity
  8
躯体と製品
  6
Continuous
 62
     4
100
AcDbLine
 10
1463.637509565173
 20
702.0048157596932
 30
0.0
 11
1459.410491554239
 21
706.2318337706273
 31
0.0
  0
LINE
  5
7027
330
1E
100
AcDbEntity
  8
躯体と製品
  6
Continuous
 62
     4
100
AcDbLine
 10
1462.14508114348
 20
702.0830306190132
 30
0.0
 11
1458.786585765334
 21
705.4415259971595
 31
0.0
  0
LINE
  5
7028
330
1E
100
AcDbEntity
  8
躯体と製品
  6
Continuous
 62
     4
100
AcDbLine
 10
1460.652652721786
 20
702.1612454783335
 30
0.0
 11
1458.716160789678
 21
704.0977374104418
 31
0.0
  0
LINE
  5
7029
330
1E
100
AcDbEntity
  8
躯体と製品
  6
Continuous
 62
     4
100
AcDbLine
 10
1459.160224300095
 20
702.2394603376531
 30
0.0
 11
1458.645735814022
 21
702.7539488237257
 31
0.0
  0
LINE
  5
702A
330
1E
100
AcDbEntity
  8
躯体と製品
  6
Continuous
 62
     4
100
AcDbLine
 10
1459.395736103189
 20
706.7332932440485
 30
0.0
 11
1458.881247617116
 21
707.2477817301214
 31
0.0
  0
LINE
  5
702B
330
1E
100
AcDbEntity
  8
躯体と製品
  6
DASHED1
 62
     7
100
AcDbLine
 10
1457.521200598391
 20
681.2965386640946
 30
0.0
 11
1462.514348272164
 21
681.0348588828799
 31
0.0
  0
LINE
  5
702C
330
1E
100
AcDbEntity
  8
躯体と製品
  6
DASHED1
 62
     7
100
AcDbLine
 10
1462.514348272164
 20
681.0348588828799
 30
0.0
 11
1462.566684228407
 21
682.0334884176344
 31
0.0
  0
LINE
  5
702D
330
1E
100
AcDbEntity
  8
躯体と製品
  6
DASHED1
 62
     7
100
AcDbLine
 10
1462.566684228407
 20
682.0334884176344
 30
0.0
 11
1482.539274923498
 21
680.9867692927755
 31
0.0
  0
LINE
  5
702E
330
1E
100
AcDbEntity
  8
躯体と製品
  6
DASHED1
 62
     7
100
AcDbLine
 10
1482.486938967255
 20
679.988139758021
 30
0.0
 11
1482.539274923498
 21
680.9867692927755
 31
0.0
  0
LINE
  5
702F
330
1E
100
AcDbEntity
  8
躯体と製品
  6
DASHED1
 62
     7
100
AcDbLine
 10
1482.486938967255
 20
679.988139758021
 30
0.0
 11
1485.982142338896
 21
679.8049639111707
 31
0.0
  0
ARC
  5
7030
330
1E
100
AcDbEntity
  8
躯体と製品
  6
DASHED1
 62
     7
100
AcDbCircle
 10
1486.060646273261
 20
681.3029082133027
 30
0.0
 40
1.5
100
AcDbArc
 50
266.9999999999944
 51
86.99999999999441
  0
LINE
  5
7031
330
1E
100
AcDbEntity
  8
躯体と製品
  6
DASHED1
 62
     7
100
AcDbLine
 10
1457.67820846712
 20
684.2924272683585
 30
0.0
 11
1486.139150207625
 21
682.8008525154346
 31
0.0
  0
LINE
  5
7032
330
1E
100
AcDbEntity
  8
躯体と製品
  6
Continuous
 62
     3
100
AcDbLine
 10
1435.989172189083
 20
730.8263454008095
 30
0.0
 11
1435.989172189083
 21
729.311114918302
 31
0.0
  0
LINE
  5
7033
330
1E
100
AcDbEntity
  8
躯体と製品
  6
Continuous
 62
     3
100
AcDbLine
 10
1432.344963781548
 20
732.9087502051154
 30
0.0
 11
1435.989172189083
 21
730.8263454008095
 31
0.0
  0
ARC
  5
7034
330
1E
100
AcDbEntity
  8
躯体と製品
  6
Continuous
 62
     3
100
AcDbCircle
 10
1433.089172189083
 20
734.2111149183019
 30
0.0
 40
1.5
100
AcDbArc
 50
180.0
 51
240.2551187030594
  0
LINE
  5
7035
330
1E
100
AcDbEntity
  8
躯体と製品
  6
Continuous
 62
     3
100
AcDbLine
 10
1431.589172189083
 20
734.2111149183019
 30
0.0
 11
1431.589172189083
 21
737.4611149183019
 31
0.0
  0
ARC
  5
7036
330
1E
100
AcDbEntity
  8
躯体と製品
  6
Continuous
 62
     3
100
AcDbCircle
 10
1449.189172189083
 20
683.7359464619455
 30
0.0
 40
2.0
100
AcDbArc
 50
180.0
 51
266.9999999999944
  0
LINE
  5
7037
330
1E
100
AcDbEntity
  8
躯体と製品
  6
Continuous
 62
     3
100
AcDbLine
 10
1449.084500276597
 20
681.7386873924365
 30
0.0
 11
1455.523941528882
 21
681.4012105765804
 31
0.0
  0
LINE
  5
7038
330
1E
100
AcDbEntity
  8
躯体と製品
  6
Continuous
 62
     3
100
AcDbLine
 10
1447.189172189083
 20
683.7359464619455
 30
0.0
 11
1447.189172189083
 21
691.211114918302
 31
0.0
  0
ARC
  5
7039
330
1E
100
AcDbEntity
  8
躯体と製品
  6
Continuous
 62
     3
100
AcDbCircle
 10
1450.689172189083
 20
685.6600794850169
 30
0.0
 40
1.0
100
AcDbArc
 50
180.0
 51
266.9999999999944
  0
LINE
  5
703A
330
1E
100
AcDbEntity
  8
躯体と製品
  6
Continuous
 62
     3
100
AcDbLine
 10
1450.63683623284
 20
684.6614499502623
 30
0.0
 11
1455.68094939761
 21
684.3970991808443
 31
0.0
  0
LINE
  5
703B
330
1E
100
AcDbEntity
  8
躯体と製品
  6
Continuous
 62
     3
100
AcDbLine
 10
1449.689172189083
 20
685.6600794850169
 30
0.0
 11
1449.689172189083
 21
692.7111149183018
 31
0.0
  0
ARC
  5
703C
330
1E
100
AcDbEntity
  8
躯体と製品
  6
Continuous
 62
     3
100
AcDbCircle
 10
1455.49777355076
 20
680.9018958092034
 30
0.0
 40
0.5
100
AcDbArc
 50
357.0000000000011
 51
86.99999999999441
  0
LINE
  5
703D
330
1E
100
AcDbEntity
  8
躯体と製品
  6
Continuous
 62
     3
100
AcDbLine
 10
1455.997088318137
 20
680.8757278310817
 30
0.0
 11
1455.944752361894
 21
679.8770982963271
 31
0.0
  0
ARC
  5
703E
330
1E
100
AcDbEntity
  8
躯体と製品
  6
Continuous
 62
     3
100
AcDbCircle
 10
1456.444067129272
 20
679.8509303182059
 30
0.0
 40
0.5
100
AcDbArc
 50
177.0000000000011
 51
266.9999999999944
  0
LINE
  5
703F
330
1E
100
AcDbEntity
  8
躯体と製品
  6
Continuous
 62
     3
100
AcDbLine
 10
1456.41789915115
 20
679.3516155508283
 30
0.0
 11
1456.917213918527
 21
679.3254475727072
 31
0.0
  0
ARC
  5
7040
330
1E
100
AcDbEntity
  8
躯体と製品
  6
Continuous
 62
     3
100
AcDbCircle
 10
1456.943381896649
 20
679.8247623400843
 30
0.0
 40
0.5
100
AcDbArc
 50
266.9999999999944
 51
357.0000000000011
  0
ARC
  5
7041
330
1E
100
AcDbEntity
  8
躯体と製品
  6
Continuous
 62
     3
100
AcDbCircle
 10
1455.707117375732
 20
684.8964139482214
 30
0.0
 40
0.5
100
AcDbArc
 50
266.9999999999944
 51
357.0000000000011
  0
LINE
  5
7042
330
1E
100
AcDbEntity
  8
躯体と製品
  6
Continuous
 62
     3
100
AcDbLine
 10
1456.206432143109
 20
684.8702459701002
 30
0.0
 11
1456.311104055595
 21
686.8675050396091
 31
0.0
  0
ARC
  5
7043
330
1E
100
AcDbEntity
  8
躯体と製品
  6
Continuous
 62
     3
100
AcDbCircle
 10
1456.810418822972
 20
686.8413370614876
 30
0.0
 40
0.5
100
AcDbArc
 50
86.99999999999441
 51
177.0000000000011
  0
LINE
  5
7044
330
1E
100
AcDbEntity
  8
躯体と製品
  6
Continuous
 62
     3
100
AcDbLine
 10
1456.836586801094
 20
687.3406518288651
 30
0.0
 11
1457.335901568471
 21
687.3144838507434
 31
0.0
  0
ARC
  5
7045
330
1E
100
AcDbEntity
  8
躯体と製品
  6
Continuous
 62
     3
100
AcDbCircle
 10
1457.30973359035
 20
686.8151690833663
 30
0.0
 40
0.5
100
AcDbArc
 50
357.0000000000011
 51
86.99999999999441
  0
LINE
  5
7046
330
1E
100
AcDbEntity
  8
躯体と製品
  6
Continuous
 62
     3
100
AcDbLine
 10
1437.689172189083
 20
730.7111149183019
 30
0.0
 11
1443.189172189083
 21
730.7111149183019
 31
0.0
  0
LINE
  5
7047
330
1E
100
AcDbEntity
  8
躯体と製品
  6
Continuous
 62
     3
100
AcDbLine
 10
1444.189172189083
 20
732.211114918302
 30
0.0
 11
1436.589172189083
 21
732.211114918302
 31
0.0
  0
ARC
  5
7048
330
1E
100
AcDbEntity
  8
躯体と製品
  6
Continuous
 62
     3
100
AcDbCircle
 10
1437.689172189083
 20
730.2111149183019
 30
0.0
 40
0.5
100
AcDbArc
 50
90.0
 51
180.0
  0
LINE
  5
7049
330
1E
100
AcDbEntity
  8
躯体と製品
  6
Continuous
 62
     3
100
AcDbLine
 10
1437.189172189083
 20
730.2111149183019
 30
0.0
 11
1437.189172189083
 21
729.311114918302
 31
0.0
  0
LINE
  5
704A
330
1E
100
AcDbEntity
  8
躯体と製品
  6
Continuous
 62
     3
100
AcDbLine
 10
1433.089172189083
 20
734.2111149183019
 30
0.0
 11
1436.589172189083
 21
732.211114918302
 31
0.0
  0
LINE
  5
704B
330
1E
100
AcDbEntity
  8
躯体と製品
  6
Continuous
 62
     3
100
AcDbLine
 10
1433.089172189083
 20
737.4611149183019
 30
0.0
 11
1433.089172189083
 21
734.2111149183019
 31
0.0
  0
ARC
  5
704C
330
1E
100
AcDbEntity
  8
躯体と製品
  6
Continuous
 62
     3
100
AcDbCircle
 10
1432.339172189083
 20
737.4611149183019
 30
0.0
 40
0.75
100
AcDbArc
 50
0.0
 51
180.0
  0
ARC
  5
704D
330
1E
100
AcDbEntity
  8
躯体と製品
  6
Continuous
 62
     3
100
AcDbCircle
 10
1436.589172189083
 20
729.311114918302
 30
0.0
 40
0.5999999999999998
100
AcDbArc
 50
180.0
 51
0.0
  0
LINE
  5
704E
330
1E
100
AcDbEntity
  8
躯体と製品
  6
Continuous
 62
     3
100
AcDbLine
 10
1445.189172189083
 20
717.7111149183019
 30
0.0
 11
1445.189172189083
 21
731.2111149183019
 31
0.0
  0
ARC
  5
704F
330
1E
100
AcDbEntity
  8
躯体と製品
  6
Continuous
 62
     3
100
AcDbCircle
 10
1442.689172189083
 20
726.7111149183019
 30
0.0
 40
1.0
100
AcDbArc
 50
270.0
 51
0.0
  0
LINE
  5
7050
330
1E
100
AcDbEntity
  8
躯体と製品
  6
Continuous
 62
     3
100
AcDbLine
 10
1446.189172189083
 20
692.2111149183019
 30
0.0
 11
1435.689172189083
 21
692.2111149183019
 31
0.0
  0
LINE
  5
7051
330
1E
100
AcDbEntity
  8
躯体と製品
  6
Continuous
 62
     3
100
AcDbLine
 10
1442.689172189083
 20
725.7111149183019
 30
0.0
 11
1438.189172189083
 21
725.7111149183019
 31
0.0
  0
LINE
  5
7052
330
1E
100
AcDbEntity
  8
躯体と製品
  6
Continuous
 62
     3
100
AcDbLine
 10
1447.689172189083
 20
694.711114918302
 30
0.0
 11
1439.689172189083
 21
694.711114918302
 31
0.0
  0
LINE
  5
7053
330
1E
100
AcDbEntity
  8
躯体と製品
  6
Continuous
 62
     3
100
AcDbLine
 10
1439.189172189083
 20
724.211114918302
 30
0.0
 11
1443.189172189083
 21
724.211114918302
 31
0.0
  0
ARC
  5
7054
330
1E
100
AcDbEntity
  8
躯体と製品
  6
Continuous
 62
     3
100
AcDbCircle
 10
1447.689172189083
 20
692.7111149183018
 30
0.0
 40
2.0
100
AcDbArc
 50
0.0
 51
90.0
  0
ARC
  5
7055
330
1E
100
AcDbEntity
  8
躯体と製品
  6
Continuous
 62
     3
100
AcDbCircle
 10
1446.189172189083
 20
691.211114918302
 30
0.0
 40
1.0
100
AcDbArc
 50
0.0
 51
90.0
  0
LINE
  5
7056
330
1E
100
AcDbEntity
  8
躯体と製品
  6
Continuous
 62
     3
100
AcDbLine
 10
1444.689172189083
 20
717.2111149183019
 30
0.0
 11
1443.689172189083
 21
717.2111149183019
 31
0.0
  0
ARC
  5
7057
330
1E
100
AcDbEntity
  8
躯体と製品
  6
Continuous
 62
     3
100
AcDbCircle
 10
1444.689172189083
 20
717.7111149183019
 30
0.0
 40
0.5
100
AcDbArc
 50
270.0
 51
0.0
  0
LINE
  5
7058
330
1E
100
AcDbEntity
  8
躯体と製品
  6
Continuous
 62
     3
100
AcDbLine
 10
1443.689172189083
 20
723.711114918302
 30
0.0
 11
1443.689172189083
 21
719.211114918302
 31
0.0
  0
ARC
  5
7059
330
1E
100
AcDbEntity
  8
躯体と製品
  6
Continuous
 62
     3
100
AcDbCircle
 10
1443.189172189083
 20
723.711114918302
 30
0.0
 40
0.5
100
AcDbArc
 50
0.0
 51
90.0
  0
ARC
  5
705A
330
1E
100
AcDbEntity
  8
躯体と製品
  6
Continuous
 62
     3
100
AcDbCircle
 10
1443.689172189083
 20
718.2111149183019
 30
0.0
 40
1.0
100
AcDbArc
 50
90.0
 51
270.0
  0
ARC
  5
705B
330
1E
100
AcDbEntity
  8
躯体と製品
  6
Continuous
 62
     3
100
AcDbCircle
 10
1444.189172189083
 20
731.2111149183019
 30
0.0
 40
1.0
100
AcDbArc
 50
0.0
 51
90.0
  0
LINE
  5
705C
330
1E
100
AcDbEntity
  8
躯体と製品
  6
Continuous
 62
     3
100
AcDbLine
 10
1443.689172189083
 20
726.7111149183019
 30
0.0
 11
1443.689172189083
 21
730.2111149183019
 31
0.0
  0
ARC
  5
705D
330
1E
100
AcDbEntity
  8
躯体と製品
  6
Continuous
 62
     3
100
AcDbCircle
 10
1443.189172189083
 20
730.2111149183019
 30
0.0
 40
0.5
100
AcDbArc
 50
0.0
 51
90.0
  0
ARC
  5
705E
330
1E
100
AcDbEntity
  8
躯体と製品
  6
Continuous
 62
     3
100
AcDbCircle
 10
1439.689172189083
 20
695.7111149183019
 30
0.0
 40
1.0
100
AcDbArc
 50
180.0
 51
270.0
  0
ARC
  5
705F
330
1E
100
AcDbEntity
  8
躯体と製品
  6
Continuous
 62
     3
100
AcDbCircle
 10
1439.189172189083
 20
723.711114918302
 30
0.0
 40
0.5
100
AcDbArc
 50
90.0
 51
180.0
  0
LINE
  5
7060
330
1E
100
AcDbEntity
  8
躯体と製品
  6
Continuous
 62
     3
100
AcDbLine
 10
1438.689172189083
 20
695.7111149183019
 30
0.0
 11
1438.689172189083
 21
723.711114918302
 31
0.0
  0
LINE
  5
7061
330
1E
100
AcDbEntity
  8
躯体と製品
  6
Continuous
 62
     3
100
AcDbLine
 10
1436.189172189083
 20
693.7111149183019
 30
0.0
 11
1434.689172189083
 21
693.7111149183019
 31
0.0
  0
ARC
  5
7062
330
1E
100
AcDbEntity
  8
躯体と製品
  6
Continuous
 62
     3
100
AcDbCircle
 10
1436.189172189083
 20
694.211114918302
 30
0.0
 40
0.5
100
AcDbArc
 50
270.0
 51
0.0
  0
LINE
  5
7063
330
1E
100
AcDbEntity
  8
躯体と製品
  6
Continuous
 62
     3
100
AcDbLine
 10
1436.689172189083
 20
694.211114918302
 30
0.0
 11
1436.689172189083
 21
724.211114918302
 31
0.0
  0
ARC
  5
7064
330
1E
100
AcDbEntity
  8
躯体と製品
  6
Continuous
 62
     3
100
AcDbCircle
 10
1438.189172189083
 20
724.211114918302
 30
0.0
 40
1.5
100
AcDbArc
 50
90.0
 51
180.0
  0
ARC
  5
7065
330
1E
100
AcDbEntity
  8
躯体と製品
  6
Continuous
 62
     3
100
AcDbCircle
 10
1435.689172189083
 20
691.7111149183019
 30
0.0
 40
0.5
100
AcDbArc
 50
90.0
 51
180.0
  0
LINE
  5
7066
330
1E
100
AcDbEntity
  8
躯体と製品
  6
Continuous
 62
     3
100
AcDbLine
 10
1435.189172189083
 20
691.7111149183019
 30
0.0
 11
1435.189172189083
 21
690.4611149183018
 31
0.0
  0
ARC
  5
7067
330
1E
100
AcDbEntity
  8
躯体と製品
  6
Continuous
 62
     3
100
AcDbCircle
 10
1434.439172189083
 20
690.4611149183018
 30
0.0
 40
0.75
100
AcDbArc
 50
180.0
 51
0.0
  0
ARC
  5
7068
330
1E
100
AcDbEntity
  8
躯体と製品
  6
Continuous
 62
     3
100
AcDbCircle
 10
1434.689172189083
 20
692.7111149183018
 30
0.0
 40
1.0
100
AcDbArc
 50
90.0
 51
180.0
  0
LINE
  5
7069
330
1E
100
AcDbEntity
  8
躯体と製品
  6
Continuous
 62
     3
100
AcDbLine
 10
1433.689172189083
 20
692.7111149183018
 30
0.0
 11
1433.689172189083
 21
690.4611149183018
 31
0.0
  0
LINE
  5
706A
330
1E
100
AcDbEntity
  8
躯体と製品
  6
Continuous
 62
     7
100
AcDbLine
 10
1473.599698700811
 20
701.4827195502967
 30
0.0
 11
1473.809042525783
 21
705.4772376893152
 31
0.0
  0
LINE
  5
706B
330
1E
100
AcDbEntity
  8
躯体と製品
  6
Continuous
 62
     7
100
AcDbLine
 10
1458.829599504464
 20
706.2622770329592
 30
0.0
 11
1473.809042525783
 21
705.4772376893152
 31
0.0
  0
LINE
  5
706C
330
1E
100
AcDbEntity
  8
躯体と製品
  6
Continuous
 62
     3
100
AcDbLine
 10
1457.390360707784
 20
678.7999648272085
 30
0.0
 11
1458.855767482586
 21
706.7615918003363
 31
0.0
  0
TEXT
  5
706D
330
1E
100
AcDbEntity
  8
図枠
 62
     7
100
AcDbText
 10
1451.689172189083
 20
378.578298152536
 30
0.0
 40
5.0
  1
ＦＳ500～700
100
AcDbText
  0
ARC
  5
706E
330
1E
100
AcDbEntity
  8
躯体と製品
  6
DASHED1
 62
     7
100
AcDbCircle
 10
1804.352351823354
 20
682.8708204897854
 30
0.0
 40
7.5
100
AcDbArc
 50
10.12467165539644
 51
86.99999999999441
  0
LINE
  5
706F
330
1E
100
AcDbEntity
  8
躯体と製品
  6
DASHED1
 62
     7
100
AcDbLine
 10
1811.735558639668
 20
684.189250278413
 30
0.0
 11
1825.689172189083
 21
606.0490144016863
 31
0.0
  0
LINE
  5
7070
330
1E
100
AcDbEntity
  8
躯体と製品
  6
DASHED1
 62
     7
100
AcDbLine
 10
1825.689172189083
 20
606.0490144016863
 30
0.0
 11
1821.259248099358
 21
605.2579565281542
 31
0.0
  0
LINE
  5
7071
330
1E
100
AcDbEntity
  8
躯体と製品
  6
DASHED1
 62
     7
100
AcDbLine
 10
1807.305634549879
 20
683.3981924052364
 30
0.0
 11
1821.259248099295
 21
605.25795652851
 31
0.0
  0
ARC
  5
7072
330
1E
100
AcDbEntity
  8
躯体と製品
  6
DASHED1
 62
     7
100
AcDbCircle
 10
1804.352351823354
 20
682.8708204897854
 30
0.0
 40
3.0
100
AcDbArc
 50
10.12467165539644
 51
86.99999999999441
  0
LINE
  5
7073
330
1E
100
AcDbEntity
  8
躯体と製品
  6
DASHED1
 62
     7
100
AcDbLine
 10
1435.689172189083
 20
712.548825332971
 30
0.0
 11
1435.689172189083
 21
724.7019316328263
 31
0.0
  0
LINE
  5
7074
330
1E
100
AcDbEntity
  8
躯体と製品
  6
DASHED1
 62
     7
100
AcDbLine
 10
1435.689172189083
 20
724.7019316328263
 30
0.0
 11
1431.189172189083
 21
724.7019316328263
 31
0.0
  0
LINE
  5
7075
330
1E
100
AcDbEntity
  8
躯体と製品
  6
DASHED1
 62
     7
100
AcDbLine
 10
1431.189172189083
 20
712.5488253329706
 30
0.0
 11
1431.189172189083
 21
724.7019316328263
 31
0.0
  0
ARC
  5
7076
330
1E
100
AcDbEntity
  8
躯体と製品
  6
DASHED1
 62
     7
100
AcDbCircle
 10
1438.689172189083
 20
712.548825332971
 30
0.0
 40
3.0
100
AcDbArc
 50
180.0
 51
266.9999999999944
  0
ARC
  5
7077
330
1E
100
AcDbEntity
  8
躯体と製品
  6
DASHED1
 62
     7
100
AcDbCircle
 10
1438.689172189083
 20
712.5488253329706
 30
0.0
 40
7.5
100
AcDbArc
 50
180.0
 51
266.9999999999944
  0
ARC
  5
7078
330
1E
100
AcDbEntity
  8
躯体と製品
  6
Continuous
 62
     7
100
AcDbCircle
 10
1751.661860045617
 20
643.0786704194916
 30
0.0
 40
1.0
100
AcDbArc
 50
4.999999999999459
 51
88.3634229583817
  0
LINE
  5
7079
330
1E
100
AcDbEntity
  8
躯体と製品
  6
DASHED1
 62
     7
100
AcDbLine
 10
1674.07297021592
 20
678.1636662367118
 30
0.0
 11
1674.706573142097
 21
678.6520793118223
 31
0.0
  0
LINE
  5
707A
330
1E
100
AcDbEntity
  8
躯体と製品
  6
DASHED1
 62
     7
100
AcDbLine
 10
1674.706573142097
 20
678.6520793118223
 30
0.0
 11
1676.538122188485
 21
676.2760683197512
 31
0.0
  0
LINE
  5
707B
330
1E
100
AcDbEntity
  8
躯体と製品
  6
DASHED1
 62
     7
100
AcDbLine
 10
1674.07297021592
 20
678.1636662367118
 30
0.0
 11
1675.904519262327
 21
675.7876552446157
 31
0.0
  0
POINT
  5
707C
330
1E
100
AcDbEntity
  8
躯体と製品
 62
     4
100
AcDbPoint
 10
1719.241508145326
 20
665.0769276872907
 30
0.0
  0
LINE
  5
707D
330
1E
100
AcDbEntity
  8
躯体と製品
  6
Continuous
 62
     7
100
AcDbLine
 10
1704.496651350872
 20
660.249738386577
 30
0.0
 11
1704.232917905978
 21
655.2174044754269
 31
0.0
  0
LINE
  5
707E
330
1E
100
AcDbEntity
  8
躯体と製品
  6
Continuous
 62
     7
100
AcDbLine
 10
1698.504874142345
 20
660.563754124035
 30
0.0
 11
1698.241140697451
 21
655.5314202128847
 31
0.0
  0
LINE
  5
707F
330
1E
100
AcDbEntity
  8
躯体と製品
  6
Continuous
 62
     7
100
AcDbLine
 10
1704.789327624775
 20
665.8343343741703
 30
0.0
 11
1704.685060793346
 21
663.8448047116938
 31
0.0
  0
LINE
  5
7080
330
1E
100
AcDbEntity
  8
躯体と製品
  6
Continuous
 62
     4
100
AcDbLine
 10
1704.221606734267
 20
665.8640873652943
 30
0.0
 11
1704.117339902839
 21
663.8745577028178
 31
0.0
  0
LINE
  5
7081
330
1E
100
AcDbEntity
  8
躯体と製品
  6
Continuous
 62
     4
100
AcDbLine
 10
1699.365271306756
 20
666.1185971205038
 30
0.0
 11
1699.261004475327
 21
664.1290674580275
 31
0.0
  0
LINE
  5
7082
330
1E
100
AcDbEntity
  8
躯体と製品
  6
Continuous
 62
     7
100
AcDbLine
 10
1698.797550416247
 20
666.148350111628
 30
0.0
 11
1698.693283584819
 21
664.1588204491514
 31
0.0
  0
LINE
  5
7083
330
1E
100
AcDbEntity
  8
躯体と製品
  6
DASHED1
 62
     4
100
AcDbLine
 10
1700.610867065337
 20
689.8859800476628
 30
0.0
 11
1699.365271306756
 21
666.1185971205038
 31
0.0
  0
LINE
  5
7084
330
1E
100
AcDbEntity
  8
躯体と製品
  6
DASHED1
 62
     7
100
AcDbLine
 10
1700.043146174829
 20
689.915733038787
 30
0.0
 11
1698.797550416247
 21
666.148350111628
 31
0.0
  0
LINE
  5
7085
330
1E
100
AcDbEntity
  8
躯体と製品
  6
DASHED1
 62
     4
100
AcDbLine
 10
1705.467202492849
 20
689.6314702924534
 30
0.0
 11
1704.221606734267
 21
665.8640873652943
 31
0.0
  0
LINE
  5
7086
330
1E
100
AcDbEntity
  8
躯体と製品
  6
DASHED1
 62
     7
100
AcDbLine
 10
1706.034923383357
 20
689.6017173013292
 30
0.0
 11
1704.789327624775
 21
665.8343343741703
 31
0.0
  0
POINT
  5
7087
330
1E
100
AcDbEntity
  8
躯体と製品
 62
     4
100
AcDbPoint
 10
1701.689172189083
 20
664.0018125804224
 30
0.0
  0
LINE
  5
7088
330
1E
100
AcDbEntity
  8
躯体と製品
  6
Continuous
 62
     4
100
AcDbLine
 10
1704.232917905978
 20
655.2174044754269
 30
0.0
 11
1698.241140697451
 21
655.5314202128847
 31
0.0
  0
ARC
  5
7089
330
1E
100
AcDbEntity
  8
躯体と製品
  6
DASHED1
 62
     7
100
AcDbCircle
 10
1702.913428536446
 20
687.3620152852765
 30
0.0
 40
6.299999999999998
100
AcDbArc
 50
47.69686900000316
 51
126.3093710000041
  0
ARC
  5
708A
330
1E
100
AcDbEntity
  8
躯体と製品
  6
DASHED1
 62
     7
100
AcDbCircle
 10
1704.837140089181
 20
689.464855871569
 30
0.0
 40
3.45
100
AcDbArc
 50
0.3127429999987237
 51
47.82048899999998
  0
ARC
  5
708B
330
1E
100
AcDbEntity
  8
躯体と製品
  6
DASHED1
 62
     7
100
AcDbCircle
 10
1701.225804083925
 20
689.6586271515229
 30
0.0
 40
3.45
100
AcDbArc
 50
126.3091240000008
 51
173.7621629999991
  0
LINE
  5
708C
330
1E
100
AcDbEntity
  8
躯体と製品
  6
DASHED1
 62
     7
100
AcDbLine
 10
1703.95017412979
 20
692.8138077053054
 30
0.0
 11
1702.452229827658
 21
692.8923116396695
 31
0.0
  0
ARC
  5
708D
330
1E
100
AcDbEntity
  8
躯体と製品
  6
DASHED1
 62
     7
100
AcDbCircle
 10
1704.551405775245
 20
692.821597347651
 30
0.0
 40
0.5999999999999998
100
AcDbArc
 50
73.29976700000166
 51
177.0000000000011
  0
ARC
  5
708E
330
1E
100
AcDbEntity
  8
躯体と製品
  6
DASHED1
 62
     7
100
AcDbCircle
 10
1701.855106031409
 20
692.9629044295068
 30
0.0
 40
0.5999999999999998
100
AcDbArc
 50
357.0000000000011
 51
100.7002330000058
  0
LINE
  5
708F
330
1E
100
AcDbEntity
  8
躯体と製品
  6
DASHED1
 62
     7
100
AcDbLine
 10
1690.983925552395
 20
689.7616787450942
 30
0.0
 11
1678.053974475142
 21
676.1966258858667
 31
0.0
  0
ARC
  5
7090
330
1E
100
AcDbEntity
  8
躯体と製品
  6
DASHED1
 62
     7
100
AcDbCircle
 10
1713.602807004904
 20
687.4026311040552
 30
0.0
 40
1.8
100
AcDbArc
 50
37.62684736228169
 51
86.99999999999441
  0
LINE
  5
7091
330
1E
100
AcDbEntity
  8
躯体と製品
  6
DASHED1
 62
     7
100
AcDbLine
 10
1714.394810662602
 20
688.0131474479749
 30
0.0
 11
1725.835996000056
 21
673.1708574324683
 31
0.0
  0
LINE
  5
7092
330
1E
100
AcDbEntity
  8
躯体と製品
  6
DASHED1
 62
     7
100
AcDbLine
 10
1715.02841358876
 20
688.5015605231108
 30
0.0
 11
1726.469598926214
 21
673.6592705076041
 31
0.0
  0
ARC
  5
7093
330
1E
100
AcDbEntity
  8
躯体と製品
  6
DASHED1
 62
     7
100
AcDbCircle
 10
1727.261602569308
 20
674.2697868704695
 30
0.0
 40
1.8
100
AcDbArc
 50
217.6268473622817
 51
316.3731518762783
  0
ARC
  5
7094
330
1E
100
AcDbEntity
  8
躯体と製品
  6
DASHED1
 62
     7
100
AcDbCircle
 10
1727.261602569308
 20
674.2697868704695
 30
0.0
 40
1.0
100
AcDbArc
 50
217.6268473622817
 51
316.3731512671342
  0
LINE
  5
7095
330
1E
100
AcDbEntity
  8
躯体と製品
  6
DASHED1
 62
     7
100
AcDbLine
 10
1730.63440651802
 20
675.1994069670595
 30
0.0
 11
1728.564530111216
 21
673.0278610190043
 31
0.0
  0
LINE
  5
7096
330
1E
100
AcDbEntity
  8
躯体と製品
  6
DASHED1
 62
     7
100
AcDbLine
 10
1730.63440651802
 20
675.1994069670595
 30
0.0
 11
1730.055327603148
 21
675.7513740044363
 31
0.0
  0
LINE
  5
7097
330
1E
100
AcDbEntity
  8
躯体と製品
  6
DASHED1
 62
     7
100
AcDbLine
 10
1730.055327603148
 20
675.7513740044363
 30
0.0
 11
1727.985451196366
 21
673.5798280564043
 31
0.0
  0
ARC
  5
7098
330
1E
100
AcDbEntity
  8
躯体と製品
  6
DASHED1
 62
     7
100
AcDbCircle
 10
1677.330125831579
 20
676.8865846826165
 30
0.0
 40
1.8
100
AcDbArc
 50
217.6268481237226
 51
316.3731526377176
  0
ARC
  5
7099
330
1E
100
AcDbEntity
  8
躯体と製品
  6
DASHED1
 62
     7
100
AcDbCircle
 10
1677.330125831579
 20
676.8865846826165
 30
0.0
 40
1.0
100
AcDbArc
 50
217.6268487328632
 51
316.3731526377176
  0
ARC
  5
709A
330
1E
100
AcDbEntity
  8
躯体と製品
  6
DASHED1
 62
     7
100
AcDbCircle
 10
1692.286853110808
 20
688.5197529109445
 30
0.0
 40
1.0
100
AcDbArc
 50
86.99999999999441
 51
136.3731526377175
  0
LINE
  5
709B
330
1E
100
AcDbEntity
  8
躯体と製品
  6
DASHED1
 62
     7
100
AcDbLine
 10
1691.563004467245
 20
689.2097117076944
 30
0.0
 11
1678.633053373487
 21
675.6446588311514
 31
0.0
  0
LINE
  5
709C
330
1E
100
AcDbEntity
  8
躯体と製品
  6
DASHED1
 62
     7
100
AcDbLine
 10
1692.339189067051
 20
689.518382445699
 30
0.0
 11
1713.655142961147
 21
688.4012606388098
 31
0.0
  0
ARC
  5
709D
330
1E
100
AcDbEntity
  8
躯体と製品
  6
DASHED1
 62
     7
100
AcDbCircle
 10
1692.286853110808
 20
688.5197529109445
 30
0.0
 40
1.8
100
AcDbArc
 50
86.99999999999441
 51
136.3731526377175
  0
LINE
  5
709E
330
1E
100
AcDbEntity
  8
躯体と製品
  6
DASHED1
 62
     7
100
AcDbLine
 10
1692.381057832045
 20
690.3172860735026
 30
0.0
 11
1713.697011726141
 21
689.2001642666135
 31
0.0
  0
ARC
  5
709F
330
1E
100
AcDbEntity
  8
躯体と製品
  6
DASHED1
 62
     7
100
AcDbCircle
 10
1713.602807004904
 20
687.4026311040552
 30
0.0
 40
1.0
100
AcDbArc
 50
37.62684736228169
 51
86.99999999999441
  0
LINE
  5
70A0
330
1E
100
AcDbEntity
  8
躯体と製品
  6
Continuous
 62
     4
100
AcDbLine
 10
1687.689172189083
 20
654.578298152536
 30
0.0
 11
1687.689172189083
 21
652.978298152536
 31
0.0
  0
LINE
  5
70A1
330
1E
100
AcDbEntity
  8
躯体と製品
  6
Continuous
 62
     4
100
AcDbLine
 10
1715.689172189083
 20
654.578298152536
 30
0.0
 11
1715.689172189083
 21
652.978298152536
 31
0.0
  0
LINE
  5
70A2
330
1E
100
AcDbEntity
  8
躯体と製品
  6
DASHED1
 62
     7
100
AcDbLine
 10
1704.685060793346
 20
663.8448047116938
 30
0.0
 11
1704.496651350872
 21
660.2497383865775
 31
0.0
  0
LINE
  5
70A3
330
1E
100
AcDbEntity
  8
躯体と製品
  6
DASHED1
 62
     7
100
AcDbLine
 10
1698.693283584819
 20
664.1588204491514
 30
0.0
 11
1698.504874142345
 21
660.563754124035
 31
0.0
  0
LINE
  5
70A4
330
1E
100
AcDbEntity
  8
躯体と製品
  6
Continuous
 62
     3
100
AcDbLine
 10
1710.699077697193
 20
663.5296234411925
 30
0.0
 11
1692.899077697193
 21
664.4624819124305
 31
0.0
  0
LINE
  5
70A5
330
1E
100
AcDbEntity
  8
躯体と製品
  6
Continuous
 62
     3
100
AcDbLine
 10
1710.615340167205
 20
661.9318161855851
 30
0.0
 11
1692.815340167205
 21
662.8646746568231
 31
0.0
  0
ARC
  5
70A6
330
1E
100
AcDbEntity
  8
躯体と製品
  6
Continuous
 62
     3
100
AcDbCircle
 10
1707.145424097477
 20
661.1122944351002
 30
0.0
 40
1.0
100
AcDbArc
 50
86.99999999999441
 51
177.0000000000011
  0
LINE
  5
70A7
330
1E
100
AcDbEntity
  8
躯体と製品
  6
Continuous
 62
     3
100
AcDbLine
 10
1706.146794562723
 20
661.1646303913432
 30
0.0
 11
1706.09445860648
 21
660.1660008565884
 31
0.0
  0
ARC
  5
70A8
330
1E
100
AcDbEntity
  8
躯体と製品
  6
Continuous
 62
     3
100
AcDbCircle
 10
1695.960773308225
 20
661.6984571450212
 30
0.0
 40
1.0
100
AcDbArc
 50
357.0000000000011
 51
86.99999999999441
  0
LINE
  5
70A9
330
1E
100
AcDbEntity
  8
躯体と製品
  6
Continuous
 62
     3
100
AcDbLine
 10
1696.95940284298
 20
661.6461211887783
 30
0.0
 11
1696.907066886737
 21
660.6474916540235
 31
0.0
  0
LINE
  5
70AA
330
1E
100
AcDbEntity
  8
躯体と製品
  6
Continuous
 62
     3
100
AcDbLine
 10
1706.09445860648
 20
660.1660008565884
 30
0.0
 11
1696.907066886737
 21
660.6474916540235
 31
0.0
  0
ARC
  5
70AB
330
1E
100
AcDbEntity
  8
躯体と製品
  6
Continuous
 62
     3
100
AcDbCircle
 10
1710.589172189083
 20
661.4325014182077
 30
0.0
 40
2.1
100
AcDbArc
 50
0.0
 51
86.99999999999441
  0
LINE
  5
70AC
330
1E
100
AcDbEntity
  8
躯体と製品
  6
Continuous
 62
     3
100
AcDbLine
 10
1712.689172189083
 20
661.4325014182077
 30
0.0
 11
1712.689172189083
 21
655.078298152536
 31
0.0
  0
ARC
  5
70AD
330
1E
100
AcDbEntity
  8
躯体と製品
  6
Continuous
 62
     3
100
AcDbCircle
 10
1692.789172189083
 20
662.3653598894462
 30
0.0
 40
2.1
100
AcDbArc
 50
86.99999999999441
 51
180.0
  0
ARC
  5
70AE
330
1E
100
AcDbEntity
  8
躯体と製品
  6
Continuous
 62
     3
100
AcDbCircle
 10
1710.589172189083
 20
661.4325014182077
 30
0.0
 40
0.5
100
AcDbArc
 50
0.0
 51
86.99999999999441
  0
LINE
  5
70AF
330
1E
100
AcDbEntity
  8
躯体と製品
  6
Continuous
 62
     3
100
AcDbLine
 10
1711.089172189083
 20
661.4325014182077
 30
0.0
 11
1711.089172189083
 21
655.078298152536
 31
0.0
  0
ARC
  5
70B0
330
1E
100
AcDbEntity
  8
躯体と製品
  6
Continuous
 62
     3
100
AcDbCircle
 10
1692.789172189083
 20
662.3653598894462
 30
0.0
 40
0.5
100
AcDbArc
 50
86.99999999999441
 51
180.0
  0
LINE
  5
70B1
330
1E
100
AcDbEntity
  8
躯体と製品
  6
Continuous
 62
     3
100
AcDbLine
 10
1692.289172189083
 20
662.3653598894462
 30
0.0
 11
1692.289172189083
 21
655.078298152536
 31
0.0
  0
ARC
  5
70B2
330
1E
100
AcDbEntity
  8
躯体と製品
  6
Continuous
 62
     3
100
AcDbCircle
 10
1713.189172189083
 20
655.078298152536
 30
0.0
 40
0.5
100
AcDbArc
 50
180.0
 51
270.0
  0
ARC
  5
70B3
330
1E
100
AcDbEntity
  8
躯体と製品
  6
Continuous
 62
     3
100
AcDbCircle
 10
1713.189172189083
 20
655.078298152536
 30
0.0
 40
2.1
100
AcDbArc
 50
180.0
 51
270.0
  0
LINE
  5
70B4
330
1E
100
AcDbEntity
  8
躯体と製品
  6
Continuous
 62
     3
100
AcDbLine
 10
1717.689172189083
 20
654.578298152536
 30
0.0
 11
1717.689172189083
 21
652.978298152536
 31
0.0
  0
LINE
  5
70B5
330
1E
100
AcDbEntity
  8
躯体と製品
  6
Continuous
 62
     3
100
AcDbLine
 10
1713.189172189083
 20
654.578298152536
 30
0.0
 11
1717.689172189083
 21
654.578298152536
 31
0.0
  0
LINE
  5
70B6
330
1E
100
AcDbEntity
  8
躯体と製品
  6
Continuous
 62
     3
100
AcDbLine
 10
1717.689172189083
 20
652.978298152536
 30
0.0
 11
1713.189172189083
 21
652.978298152536
 31
0.0
  0
ARC
  5
70B7
330
1E
100
AcDbEntity
  8
躯体と製品
  6
Continuous
 62
     3
100
AcDbCircle
 10
1690.189172189083
 20
655.078298152536
 30
0.0
 40
0.5
100
AcDbArc
 50
270.0
 51
0.0
  0
ARC
  5
70B8
330
1E
100
AcDbEntity
  8
躯体と製品
  6
Continuous
 62
     3
100
AcDbCircle
 10
1690.189172189083
 20
655.078298152536
 30
0.0
 40
2.1
100
AcDbArc
 50
270.0
 51
0.0
  0
LINE
  5
70B9
330
1E
100
AcDbEntity
  8
躯体と製品
  6
Continuous
 62
     3
100
AcDbLine
 10
1685.689172189083
 20
654.578298152536
 30
0.0
 11
1690.189172189083
 21
654.578298152536
 31
0.0
  0
LINE
  5
70BA
330
1E
100
AcDbEntity
  8
躯体と製品
  6
Continuous
 62
     3
100
AcDbLine
 10
1685.689172189083
 20
652.978298152536
 30
0.0
 11
1685.689172189083
 21
654.578298152536
 31
0.0
  0
LINE
  5
70BB
330
1E
100
AcDbEntity
  8
躯体と製品
  6
Continuous
 62
     3
100
AcDbLine
 10
1685.689172189083
 20
652.978298152536
 30
0.0
 11
1690.189172189083
 21
652.978298152536
 31
0.0
  0
LINE
  5
70BC
330
1E
100
AcDbEntity
  8
躯体と製品
  6
Continuous
 62
     3
100
AcDbLine
 10
1690.689172189083
 20
662.3653598894462
 30
0.0
 11
1690.689172189083
 21
655.078298152536
 31
0.0
  0
LINE
  5
70BD
330
1E
100
AcDbEntity
  8
躯体と製品
  6
Continuous
 62
     3
100
AcDbLine
 10
1727.061742470511
 20
654.0518221070924
 30
0.0
 11
1727.38049816935
 21
652.980190265247
 31
0.0
  0
LINE
  5
70BE
330
1E
100
AcDbEntity
  8
躯体と製品
  6
Continuous
 62
     3
100
AcDbLine
 10
1726.888094292844
 20
653.0670143540803
 30
0.0
 11
1727.206849991683
 21
651.9953825122346
 31
0.0
  0
LINE
  5
70BF
330
1E
100
AcDbEntity
  8
躯体と製品
  6
Continuous
 62
     3
100
AcDbLine
 10
1701.689172189083
 20
648.078298152536
 30
0.0
 11
1701.189172189083
 21
648.578298152536
 31
0.0
  0
LINE
  5
70C0
330
1E
100
AcDbEntity
  8
躯体と製品
  6
Continuous
 62
     3
100
AcDbLine
 10
1717.889172189083
 20
654.578298152536
 30
0.0
 11
1714.939172189083
 21
654.578298152536
 31
0.0
  0
ARC
  5
70C1
330
1E
100
AcDbEntity
  8
躯体と製品
  6
Continuous
 62
     3
100
AcDbCircle
 10
1717.889172189083
 20
654.2782981525361
 30
0.0
 40
0.2999999999999998
100
AcDbArc
 50
0.0
 51
90.0
  0
LINE
  5
70C2
330
1E
100
AcDbEntity
  8
躯体と製品
  6
Continuous
 62
     3
100
AcDbLine
 10
1718.189172189083
 20
654.2782981525361
 30
0.0
 11
1718.189172189083
 21
652.3782981525363
 31
0.0
  0
ARC
  5
70C3
330
1E
100
AcDbEntity
  8
躯体と製品
  6
Continuous
 62
     3
100
AcDbCircle
 10
1717.889172189083
 20
652.3782981525363
 30
0.0
 40
0.2999999999999998
100
AcDbArc
 50
270.0
 51
0.0
  0
LINE
  5
70C4
330
1E
100
AcDbEntity
  8
躯体と製品
  6
Continuous
 62
     3
100
AcDbLine
 10
1717.889172189083
 20
652.078298152536
 30
0.0
 11
1715.939172189083
 21
652.078298152536
 31
0.0
  0
LINE
  5
70C5
330
1E
100
AcDbEntity
  8
躯体と製品
  6
Continuous
 62
     3
100
AcDbLine
 10
1718.189172189083
 20
650.2782981525361
 30
0.0
 11
1718.189172189083
 21
648.8782981525363
 31
0.0
  0
ARC
  5
70C6
330
1E
100
AcDbEntity
  8
躯体と製品
  6
Continuous
 62
     3
100
AcDbCircle
 10
1717.889172189083
 20
650.2782981525361
 30
0.0
 40
0.2999999999999998
100
AcDbArc
 50
0.0
 51
90.0
  0
LINE
  5
70C7
330
1E
100
AcDbEntity
  8
躯体と製品
  6
Continuous
 62
     3
100
AcDbLine
 10
1717.889172189083
 20
650.578298152536
 30
0.0
 11
1715.939172189083
 21
650.578298152536
 31
0.0
  0
ARC
  5
70C8
330
1E
100
AcDbEntity
  8
躯体と製品
  6
Continuous
 62
     3
100
AcDbCircle
 10
1715.939172189083
 20
651.328298152536
 30
0.0
 40
0.75
100
AcDbArc
 50
90.0
 51
270.0
  0
ARC
  5
70C9
330
1E
100
AcDbEntity
  8
躯体と製品
  6
Continuous
 62
     3
100
AcDbCircle
 10
1714.939172189083
 20
655.328298152536
 30
0.0
 40
0.75
100
AcDbArc
 50
90.0
 51
270.0
  0
LINE
  5
70CA
330
1E
100
AcDbEntity
  8
躯体と製品
  6
Continuous
 62
     3
100
AcDbLine
 10
1718.189172189083
 20
656.578298152536
 30
0.0
 11
1718.189172189083
 21
664.078298152536
 31
0.0
  0
ARC
  5
70CB
330
1E
100
AcDbEntity
  8
躯体と製品
  6
Continuous
 62
     3
100
AcDbCircle
 10
1717.689172189083
 20
656.578298152536
 30
0.0
 40
0.5
100
AcDbArc
 50
270.0
 51
0.0
  0
LINE
  5
70CC
330
1E
100
AcDbEntity
  8
躯体と製品
  6
Continuous
 62
     3
100
AcDbLine
 10
1717.689172189083
 20
656.078298152536
 30
0.0
 11
1714.939172189083
 21
656.078298152536
 31
0.0
  0
ARC
  5
70CD
330
1E
100
AcDbEntity
  8
躯体と製品
  6
Continuous
 62
     3
100
AcDbCircle
 10
1717.889172189083
 20
648.8782981525363
 30
0.0
 40
0.2999999999999998
100
AcDbArc
 50
270.0
 51
0.0
  0
ARC
  5
70CE
330
1E
100
AcDbEntity
  8
躯体と製品
  6
Continuous
 62
     3
100
AcDbCircle
 10
1720.689172189083
 20
649.078298152536
 30
0.0
 40
0.5
100
AcDbArc
 50
180.0
 51
270.0
  0
LINE
  5
70CF
330
1E
100
AcDbEntity
  8
躯体と製品
  6
Continuous
 62
     3
100
AcDbLine
 10
1720.189172189083
 20
649.078298152536
 30
0.0
 11
1720.189172189083
 21
664.078298152536
 31
0.0
  0
LINE
  5
70D0
330
1E
100
AcDbEntity
  8
躯体と製品
  6
Continuous
 62
     3
100
AcDbLine
 10
1720.189172189083
 20
647.078298152536
 30
0.0
 11
1730.689172189083
 21
647.078298152536
 31
0.0
  0
LINE
  5
70D1
330
1E
100
AcDbEntity
  8
躯体と製品
  6
Continuous
 62
     3
100
AcDbLine
 10
1720.189172189083
 20
646.078298152536
 30
0.0
 11
1720.189172189083
 21
647.078298152536
 31
0.0
  0
LINE
  5
70D2
330
1E
100
AcDbEntity
  8
躯体と製品
  6
Continuous
 62
     3
100
AcDbLine
 10
1701.689172189083
 20
648.078298152536
 30
0.0
 11
1702.189172189083
 21
648.578298152536
 31
0.0
  0
LINE
  5
70D3
330
1E
100
AcDbEntity
  8
躯体と製品
  6
Continuous
 62
     3
100
AcDbLine
 10
1730.689172189083
 20
646.078298152536
 30
0.0
 11
1732.189172189083
 21
646.078298152536
 31
0.0
  0
LINE
  5
70D4
330
1E
100
AcDbEntity
  8
躯体と製品
  6
Continuous
 62
     3
100
AcDbLine
 10
1730.689172189083
 20
647.078298152536
 30
0.0
 11
1730.689172189083
 21
646.078298152536
 31
0.0
  0
ARC
  5
70D5
330
1E
100
AcDbEntity
  8
躯体と製品
  6
Continuous
 62
     3
100
AcDbCircle
 10
1719.189172189083
 20
664.078298152536
 30
0.0
 40
1.0
100
AcDbArc
 50
0.0
 51
180.0
  0
LINE
  5
70D6
330
1E
100
AcDbEntity
  8
躯体と製品
  6
Continuous
 62
     3
100
AcDbLine
 10
1718.189172189083
 20
646.078298152536
 30
0.0
 11
1720.189172189083
 21
646.078298152536
 31
0.0
  0
LINE
  5
70D7
330
1E
100
AcDbEntity
  8
躯体と製品
  6
Continuous
 62
     3
100
AcDbLine
 10
1718.189172189083
 20
646.578298152536
 30
0.0
 11
1718.189172189083
 21
646.078298152536
 31
0.0
  0
LINE
  5
70D8
330
1E
100
AcDbEntity
  8
躯体と製品
  6
Continuous
 62
     3
100
AcDbLine
 10
1706.689172189083
 20
646.578298152536
 30
0.0
 11
1718.189172189083
 21
646.578298152536
 31
0.0
  0
LINE
  5
70D9
330
1E
100
AcDbEntity
  8
躯体と製品
  6
Continuous
 62
     3
100
AcDbLine
 10
1706.689172189083
 20
646.078298152536
 30
0.0
 11
1706.689172189083
 21
646.578298152536
 31
0.0
  0
LINE
  5
70DA
330
1E
100
AcDbEntity
  8
躯体と製品
  6
Continuous
 62
     3
100
AcDbLine
 10
1685.489172189083
 20
648.578298152536
 30
0.0
 11
1701.189172189083
 21
648.578298152536
 31
0.0
  0
LINE
  5
70DB
330
1E
100
AcDbEntity
  8
躯体と製品
  6
Continuous
 62
     3
100
AcDbLine
 10
1702.189172189083
 20
648.578298152536
 30
0.0
 11
1717.889172189083
 21
648.578298152536
 31
0.0
  0
LINE
  5
70DC
330
1E
100
AcDbEntity
  8
躯体と製品
  6
Continuous
 62
     3
100
AcDbLine
 10
1696.689172189083
 20
646.078298152536
 30
0.0
 11
1706.689172189083
 21
646.078298152536
 31
0.0
  0
LINE
  5
70DD
330
1E
100
AcDbEntity
  8
躯体と製品
  6
Continuous
 62
     3
100
AcDbLine
 10
1683.689172189083
 20
655.578298152536
 30
0.0
 11
1683.689172189083
 21
646.078298152536
 31
0.0
  0
ARC
  5
70DE
330
1E
100
AcDbEntity
  8
躯体と製品
  6
Continuous
 62
     3
100
AcDbCircle
 10
1684.189172189083
 20
655.578298152536
 30
0.0
 40
0.5
100
AcDbArc
 50
90.0
 51
180.0
  0
LINE
  5
70DF
330
1E
100
AcDbEntity
  8
躯体と製品
  6
Continuous
 62
     3
100
AcDbLine
 10
1684.189172189083
 20
656.078298152536
 30
0.0
 11
1688.439172189083
 21
656.078298152536
 31
0.0
  0
LINE
  5
70E0
330
1E
100
AcDbEntity
  8
躯体と製品
  6
Continuous
 62
     3
100
AcDbLine
 10
1685.189172189083
 20
648.8782981525363
 30
0.0
 11
1685.189172189083
 21
650.2782981525361
 31
0.0
  0
ARC
  5
70E1
330
1E
100
AcDbEntity
  8
躯体と製品
  6
Continuous
 62
     3
100
AcDbCircle
 10
1685.489172189083
 20
648.8782981525363
 30
0.0
 40
0.2999999999999998
100
AcDbArc
 50
180.0
 51
270.0
  0
LINE
  5
70E2
330
1E
100
AcDbEntity
  8
躯体と製品
  6
Continuous
 62
     3
100
AcDbLine
 10
1685.489172189083
 20
650.578298152536
 30
0.0
 11
1687.439172189083
 21
650.578298152536
 31
0.0
  0
ARC
  5
70E3
330
1E
100
AcDbEntity
  8
躯体と製品
  6
Continuous
 62
     3
100
AcDbCircle
 10
1685.489172189083
 20
650.2782981525361
 30
0.0
 40
0.2999999999999998
100
AcDbArc
 50
90.0
 51
180.0
  0
LINE
  5
70E4
330
1E
100
AcDbEntity
  8
躯体と製品
  6
Continuous
 62
     3
100
AcDbLine
 10
1685.189172189083
 20
652.3782981525363
 30
0.0
 11
1685.189172189083
 21
654.2782981525361
 31
0.0
  0
ARC
  5
70E5
330
1E
100
AcDbEntity
  8
躯体と製品
  6
Continuous
 62
     3
100
AcDbCircle
 10
1685.489172189083
 20
652.3782981525363
 30
0.0
 40
0.2999999999999998
100
AcDbArc
 50
180.0
 51
270.0
  0
LINE
  5
70E6
330
1E
100
AcDbEntity
  8
躯体と製品
  6
Continuous
 62
     3
100
AcDbLine
 10
1685.489172189083
 20
652.078298152536
 30
0.0
 11
1687.439172189083
 21
652.078298152536
 31
0.0
  0
LINE
  5
70E7
330
1E
100
AcDbEntity
  8
躯体と製品
  6
Continuous
 62
     3
100
AcDbLine
 10
1685.489172189083
 20
654.578298152536
 30
0.0
 11
1688.439172189083
 21
654.578298152536
 31
0.0
  0
ARC
  5
70E8
330
1E
100
AcDbEntity
  8
躯体と製品
  6
Continuous
 62
     3
100
AcDbCircle
 10
1685.489172189083
 20
654.2782981525361
 30
0.0
 40
0.2999999999999998
100
AcDbArc
 50
90.0
 51
180.0
  0
ARC
  5
70E9
330
1E
100
AcDbEntity
  8
躯体と製品
  6
Continuous
 62
     3
100
AcDbCircle
 10
1687.439172189083
 20
651.328298152536
 30
0.0
 40
0.75
100
AcDbArc
 50
270.0
 51
90.0
  0
ARC
  5
70EA
330
1E
100
AcDbEntity
  8
躯体と製品
  6
Continuous
 62
     3
100
AcDbCircle
 10
1688.439172189083
 20
655.328298152536
 30
0.0
 40
0.75
100
AcDbArc
 50
270.0
 51
90.0
  0
LINE
  5
70EB
330
1E
100
AcDbEntity
  8
躯体と製品
  6
Continuous
 62
     3
100
AcDbLine
 10
1696.689172189083
 20
646.578298152536
 30
0.0
 11
1696.689172189083
 21
646.078298152536
 31
0.0
  0
LINE
  5
70EC
330
1E
100
AcDbEntity
  8
躯体と製品
  6
Continuous
 62
     3
100
AcDbLine
 10
1685.189172189083
 20
646.578298152536
 30
0.0
 11
1696.689172189083
 21
646.578298152536
 31
0.0
  0
LINE
  5
70ED
330
1E
100
AcDbEntity
  8
躯体と製品
  6
Continuous
 62
     3
100
AcDbLine
 10
1685.189172189083
 20
646.078298152536
 30
0.0
 11
1685.189172189083
 21
646.578298152536
 31
0.0
  0
LINE
  5
70EE
330
1E
100
AcDbEntity
  8
躯体と製品
  6
Continuous
 62
     3
100
AcDbLine
 10
1683.689172189083
 20
646.078298152536
 30
0.0
 11
1685.189172189083
 21
646.078298152536
 31
0.0
  0
LINE
  5
70EF
330
1E
100
AcDbEntity
  8
躯体と製品
  6
Continuous
 62
     3
100
AcDbLine
 10
1732.189172189083
 20
646.078298152536
 30
0.0
 11
1732.189172189083
 21
648.578298152536
 31
0.0
  0
ARC
  5
70F0
330
1E
100
AcDbEntity
  8
躯体と製品
  6
Continuous
 62
     3
100
AcDbCircle
 10
1732.449043395909
 20
654.3711788656064
 30
0.0
 40
0.7499999999999977
100
AcDbArc
 50
350.0000000000025
 51
170.0000000000025
  0
ARC
  5
70F1
330
1E
100
AcDbEntity
  8
躯体と製品
  6
Continuous
 62
     3
100
AcDbCircle
 10
1727.032600754341
 20
655.3262438427744
 30
0.0
 40
0.7500000000000016
100
AcDbArc
 50
350.0000000000025
 51
170.0000000000025
  0
LINE
  5
70F2
330
1E
100
AcDbEntity
  8
躯体と製品
  6
Continuous
 62
     3
100
AcDbLine
 10
1731.985781235572
 20
653.183581218758
 30
0.0
 11
1731.319729181399
 21
652.2855975545789
 31
0.0
  0
LINE
  5
70F3
330
1E
100
AcDbEntity
  8
躯体と製品
  6
Continuous
 62
     3
100
AcDbLine
 10
1731.812133057905
 20
652.1987734657457
 30
0.0
 11
1731.146081003732
 21
651.300789801567
 31
0.0
  0
LINE
  5
70F4
330
1E
100
AcDbEntity
  8
躯体と製品
  6
Continuous
 62
     3
100
AcDbLine
 10
1727.554146347017
 20
653.964998018259
 30
0.0
 11
1727.771206569101
 21
655.1960077095243
 31
0.0
  0
LINE
  5
70F5
330
1E
100
AcDbEntity
  8
躯体と製品
  6
Continuous
 62
     3
100
AcDbLine
 10
1731.493377359066
 20
653.2704053075914
 30
0.0
 11
1731.710437581149
 21
654.5014149988566
 31
0.0
  0
LINE
  5
70F6
330
1E
100
AcDbEntity
  8
躯体と製品
  6
Continuous
 62
     3
100
AcDbLine
 10
1732.189172189083
 20
648.578298152536
 30
0.0
 11
1733.187649210668
 21
654.2409427323562
 31
0.0
  0
LINE
  5
70F7
330
1E
100
AcDbEntity
  8
躯体と製品
  6
Continuous
 62
     3
100
AcDbLine
 10
1731.985781235572
 20
653.183581218758
 30
0.0
 11
1731.493377359066
 21
653.2704053075914
 31
0.0
  0
LINE
  5
70F8
330
1E
100
AcDbEntity
  8
躯体と製品
  6
Continuous
 62
     3
100
AcDbLine
 10
1727.554146347017
 20
653.964998018259
 30
0.0
 11
1727.061742470511
 21
654.0518221070924
 31
0.0
  0
LINE
  5
70F9
330
1E
100
AcDbEntity
  8
躯体と製品
  6
Continuous
 62
     3
100
AcDbLine
 10
1731.812133057905
 20
652.1987734657457
 30
0.0
 11
1731.319729181399
 21
652.2855975545789
 31
0.0
  0
LINE
  5
70FA
330
1E
100
AcDbEntity
  8
躯体と製品
  6
Continuous
 62
     3
100
AcDbLine
 10
1727.38049816935
 20
652.980190265247
 30
0.0
 11
1726.888094292844
 21
653.0670143540803
 31
0.0
  0
LINE
  5
70FB
330
1E
100
AcDbEntity
  8
躯体と製品
  6
Continuous
 62
     3
100
AcDbLine
 10
1725.1540399668
 20
648.9914740637027
 30
0.0
 11
1726.293994939583
 21
655.4564799760246
 31
0.0
  0
LINE
  5
70FC
330
1E
100
AcDbEntity
  8
躯体と製品
  6
Continuous
 62
     3
100
AcDbLine
 10
1724.661636090294
 20
648.578298152536
 30
0.0
 11
1720.689172189083
 21
648.578298152536
 31
0.0
  0
ARC
  5
70FD
330
1E
100
AcDbEntity
  8
躯体と製品
  6
Continuous
 62
     3
100
AcDbCircle
 10
1724.661636090294
 20
649.078298152536
 30
0.0
 40
0.5
100
AcDbArc
 50
270.0
 51
350.0000000000025
  0
LINE
  5
70FE
330
1E
100
AcDbEntity
  8
躯体と製品
  6
Continuous
 62
     3
100
AcDbLine
 10
1726.707798743502
 20
649.1651222413694
 30
0.0
 11
1727.206849991683
 21
651.9953825122346
 31
0.0
  0
ARC
  5
70FF
330
1E
100
AcDbEntity
  8
躯体と製品
  6
Continuous
 62
     3
100
AcDbCircle
 10
1727.200202620009
 20
649.078298152536
 30
0.0
 40
0.5
100
AcDbArc
 50
170.0000000000025
 51
270.0
  0
LINE
  5
7100
330
1E
100
AcDbEntity
  8
躯体と製品
  6
Continuous
 62
     3
100
AcDbLine
 10
1730.738886332172
 20
648.9914740637027
 30
0.0
 11
1731.146081003732
 21
651.300789801567
 31
0.0
  0
LINE
  5
7101
330
1E
100
AcDbEntity
  8
躯体と製品
  6
Continuous
 62
     3
100
AcDbLine
 10
1730.246482455666
 20
648.578298152536
 30
0.0
 11
1727.200202620009
 21
648.578298152536
 31
0.0
  0
ARC
  5
7102
330
1E
100
AcDbEntity
  8
躯体と製品
  6
Continuous
 62
     3
100
AcDbCircle
 10
1730.246482455666
 20
649.078298152536
 30
0.0
 40
0.5
100
AcDbArc
 50
270.0
 51
350.0000000000025
  0
ARC
  5
7103
330
1E
100
AcDbEntity
  8
躯体と製品
  6
DASHED1
 62
     7
100
AcDbCircle
 10
1698.189172189083
 20
605.578298152536
 30
0.0
 40
1.0
100
AcDbArc
 50
180.0
 51
270.0
  0
LINE
  5
7104
330
1E
100
AcDbEntity
  8
躯体と製品
  6
DASHED1
 62
     7
100
AcDbLine
 10
1695.064142189083
 20
606.8163021525361
 30
0.0
 11
1699.249575189083
 21
606.078298152536
 31
0.0
  0
LINE
  5
7105
330
1E
100
AcDbEntity
  8
躯体と製品
  6
DASHED1
 62
     7
100
AcDbLine
 10
1697.639172189083
 20
636.778298152536
 30
0.0
 11
1705.739172189083
 21
636.778298152536
 31
0.0
  0
LINE
  5
7106
330
1E
100
AcDbEntity
  8
躯体と製品
  6
DASHED1
 62
     7
100
AcDbLine
 10
1696.939172189083
 20
636.078298152536
 30
0.0
 11
1706.439172189083
 21
636.078298152536
 31
0.0
  0
LINE
  5
7107
330
1E
100
AcDbEntity
  8
躯体と製品
  6
DASHED1
 62
     7
100
AcDbLine
 10
1708.314202189083
 20
606.8163021525361
 30
0.0
 11
1706.439172189083
 21
617.450124152536
 31
0.0
  0
LINE
  5
7108
330
1E
100
AcDbEntity
  8
躯体と製品
  6
DASHED1
 62
     7
100
AcDbLine
 10
1702.189172189083
 20
617.078298152536
 30
0.0
 11
1704.128769189083
 21
606.078298152536
 31
0.0
  0
LINE
  5
7109
330
1E
100
AcDbEntity
  8
躯体と製品
  6
DASHED1
 62
     7
100
AcDbLine
 10
1701.189172189083
 20
617.078298152536
 30
0.0
 11
1699.249575189083
 21
606.078298152536
 31
0.0
  0
LINE
  5
710A
330
1E
100
AcDbEntity
  8
躯体と製品
  6
DASHED1
 62
     7
100
AcDbLine
 10
1708.314202189083
 20
606.8163021525361
 30
0.0
 11
1704.128769189083
 21
606.078298152536
 31
0.0
  0
LINE
  5
710B
330
1E
100
AcDbEntity
  8
躯体と製品
  6
DASHED1
 62
     7
100
AcDbLine
 10
1706.189172189083
 20
605.578298152536
 30
0.0
 11
1706.189172189083
 21
606.441602152536
 31
0.0
  0
ARC
  5
710C
330
1E
100
AcDbEntity
  8
躯体と製品
  6
DASHED1
 62
     7
100
AcDbCircle
 10
1705.189172189083
 20
605.578298152536
 30
0.0
 40
1.0
100
AcDbArc
 50
270.0
 51
0.0
  0
LINE
  5
710D
330
1E
100
AcDbEntity
  8
躯体と製品
  6
DASHED1
 62
     7
100
AcDbLine
 10
1705.189172189083
 20
604.578298152536
 30
0.0
 11
1698.189172189083
 21
604.578298152536
 31
0.0
  0
LINE
  5
710E
330
1E
100
AcDbEntity
  8
躯体と製品
  6
DASHED1
 62
     7
100
AcDbLine
 10
1706.439172189083
 20
617.450124152536
 30
0.0
 11
1706.439172189083
 21
636.078298152536
 31
0.0
  0
LINE
  5
710F
330
1E
100
AcDbEntity
  8
躯体と製品
  6
DASHED1
 62
     7
100
AcDbLine
 10
1706.439172189083
 20
636.078298152536
 30
0.0
 11
1705.739172189083
 21
636.778298152536
 31
0.0
  0
LINE
  5
7110
330
1E
100
AcDbEntity
  8
躯体と製品
  6
DASHED1
 62
     7
100
AcDbLine
 10
1701.189172189083
 20
617.078298152536
 30
0.0
 11
1702.189172189083
 21
617.078298152536
 31
0.0
  0
LINE
  5
7111
330
1E
100
AcDbEntity
  8
躯体と製品
  6
DASHED1
 62
     7
100
AcDbLine
 10
1695.064142189083
 20
606.8163021525361
 30
0.0
 11
1696.939172189083
 21
617.450124152536
 31
0.0
  0
LINE
  5
7112
330
1E
100
AcDbEntity
  8
躯体と製品
  6
DASHED1
 62
     7
100
AcDbLine
 10
1697.189172189083
 20
605.578298152536
 30
0.0
 11
1697.189172189083
 21
606.441602152536
 31
0.0
  0
LINE
  5
7113
330
1E
100
AcDbEntity
  8
躯体と製品
  6
DASHED1
 62
     7
100
AcDbLine
 10
1696.939172189083
 20
617.450124152536
 30
0.0
 11
1696.939172189083
 21
636.078298152536
 31
0.0
  0
LINE
  5
7114
330
1E
100
AcDbEntity
  8
躯体と製品
  6
DASHED1
 62
     7
100
AcDbLine
 10
1696.939172189083
 20
636.078298152536
 30
0.0
 11
1697.639172189083
 21
636.778298152536
 31
0.0
  0
LINE
  5
7115
330
1E
100
AcDbEntity
  8
躯体と製品
  6
DASHED1
 62
     7
100
AcDbLine
 10
1705.739172189083
 20
646.078298152536
 30
0.0
 11
1705.739172189083
 21
636.778298152536
 31
0.0
  0
LINE
  5
7116
330
1E
100
AcDbEntity
  8
躯体と製品
  6
DASHED1
 62
     7
100
AcDbLine
 10
1697.639172189083
 20
646.078298152536
 30
0.0
 11
1697.639172189083
 21
636.778298152536
 31
0.0
  0
LINE
  5
7117
330
1E
100
AcDbEntity
  8
躯体と製品
  6
Continuous
 62
     4
100
AcDbLine
 10
1686.689172189083
 20
644.6523206242316
 30
0.0
 11
1687.115149717388
 21
645.0782981525366
 31
0.0
  0
LINE
  5
7118
330
1E
100
AcDbEntity
  8
躯体と製品
  6
Continuous
 62
     4
100
AcDbLine
 10
1687.529363279761
 20
644.078298152536
 30
0.0
 11
1688.529363279761
 21
645.0782981525366
 31
0.0
  0
LINE
  5
7119
330
1E
100
AcDbEntity
  8
躯体と製品
  6
Continuous
 62
     4
100
AcDbLine
 10
1688.943576842134
 20
644.078298152536
 30
0.0
 11
1689.943576842134
 21
645.0782981525362
 31
0.0
  0
LINE
  5
711A
330
1E
100
AcDbEntity
  8
躯体と製品
  6
Continuous
 62
     4
100
AcDbLine
 10
1690.357790404508
 20
644.0782981525366
 30
0.0
 11
1691.357790404508
 21
645.0782981525362
 31
0.0
  0
LINE
  5
711B
330
1E
100
AcDbEntity
  8
躯体と製品
  6
Continuous
 62
     4
100
AcDbLine
 10
1691.772003966881
 20
644.0782981525362
 30
0.0
 11
1692.772003966881
 21
645.0782981525362
 31
0.0
  0
LINE
  5
711C
330
1E
100
AcDbEntity
  8
躯体と製品
  6
Continuous
 62
     4
100
AcDbLine
 10
1693.186217529254
 20
644.078298152536
 30
0.0
 11
1694.186217529254
 21
645.078298152536
 31
0.0
  0
LINE
  5
711D
330
1E
100
AcDbEntity
  8
躯体と製品
  6
Continuous
 62
     4
100
AcDbLine
 10
1694.600431091627
 20
644.078298152536
 30
0.0
 11
1695.600431091627
 21
645.0782981525359
 31
0.0
  0
LINE
  5
711E
330
1E
100
AcDbEntity
  8
躯体と製品
  6
Continuous
 62
     4
100
AcDbLine
 10
1696.014644653998
 20
644.0782981525359
 30
0.0
 11
1697.014644653999
 21
645.078298152536
 31
0.0
  0
LINE
  5
711F
330
1E
100
AcDbEntity
  8
躯体と製品
  6
Continuous
 62
     4
100
AcDbLine
 10
1697.428858216372
 20
644.0782981525358
 30
0.0
 11
1698.428858216372
 21
645.0782981525359
 31
0.0
  0
LINE
  5
7120
330
1E
100
AcDbEntity
  8
躯体と製品
  6
Continuous
 62
     4
100
AcDbLine
 10
1698.843071778745
 20
644.0782981525355
 30
0.0
 11
1699.843071778746
 21
645.0782981525359
 31
0.0
  0
LINE
  5
7121
330
1E
100
AcDbEntity
  8
躯体と製品
  6
Continuous
 62
     4
100
AcDbLine
 10
1700.257285341118
 20
644.0782981525352
 30
0.0
 11
1701.257285341119
 21
645.0782981525356
 31
0.0
  0
LINE
  5
7122
330
1E
100
AcDbEntity
  8
躯体と製品
  6
Continuous
 62
     4
100
AcDbLine
 10
1701.671498903492
 20
644.078298152536
 30
0.0
 11
1702.671498903492
 21
645.0782981525359
 31
0.0
  0
LINE
  5
7123
330
1E
100
AcDbEntity
  8
躯体と製品
  6
Continuous
 62
     4
100
AcDbLine
 10
1703.085712465866
 20
644.0782981525359
 30
0.0
 11
1704.085712465865
 21
645.0782981525356
 31
0.0
  0
LINE
  5
7124
330
1E
100
AcDbEntity
  8
躯体と製品
  6
Continuous
 62
     4
100
AcDbLine
 10
1704.499926028239
 20
644.0782981525359
 30
0.0
 11
1705.499926028238
 21
645.0782981525356
 31
0.0
  0
LINE
  5
7125
330
1E
100
AcDbEntity
  8
躯体と製品
  6
Continuous
 62
     4
100
AcDbLine
 10
1705.914139590612
 20
644.0782981525358
 30
0.0
 11
1706.914139590612
 21
645.0782981525352
 31
0.0
  0
LINE
  5
7126
330
1E
100
AcDbEntity
  8
躯体と製品
  6
Continuous
 62
     4
100
AcDbLine
 10
1707.328353152984
 20
644.078298152536
 30
0.0
 11
1708.328353152984
 21
645.0782981525364
 31
0.0
  0
LINE
  5
7127
330
1E
100
AcDbEntity
  8
躯体と製品
  6
Continuous
 62
     4
100
AcDbLine
 10
1708.742566715357
 20
644.078298152536
 30
0.0
 11
1709.742566715357
 21
645.0782981525362
 31
0.0
  0
LINE
  5
7128
330
1E
100
AcDbEntity
  8
躯体と製品
  6
Continuous
 62
     4
100
AcDbLine
 10
1710.15678027773
 20
644.0782981525359
 30
0.0
 11
1711.156780277731
 21
645.0782981525362
 31
0.0
  0
LINE
  5
7129
330
1E
100
AcDbEntity
  8
躯体と製品
  6
Continuous
 62
     4
100
AcDbLine
 10
1711.570993840103
 20
644.0782981525359
 30
0.0
 11
1712.570993840104
 21
645.078298152536
 31
0.0
  0
LINE
  5
712A
330
1E
100
AcDbEntity
  8
躯体と製品
  6
Continuous
 62
     4
100
AcDbLine
 10
1712.985207402477
 20
644.078298152536
 30
0.0
 11
1713.985207402477
 21
645.0782981525359
 31
0.0
  0
LINE
  5
712B
330
1E
100
AcDbEntity
  8
躯体と製品
  6
Continuous
 62
     4
100
AcDbLine
 10
1714.399420964851
 20
644.0782981525366
 30
0.0
 11
1715.399420964851
 21
645.0782981525362
 31
0.0
  0
LINE
  5
712C
330
1E
100
AcDbEntity
  8
躯体と製品
  6
Continuous
 62
     4
100
AcDbLine
 10
1715.813634527224
 20
644.0782981525362
 30
0.0
 11
1716.689172189083
 21
644.9538358143954
 31
0.0
  0
LINE
  5
712D
330
1E
100
AcDbEntity
  8
躯体と製品
  6
Continuous
 62
     3
100
AcDbLine
 10
1716.689172189083
 20
644.078298152536
 30
0.0
 11
1686.689172189083
 21
644.078298152536
 31
0.0
  0
LINE
  5
712E
330
1E
100
AcDbEntity
  8
躯体と製品
  6
Continuous
 62
     3
100
AcDbLine
 10
1686.689172189083
 20
645.078298152536
 30
0.0
 11
1716.689172189083
 21
645.078298152536
 31
0.0
  0
LINE
  5
712F
330
1E
100
AcDbEntity
  8
躯体と製品
  6
Continuous
 62
     3
100
AcDbLine
 10
1716.689172189083
 20
645.078298152536
 30
0.0
 11
1716.689172189083
 21
644.078298152536
 31
0.0
  0
LINE
  5
7130
330
1E
100
AcDbEntity
  8
躯体と製品
  6
Continuous
 62
     3
100
AcDbLine
 10
1686.689172189083
 20
644.078298152536
 30
0.0
 11
1686.689172189083
 21
645.078298152536
 31
0.0
  0
LINE
  5
7131
330
1E
100
AcDbEntity
  8
躯体と製品
  6
Continuous
 62
     7
100
AcDbLine
 10
1701.689172189083
 20
645.078298152536
 30
0.0
 11
1701.689172189083
 21
646.078298152536
 31
0.0
  0
ARC
  5
7132
330
1E
100
AcDbEntity
  8
躯体と製品
  6
Continuous
 62
     7
100
AcDbCircle
 10
1601.689172189083
 20
643.078298152536
 30
0.0
 40
1.0
100
AcDbArc
 50
90.0
 51
175.0000000000005
  0
LINE
  5
7133
330
1E
100
AcDbEntity
  8
躯体と製品
  6
Continuous
 62
     7
100
AcDbLine
 10
1601.689172189083
 20
644.078298152536
 30
0.0
 11
1751.689172189083
 21
644.078298152536
 31
0.0
  0
LINE
  5
7134
330
1E
100
AcDbEntity
  8
躯体と製品
  6
Continuous
 62
     7
100
AcDbLine
 10
1601.689172189083
 20
644.078298152536
 30
0.0
 11
1601.689172189083
 21
504.0782981525361
 31
0.0
  0
LINE
  5
7135
330
1E
100
AcDbEntity
  8
躯体と製品
  6
Continuous
 62
     7
100
AcDbLine
 10
1451.689172189083
 20
644.078298152536
 30
0.0
 11
1451.689172189083
 21
504.0782981525361
 31
0.0
  0
LINE
  5
7136
330
1E
100
AcDbEntity
  8
躯体と製品
  6
Continuous
 62
     7
100
AcDbLine
 10
1751.689172189083
 20
644.078298152536
 30
0.0
 11
1751.689172189083
 21
504.0782981525361
 31
0.0
  0
LINE
  5
7143
330
1E
100
AcDbEntity
  8
躯体と製品
  6
Continuous
 62
     7
100
AcDbLine
 10
1426.689172189083
 20
644.078298152536
 30
0.0
 11
1451.689172189083
 21
644.078298152536
 31
0.0
  0
TEXT
  5
7144
330
1E
100
AcDbEntity
  8
図枠
 62
     7
100
AcDbText
 10
1451.689172189083
 20
288.578298152536
 30
0.0
 40
5.0
  1
ｔ1.0×ｗ30
100
AcDbText
  0
TEXT
  5
7145
330
1E
100
AcDbEntity
  8
図枠
 62
     7
100
AcDbText
 10
1451.689172189083
 20
405.578298152536
 30
0.0
 40
5.0
  1
150ＦＹＫＪ－350～550
100
AcDbText
  0
TEXT
  5
7146
330
1E
100
AcDbEntity
  8
図枠
 62
     7
100
AcDbText
 10
1451.689172189083
 20
432.5782981525359
 30
0.0
 40
5.0
  1
150ＦＹＫＨ－350～550
100
AcDbText
  0
TEXT
  5
7147
330
1E
100
AcDbEntity
  8
図枠
 62
     7
100
AcDbText
 10
1451.689172189083
 20
477.5782981525359
 30
0.0
 40
5.0
  1
150ＦＹＫ－Ａ350～550
100
AcDbText
  0
LINE
  5
7148
330
1E
100
AcDbEntity
  8
図枠
  6
Continuous
 62
     7
100
AcDbLine
 10
1892.689172189083
 20
494.0782981525359
 30
0.0
 11
1892.689172189083
 21
404.078298152536
 31
0.0
  0
LINE
  5
7149
330
1E
100
AcDbEntity
  8
図枠
  6
Continuous
 62
     7
100
AcDbLine
 10
1862.689172189083
 20
494.0782981525359
 30
0.0
 11
1862.689172189083
 21
404.078298152536
 31
0.0
  0
LINE
  5
714A
330
1E
100
AcDbEntity
  8
図枠
  6
Continuous
 62
     7
100
AcDbLine
 10
1832.689172189083
 20
494.0782981525359
 30
0.0
 11
1832.689172189083
 21
404.078298152536
 31
0.0
  0
LINE
  5
714B
330
1E
100
AcDbEntity
  8
図枠
  6
Continuous
 62
     7
100
AcDbLine
 10
1922.689172189083
 20
494.0782981525359
 30
0.0
 11
1922.689172189083
 21
404.078298152536
 31
0.0
  0
TEXT
  5
714C
330
1E
100
AcDbEntity
  8
図枠
 62
     7
100
AcDbText
 10
1902.689172189083
 20
405.578298152536
 30
0.0
 40
5.0
  1
130
100
AcDbText
  0
TEXT
  5
714D
330
1E
100
AcDbEntity
  8
図枠
 62
     7
100
AcDbText
 10
1874.439172189083
 20
405.578298152536
 30
0.0
 40
5.0
  1
71
100
AcDbText
  0
TEXT
  5
714E
330
1E
100
AcDbEntity
  8
図枠
 62
     7
100
AcDbText
 10
1902.689172189083
 20
414.578298152536
 30
0.0
 40
5.0
  1
128
100
AcDbText
  0
TEXT
  5
714F
330
1E
100
AcDbEntity
  8
図枠
 62
     7
100
AcDbText
 10
1902.689172189083
 20
423.578298152536
 30
0.0
 40
5.0
  1
127
100
AcDbText
  0
TEXT
  5
7150
330
1E
100
AcDbEntity
  8
図枠
 62
     7
100
AcDbText
 10
1902.689172189083
 20
432.5782981525359
 30
0.0
 40
5.0
  1
126
100
AcDbText
  0
TEXT
  5
7151
330
1E
100
AcDbEntity
  8
図枠
 62
     7
100
AcDbText
 10
1902.689172189083
 20
441.5782981525359
 30
0.0
 40
5.0
  1
124
100
AcDbText
  0
TEXT
  5
7152
330
1E
100
AcDbEntity
  8
図枠
 62
     7
100
AcDbText
 10
1902.689172189083
 20
450.5782981525359
 30
0.0
 40
5.0
  1
123
100
AcDbText
  0
TEXT
  5
7153
330
1E
100
AcDbEntity
  8
図枠
 62
     7
100
AcDbText
 10
1902.689172189083
 20
459.5782981525359
 30
0.0
 40
5.0
  1
122
100
AcDbText
  0
TEXT
  5
7154
330
1E
100
AcDbEntity
  8
図枠
 62
     7
100
AcDbText
 10
1902.689172189083
 20
468.5782981525359
 30
0.0
 40
5.0
  1
121
100
AcDbText
  0
TEXT
  5
7155
330
1E
100
AcDbEntity
  8
図枠
 62
     7
100
AcDbText
 10
1902.689172189083
 20
477.5782981525359
 30
0.0
 40
5.0
  1
119
100
AcDbText
  0
TEXT
  5
7156
330
1E
100
AcDbEntity
  8
図枠
 62
     7
100
AcDbText
 10
1874.439172189083
 20
414.578298152536
 30
0.0
 40
5.0
  1
70
100
AcDbText
  0
TEXT
  5
7157
330
1E
100
AcDbEntity
  8
図枠
 62
     7
100
AcDbText
 10
1874.439172189083
 20
423.578298152536
 30
0.0
 40
5.0
  1
68
100
AcDbText
  0
TEXT
  5
7158
330
1E
100
AcDbEntity
  8
図枠
 62
     7
100
AcDbText
 10
1874.439172189083
 20
432.5782981525359
 30
0.0
 40
5.0
  1
67
100
AcDbText
  0
TEXT
  5
7159
330
1E
100
AcDbEntity
  8
図枠
 62
     7
100
AcDbText
 10
1874.439172189083
 20
441.5782981525359
 30
0.0
 40
5.0
  1
66
100
AcDbText
  0
TEXT
  5
715A
330
1E
100
AcDbEntity
  8
図枠
 62
     7
100
AcDbText
 10
1874.439172189083
 20
450.5782981525359
 30
0.0
 40
5.0
  1
64
100
AcDbText
  0
TEXT
  5
715B
330
1E
100
AcDbEntity
  8
図枠
 62
     7
100
AcDbText
 10
1874.439172189083
 20
459.5782981525359
 30
0.0
 40
5.0
  1
63
100
AcDbText
  0
TEXT
  5
715C
330
1E
100
AcDbEntity
  8
図枠
 62
     7
100
AcDbText
 10
1874.439172189083
 20
468.5782981525359
 30
0.0
 40
5.0
  1
62
100
AcDbText
  0
TEXT
  5
715D
330
1E
100
AcDbEntity
  8
図枠
 62
     7
100
AcDbText
 10
1874.439172189083
 20
477.5782981525359
 30
0.0
 40
5.0
  1
61
100
AcDbText
  0
TEXT
  5
715E
330
1E
100
AcDbEntity
  8
図枠
 62
     7
100
AcDbText
 10
1842.689172189083
 20
405.578298152536
 30
0.0
 40
5.0
  1
300
100
AcDbText
  0
TEXT
  5
715F
330
1E
100
AcDbEntity
  8
図枠
 62
     7
100
AcDbText
 10
1842.689172189083
 20
414.578298152536
 30
0.0
 40
5.0
  1
275
100
AcDbText
  0
TEXT
  5
7160
330
1E
100
AcDbEntity
  8
図枠
 62
     7
100
AcDbText
 10
1842.689172189083
 20
423.578298152536
 30
0.0
 40
5.0
  1
250
100
AcDbText
  0
TEXT
  5
7161
330
1E
100
AcDbEntity
  8
図枠
 62
     7
100
AcDbText
 10
1842.689172189083
 20
432.5782981525359
 30
0.0
 40
5.0
  1
225
100
AcDbText
  0
TEXT
  5
7162
330
1E
100
AcDbEntity
  8
図枠
 62
     7
100
AcDbText
 10
1842.689172189083
 20
441.5782981525359
 30
0.0
 40
5.0
  1
200
100
AcDbText
  0
TEXT
  5
7163
330
1E
100
AcDbEntity
  8
図枠
 62
     7
100
AcDbText
 10
1842.689172189083
 20
450.5782981525359
 30
0.0
 40
5.0
  1
175
100
AcDbText
  0
TEXT
  5
7164
330
1E
100
AcDbEntity
  8
図枠
 62
     7
100
AcDbText
 10
1842.689172189083
 20
459.5782981525359
 30
0.0
 40
5.0
  1
150
100
AcDbText
  0
TEXT
  5
7165
330
1E
100
AcDbEntity
  8
図枠
 62
     7
100
AcDbText
 10
1842.689172189083
 20
468.5782981525359
 30
0.0
 40
5.0
  1
125
100
AcDbText
  0
TEXT
  5
7166
330
1E
100
AcDbEntity
  8
図枠
 62
     7
100
AcDbText
 10
1842.689172189083
 20
477.5782981525359
 30
0.0
 40
5.0
  1
100
100
AcDbText
  0
TEXT
  5
7167
330
1E
100
AcDbEntity
  8
図枠
 62
     7
100
AcDbText
 10
1904.689172189083
 20
486.578298152536
 30
0.0
 40
5.0
  1
Ｅ
100
AcDbText
  0
TEXT
  5
7168
330
1E
100
AcDbEntity
  8
図枠
 62
     7
100
AcDbText
 10
1874.689172189083
 20
486.578298152536
 30
0.0
 40
5.0
  1
Ｄ
100
AcDbText
  0
TEXT
  5
7169
330
1E
100
AcDbEntity
  8
図枠
 62
     7
100
AcDbText
 10
1844.689172189083
 20
486.578298152536
 30
0.0
 40
5.0
  1
Ｃ
100
AcDbText
  0
LINE
  5
716A
330
1E
100
AcDbEntity
  8
図枠
  6
Continuous
 62
     7
100
AcDbLine
 10
1922.689172189083
 20
404.078298152536
 30
0.0
 11
1697.689172189083
 21
404.078298152536
 31
0.0
  0
LINE
  5
716B
330
1E
100
AcDbEntity
  8
図枠
  6
Continuous
 62
     7
100
AcDbLine
 10
1922.689172189083
 20
413.078298152536
 30
0.0
 11
1697.689172189083
 21
413.078298152536
 31
0.0
  0
LINE
  5
716C
330
1E
100
AcDbEntity
  8
図枠
  6
Continuous
 62
     7
100
AcDbLine
 10
1922.689172189083
 20
422.078298152536
 30
0.0
 11
1697.689172189083
 21
422.078298152536
 31
0.0
  0
LINE
  5
716D
330
1E
100
AcDbEntity
  8
図枠
  6
Continuous
 62
     7
100
AcDbLine
 10
1922.689172189083
 20
431.0782981525359
 30
0.0
 11
1697.689172189083
 21
431.0782981525359
 31
0.0
  0
LINE
  5
716E
330
1E
100
AcDbEntity
  8
図枠
  6
Continuous
 62
     7
100
AcDbLine
 10
1922.689172189083
 20
440.0782981525359
 30
0.0
 11
1697.689172189083
 21
440.0782981525359
 31
0.0
  0
LINE
  5
716F
330
1E
100
AcDbEntity
  8
図枠
  6
Continuous
 62
     7
100
AcDbLine
 10
1922.689172189083
 20
449.0782981525359
 30
0.0
 11
1697.689172189083
 21
449.0782981525359
 31
0.0
  0
LINE
  5
7170
330
1E
100
AcDbEntity
  8
図枠
  6
Continuous
 62
     7
100
AcDbLine
 10
1922.689172189083
 20
467.0782981525359
 30
0.0
 11
1697.689172189083
 21
467.0782981525359
 31
0.0
  0
LINE
  5
7171
330
1E
100
AcDbEntity
  8
図枠
  6
Continuous
 62
     7
100
AcDbLine
 10
1922.689172189083
 20
485.0782981525359
 30
0.0
 11
1697.689172189083
 21
485.0782981525359
 31
0.0
  0
LINE
  5
7172
330
1E
100
AcDbEntity
  8
図枠
  6
Continuous
 62
     7
100
AcDbLine
 10
1922.689172189083
 20
476.078298152536
 30
0.0
 11
1697.689172189083
 21
476.078298152536
 31
0.0
  0
LINE
  5
7173
330
1E
100
AcDbEntity
  8
図枠
  6
Continuous
 62
     7
100
AcDbLine
 10
1922.689172189083
 20
458.0782981525358
 30
0.0
 11
1697.689172189083
 21
458.0782981525358
 31
0.0
  0
LINE
  5
7174
330
1E
100
AcDbEntity
  8
図枠
  6
Continuous
 62
     7
100
AcDbLine
 10
1772.689172189083
 20
494.0782981525359
 30
0.0
 11
1772.689172189083
 21
404.078298152536
 31
0.0
  0
LINE
  5
7175
330
1E
100
AcDbEntity
  8
図枠
  6
Continuous
 62
     7
100
AcDbLine
 10
1802.689172189083
 20
494.0782981525359
 30
0.0
 11
1802.689172189083
 21
404.078298152536
 31
0.0
  0
LINE
  5
7176
330
1E
100
AcDbEntity
  8
図枠
  6
Continuous
 62
     7
100
AcDbLine
 10
1697.689172189083
 20
494.0782981525359
 30
0.0
 11
1697.689172189083
 21
404.078298152536
 31
0.0
  0
TEXT
  5
7177
330
1E
100
AcDbEntity
  8
図枠
 62
     7
100
AcDbText
 10
1812.689172189083
 20
405.578298152536
 30
0.0
 40
5.0
  1
535
100
AcDbText
  0
TEXT
  5
7178
330
1E
100
AcDbEntity
  8
図枠
 62
     7
100
AcDbText
 10
1707.439172189083
 20
405.578298152536
 30
0.0
 40
5.0
  1
　　  〃　 　550
100
AcDbText
  0
TEXT
  5
7179
330
1E
100
AcDbEntity
  8
図枠
 62
     7
100
AcDbText
 10
1782.689172189083
 20
405.578298152536
 30
0.0
 40
5.0
  1
550
100
AcDbText
  0
TEXT
  5
717A
330
1E
100
AcDbEntity
  8
図枠
 62
     7
100
AcDbText
 10
1812.689172189083
 20
414.578298152536
 30
0.0
 40
5.0
  1
510
100
AcDbText
  0
TEXT
  5
717B
330
1E
100
AcDbEntity
  8
図枠
 62
     7
100
AcDbText
 10
1812.689172189083
 20
423.578298152536
 30
0.0
 40
5.0
  1
485
100
AcDbText
  0
TEXT
  5
717C
330
1E
100
AcDbEntity
  8
図枠
 62
     7
100
AcDbText
 10
1812.689172189083
 20
432.5782981525359
 30
0.0
 40
5.0
  1
460
100
AcDbText
  0
TEXT
  5
717D
330
1E
100
AcDbEntity
  8
図枠
 62
     7
100
AcDbText
 10
1812.689172189083
 20
441.5782981525359
 30
0.0
 40
5.0
  1
435
100
AcDbText
  0
TEXT
  5
717E
330
1E
100
AcDbEntity
  8
図枠
 62
     7
100
AcDbText
 10
1812.689172189083
 20
450.5782981525359
 30
0.0
 40
5.0
  1
410
100
AcDbText
  0
TEXT
  5
717F
330
1E
100
AcDbEntity
  8
図枠
 62
     7
100
AcDbText
 10
1812.689172189083
 20
459.5782981525359
 30
0.0
 40
5.0
  1
385
100
AcDbText
  0
TEXT
  5
7180
330
1E
100
AcDbEntity
  8
図枠
 62
     7
100
AcDbText
 10
1812.689172189083
 20
468.5782981525359
 30
0.0
 40
5.0
  1
360
100
AcDbText
  0
TEXT
  5
7181
330
1E
100
AcDbEntity
  8
図枠
 62
     7
100
AcDbText
 10
1812.689172189083
 20
477.5782981525359
 30
0.0
 40
5.0
  1
335
100
AcDbText
  0
TEXT
  5
7182
330
1E
100
AcDbEntity
  8
図枠
 62
     7
100
AcDbText
 10
1782.689172189083
 20
414.578298152536
 30
0.0
 40
5.0
  1
525
100
AcDbText
  0
TEXT
  5
7183
330
1E
100
AcDbEntity
  8
図枠
 62
     7
100
AcDbText
 10
1782.689172189083
 20
423.578298152536
 30
0.0
 40
5.0
  1
500
100
AcDbText
  0
TEXT
  5
7184
330
1E
100
AcDbEntity
  8
図枠
 62
     7
100
AcDbText
 10
1782.689172189083
 20
432.5782981525359
 30
0.0
 40
5.0
  1
475
100
AcDbText
  0
TEXT
  5
7185
330
1E
100
AcDbEntity
  8
図枠
 62
     7
100
AcDbText
 10
1782.689172189083
 20
441.5782981525359
 30
0.0
 40
5.0
  1
450
100
AcDbText
  0
TEXT
  5
7186
330
1E
100
AcDbEntity
  8
図枠
 62
     7
100
AcDbText
 10
1782.689172189083
 20
450.5782981525359
 30
0.0
 40
5.0
  1
425
100
AcDbText
  0
TEXT
  5
7187
330
1E
100
AcDbEntity
  8
図枠
 62
     7
100
AcDbText
 10
1782.689172189083
 20
459.5782981525359
 30
0.0
 40
5.0
  1
400
100
AcDbText
  0
TEXT
  5
7188
330
1E
100
AcDbEntity
  8
図枠
 62
     7
100
AcDbText
 10
1782.689172189083
 20
468.5782981525359
 30
0.0
 40
5.0
  1
375
100
AcDbText
  0
TEXT
  5
7189
330
1E
100
AcDbEntity
  8
図枠
 62
     7
100
AcDbText
 10
1782.689172189083
 20
477.5782981525359
 30
0.0
 40
5.0
  1
350
100
AcDbText
  0
TEXT
  5
718A
330
1E
100
AcDbEntity
  8
図枠
 62
     7
100
AcDbText
 10
1707.439172189083
 20
414.578298152536
 30
0.0
 40
5.0
  1
　　  〃　 　525
100
AcDbText
  0
TEXT
  5
718B
330
1E
100
AcDbEntity
  8
図枠
 62
     7
100
AcDbText
 10
1707.439172189083
 20
423.578298152536
 30
0.0
 40
5.0
  1
　　  〃　 　500
100
AcDbText
  0
TEXT
  5
718C
330
1E
100
AcDbEntity
  8
図枠
 62
     7
100
AcDbText
 10
1707.439172189083
 20
432.5782981525359
 30
0.0
 40
5.0
  1
　　  〃　 　475
100
AcDbText
  0
TEXT
  5
718D
330
1E
100
AcDbEntity
  8
図枠
 62
     7
100
AcDbText
 10
1707.439172189083
 20
441.5782981525359
 30
0.0
 40
5.0
  1
　　  〃　 　450
100
AcDbText
  0
TEXT
  5
718E
330
1E
100
AcDbEntity
  8
図枠
 62
     7
100
AcDbText
 10
1707.439172189083
 20
450.5782981525359
 30
0.0
 40
5.0
  1
　　  〃　 　425
100
AcDbText
  0
TEXT
  5
718F
330
1E
100
AcDbEntity
  8
図枠
 62
     7
100
AcDbText
 10
1707.439172189083
 20
459.5782981525359
 30
0.0
 40
5.0
  1
　　  〃　 　400
100
AcDbText
  0
TEXT
  5
7190
330
1E
100
AcDbEntity
  8
図枠
 62
     7
100
AcDbText
 10
1707.439172189083
 20
468.5782981525359
 30
0.0
 40
5.0
  1
　　  〃　 　375
100
AcDbText
  0
TEXT
  5
7191
330
1E
100
AcDbEntity
  8
図枠
 62
     7
100
AcDbText
 10
1707.439172189083
 20
477.5782981525359
 30
0.0
 40
5.0
  1
150ＦＹＫ－Ａ350
100
AcDbText
  0
TEXT
  5
7192
330
1E
100
AcDbEntity
  8
図枠
 62
     7
100
AcDbText
 10
1784.689172189083
 20
486.578298152536
 30
0.0
 40
5.0
  1
Ｗ
100
AcDbText
  0
TEXT
  5
7193
330
1E
100
AcDbEntity
  8
図枠
 62
     7
100
AcDbText
 10
1814.689172189083
 20
486.578298152536
 30
0.0
 40
5.0
  1
Ａ
100
AcDbText
  0
TEXT
  5
7194
330
1E
100
AcDbEntity
  8
図枠
 62
     7
100
AcDbText
 10
1718.189172189083
 20
486.578298152536
 30
0.0
 40
5.0
  1
タ　イ　プ
100
AcDbText
  0
TEXT
  5
7195
330
1E
100
AcDbEntity
  8
図枠
 62
     7
100
AcDbText
 10
1596.189172189083
 20
486.578298152536
 30
0.0
 40
5.0
  1
単位
100
AcDbText
  0
TEXT
  5
7196
330
1E
100
AcDbEntity
  8
図枠
 62
     7
100
AcDbText
 10
1664.189172189083
 20
486.578298152536
 30
0.0
 40
5.0
  1
単位
100
AcDbText
  0
TEXT
  5
7197
330
1E
100
AcDbEntity
  8
図枠
 62
     7
100
AcDbText
 10
1667.689172189083
 20
288.578298152536
 30
0.0
 40
5.0
  1
巻
100
AcDbText
  0
TEXT
  5
7198
330
1E
100
AcDbEntity
  8
図枠
 62
     7
100
AcDbText
 10
1667.689172189083
 20
297.578298152536
 30
0.0
 40
5.0
  1
〃
100
AcDbText
  0
TEXT
  5
7199
330
1E
100
AcDbEntity
  8
図枠
 62
     7
100
AcDbText
 10
1667.689172189083
 20
306.5782981525361
 30
0.0
 40
5.0
  1
枚
100
AcDbText
  0
TEXT
  5
719A
330
1E
100
AcDbEntity
  8
図枠
 62
     7
100
AcDbText
 10
1667.689172189083
 20
315.5782981525361
 30
0.0
 40
5.0
  1
〃
100
AcDbText
  0
TEXT
  5
719B
330
1E
100
AcDbEntity
  8
図枠
 62
     7
100
AcDbText
 10
1667.689172189083
 20
324.5782981525361
 30
0.0
 40
5.0
  1
〃
100
AcDbText
  0
TEXT
  5
719C
330
1E
100
AcDbEntity
  8
図枠
 62
     7
100
AcDbText
 10
1667.689172189083
 20
333.5782981525361
 30
0.0
 40
5.0
  1
〃
100
AcDbText
  0
TEXT
  5
719D
330
1E
100
AcDbEntity
  8
図枠
 62
     7
100
AcDbText
 10
1667.689172189083
 20
342.5782981525361
 30
0.0
 40
5.0
  1
〃
100
AcDbText
  0
TEXT
  5
719E
330
1E
100
AcDbEntity
  8
図枠
 62
     7
100
AcDbText
 10
1667.689172189083
 20
351.5782981525361
 30
0.0
 40
5.0
  1
〃
100
AcDbText
  0
TEXT
  5
719F
330
1E
100
AcDbEntity
  8
図枠
 62
     7
100
AcDbText
 10
1667.689172189083
 20
360.5782981525361
 30
0.0
 40
5.0
  1
〃
100
AcDbText
  0
TEXT
  5
71A0
330
1E
100
AcDbEntity
  8
図枠
 62
     7
100
AcDbText
 10
1667.689172189083
 20
369.578298152536
 30
0.0
 40
5.0
  1
本
100
AcDbText
  0
TEXT
  5
71A1
330
1E
100
AcDbEntity
  8
図枠
 62
     7
100
AcDbText
 10
1667.689172189083
 20
378.578298152536
 30
0.0
 40
5.0
  1
〃
100
AcDbText
  0
TEXT
  5
71A2
330
1E
100
AcDbEntity
  8
図枠
 62
     7
100
AcDbText
 10
1667.689172189083
 20
387.5782981525361
 30
0.0
 40
5.0
  1
枚
100
AcDbText
  0
TEXT
  5
71A3
330
1E
100
AcDbEntity
  8
図枠
 62
     7
100
AcDbText
 10
1667.689172189083
 20
396.578298152536
 30
0.0
 40
5.0
  1
〃
100
AcDbText
  0
TEXT
  5
71A4
330
1E
100
AcDbEntity
  8
図枠
 62
     7
100
AcDbText
 10
1667.689172189083
 20
405.578298152536
 30
0.0
 40
5.0
  1
〃
100
AcDbText
  0
TEXT
  5
71A5
330
1E
100
AcDbEntity
  8
図枠
 62
     7
100
AcDbText
 10
1667.689172189083
 20
414.578298152536
 30
0.0
 40
5.0
  1
〃
100
AcDbText
  0
TEXT
  5
71A6
330
1E
100
AcDbEntity
  8
図枠
 62
     7
100
AcDbText
 10
1667.689172189083
 20
423.578298152536
 30
0.0
 40
5.0
  1
〃
100
AcDbText
  0
TEXT
  5
71A7
330
1E
100
AcDbEntity
  8
図枠
 62
     7
100
AcDbText
 10
1667.689172189083
 20
432.5782981525359
 30
0.0
 40
5.0
  1
〃
100
AcDbText
  0
TEXT
  5
71A8
330
1E
100
AcDbEntity
  8
図枠
 62
     7
100
AcDbText
 10
1667.689172189083
 20
441.5782981525359
 30
0.0
 40
5.0
  1
〃
100
AcDbText
  0
TEXT
  5
71A9
330
1E
100
AcDbEntity
  8
図枠
 62
     7
100
AcDbText
 10
1667.689172189083
 20
450.5782981525359
 30
0.0
 40
5.0
  1
〃
100
AcDbText
  0
TEXT
  5
71AA
330
1E
100
AcDbEntity
  8
図枠
 62
     7
100
AcDbText
 10
1667.689172189083
 20
459.5782981525359
 30
0.0
 40
5.0
  1
〃
100
AcDbText
  0
TEXT
  5
71AB
330
1E
100
AcDbEntity
  8
図枠
 62
     7
100
AcDbText
 10
1667.689172189083
 20
468.5782981525359
 30
0.0
 40
5.0
  1
〃
100
AcDbText
  0
TEXT
  5
71AC
330
1E
100
AcDbEntity
  8
図枠
 62
     7
100
AcDbText
 10
1667.689172189083
 20
477.5782981525359
 30
0.0
 40
5.0
  1
本
100
AcDbText
  0
TEXT
  5
71AD
330
1E
100
AcDbEntity
  8
図枠
 62
     7
100
AcDbText
 10
1599.689172189083
 20
288.578298152536
 30
0.0
 40
5.0
  1
巻
100
AcDbText
  0
TEXT
  5
71AE
330
1E
100
AcDbEntity
  8
図枠
 62
     7
100
AcDbText
 10
1599.689172189083
 20
297.578298152536
 30
0.0
 40
5.0
  1
〃
100
AcDbText
  0
TEXT
  5
71AF
330
1E
100
AcDbEntity
  8
図枠
 62
     7
100
AcDbText
 10
1599.689172189083
 20
306.5782981525361
 30
0.0
 40
5.0
  1
枚
100
AcDbText
  0
TEXT
  5
71B0
330
1E
100
AcDbEntity
  8
図枠
 62
     7
100
AcDbText
 10
1599.689172189083
 20
315.5782981525361
 30
0.0
 40
5.0
  1
〃
100
AcDbText
  0
TEXT
  5
71B1
330
1E
100
AcDbEntity
  8
図枠
 62
     7
100
AcDbText
 10
1599.689172189083
 20
324.5782981525361
 30
0.0
 40
5.0
  1
〃
100
AcDbText
  0
TEXT
  5
71B2
330
1E
100
AcDbEntity
  8
図枠
 62
     7
100
AcDbText
 10
1599.689172189083
 20
333.5782981525361
 30
0.0
 40
5.0
  1
〃
100
AcDbText
  0
TEXT
  5
71B3
330
1E
100
AcDbEntity
  8
図枠
 62
     7
100
AcDbText
 10
1599.689172189083
 20
342.5782981525361
 30
0.0
 40
5.0
  1
〃
100
AcDbText
  0
TEXT
  5
71B4
330
1E
100
AcDbEntity
  8
図枠
 62
     7
100
AcDbText
 10
1599.689172189083
 20
351.5782981525361
 30
0.0
 40
5.0
  1
〃
100
AcDbText
  0
TEXT
  5
71B5
330
1E
100
AcDbEntity
  8
図枠
 62
     7
100
AcDbText
 10
1599.689172189083
 20
360.5782981525361
 30
0.0
 40
5.0
  1
〃
100
AcDbText
  0
TEXT
  5
71B6
330
1E
100
AcDbEntity
  8
図枠
 62
     7
100
AcDbText
 10
1599.689172189083
 20
369.578298152536
 30
0.0
 40
5.0
  1
本
100
AcDbText
  0
TEXT
  5
71B7
330
1E
100
AcDbEntity
  8
図枠
 62
     7
100
AcDbText
 10
1599.689172189083
 20
378.578298152536
 30
0.0
 40
5.0
  1
〃
100
AcDbText
  0
TEXT
  5
71B8
330
1E
100
AcDbEntity
  8
図枠
 62
     7
100
AcDbText
 10
1599.689172189083
 20
387.5782981525361
 30
0.0
 40
5.0
  1
枚
100
AcDbText
  0
TEXT
  5
71B9
330
1E
100
AcDbEntity
  8
図枠
 62
     7
100
AcDbText
 10
1599.689172189083
 20
396.578298152536
 30
0.0
 40
5.0
  1
〃
100
AcDbText
  0
TEXT
  5
71BA
330
1E
100
AcDbEntity
  8
図枠
 62
     7
100
AcDbText
 10
1599.689172189083
 20
405.578298152536
 30
0.0
 40
5.0
  1
〃
100
AcDbText
  0
TEXT
  5
71BB
330
1E
100
AcDbEntity
  8
図枠
 62
     7
100
AcDbText
 10
1599.689172189083
 20
414.578298152536
 30
0.0
 40
5.0
  1
〃
100
AcDbText
  0
TEXT
  5
71BC
330
1E
100
AcDbEntity
  8
図枠
 62
     7
100
AcDbText
 10
1599.689172189083
 20
423.578298152536
 30
0.0
 40
5.0
  1
〃
100
AcDbText
  0
TEXT
  5
71BD
330
1E
100
AcDbEntity
  8
図枠
 62
     7
100
AcDbText
 10
1599.689172189083
 20
432.5782981525359
 30
0.0
 40
5.0
  1
〃
100
AcDbText
  0
TEXT
  5
71BE
330
1E
100
AcDbEntity
  8
図枠
 62
     7
100
AcDbText
 10
1599.689172189083
 20
441.5782981525359
 30
0.0
 40
5.0
  1
〃
100
AcDbText
  0
TEXT
  5
71BF
330
1E
100
AcDbEntity
  8
図枠
 62
     7
100
AcDbText
 10
1599.689172189083
 20
450.5782981525359
 30
0.0
 40
5.0
  1
〃
100
AcDbText
  0
TEXT
  5
71C0
330
1E
100
AcDbEntity
  8
図枠
 62
     7
100
AcDbText
 10
1599.689172189083
 20
459.5782981525359
 30
0.0
 40
5.0
  1
〃
100
AcDbText
  0
TEXT
  5
71C1
330
1E
100
AcDbEntity
  8
図枠
 62
     7
100
AcDbText
 10
1599.689172189083
 20
468.5782981525359
 30
0.0
 40
5.0
  1
〃
100
AcDbText
  0
TEXT
  5
71C2
330
1E
100
AcDbEntity
  8
図枠
 62
     7
100
AcDbText
 10
1599.689172189083
 20
477.5782981525359
 30
0.0
 40
5.0
  1
本
100
AcDbText
  0
TEXT
  5
71C3
330
1E
100
AcDbEntity
  8
図枠
 62
     7
100
AcDbText
 10
1651.439172189083
 20
288.578298152536
 30
0.0
 40
5.0
  1
 1
100
AcDbText
  0
TEXT
  5
71C4
330
1E
100
AcDbEntity
  8
図枠
 62
     7
100
AcDbText
 10
1651.439172189083
 20
297.578298152536
 30
0.0
 40
5.0
  1
 5
100
AcDbText
  0
TEXT
  5
71C5
330
1E
100
AcDbEntity
  8
図枠
 62
     7
100
AcDbText
 10
1651.439172189083
 20
306.5782981525361
 30
0.0
 40
5.0
  1
 5
100
AcDbText
  0
TEXT
  5
71C6
330
1E
100
AcDbEntity
  8
図枠
 62
     7
100
AcDbText
 10
1651.439172189083
 20
315.5782981525361
 30
0.0
 40
5.0
  1
 5
100
AcDbText
  0
TEXT
  5
71C7
330
1E
100
AcDbEntity
  8
図枠
 62
     7
100
AcDbText
 10
1651.439172189083
 20
324.5782981525361
 30
0.0
 40
5.0
  1
 5
100
AcDbText
  0
TEXT
  5
71C8
330
1E
100
AcDbEntity
  8
図枠
 62
     7
100
AcDbText
 10
1651.439172189083
 20
333.5782981525361
 30
0.0
 40
5.0
  1
 5
100
AcDbText
  0
TEXT
  5
71C9
330
1E
100
AcDbEntity
  8
図枠
 62
     7
100
AcDbText
 10
1651.439172189083
 20
342.5782981525361
 30
0.0
 40
5.0
  1
 5
100
AcDbText
  0
TEXT
  5
71CA
330
1E
100
AcDbEntity
  8
図枠
 62
     7
100
AcDbText
 10
1651.439172189083
 20
351.5782981525361
 30
0.0
 40
5.0
  1
 5
100
AcDbText
  0
TEXT
  5
71CB
330
1E
100
AcDbEntity
  8
図枠
 62
     7
100
AcDbText
 10
1651.439172189083
 20
360.5782981525361
 30
0.0
 40
5.0
  1
 4
100
AcDbText
  0
TEXT
  5
71CC
330
1E
100
AcDbEntity
  8
図枠
 62
     7
100
AcDbText
 10
1651.439172189083
 20
369.578298152536
 30
0.0
 40
5.0
  1
 1
100
AcDbText
  0
TEXT
  5
71CD
330
1E
100
AcDbEntity
  8
図枠
 62
     7
100
AcDbText
 10
1651.439172189083
 20
378.578298152536
 30
0.0
 40
5.0
  1
 1
100
AcDbText
  0
TEXT
  5
71CE
330
1E
100
AcDbEntity
  8
図枠
 62
     7
100
AcDbText
 10
1651.439172189083
 20
387.5782981525361
 30
0.0
 40
5.0
  1
 1
100
AcDbText
  0
TEXT
  5
71CF
330
1E
100
AcDbEntity
  8
図枠
 62
     7
100
AcDbText
 10
1651.439172189083
 20
396.578298152536
 30
0.0
 40
5.0
  1
 1
100
AcDbText
  0
TEXT
  5
71D0
330
1E
100
AcDbEntity
  8
図枠
 62
     7
100
AcDbText
 10
1651.439172189083
 20
405.578298152536
 30
0.0
 40
5.0
  1
 1
100
AcDbText
  0
TEXT
  5
71D1
330
1E
100
AcDbEntity
  8
図枠
 62
     7
100
AcDbText
 10
1651.439172189083
 20
414.578298152536
 30
0.0
 40
5.0
  1
 4
100
AcDbText
  0
TEXT
  5
71D2
330
1E
100
AcDbEntity
  8
図枠
 62
     7
100
AcDbText
 10
1651.439172189083
 20
423.578298152536
 30
0.0
 40
5.0
  1
 4
100
AcDbText
  0
TEXT
  5
71D3
330
1E
100
AcDbEntity
  8
図枠
 62
     7
100
AcDbText
 10
1651.439172189083
 20
432.5782981525359
 30
0.0
 40
5.0
  1
 4
100
AcDbText
  0
TEXT
  5
71D4
330
1E
100
AcDbEntity
  8
図枠
 62
     7
100
AcDbText
 10
1651.439172189083
 20
441.5782981525359
 30
0.0
 40
5.0
  1
 1
100
AcDbText
  0
TEXT
  5
71D5
330
1E
100
AcDbEntity
  8
図枠
 62
     7
100
AcDbText
 10
1651.439172189083
 20
450.5782981525359
 30
0.0
 40
5.0
  1
 1
100
AcDbText
  0
TEXT
  5
71D6
330
1E
100
AcDbEntity
  8
図枠
 62
     7
100
AcDbText
 10
1651.439172189083
 20
459.5782981525359
 30
0.0
 40
5.0
  1
 1
100
AcDbText
  0
TEXT
  5
71D7
330
1E
100
AcDbEntity
  8
図枠
 62
     7
100
AcDbText
 10
1651.439172189083
 20
468.5782981525359
 30
0.0
 40
5.0
  1
 1
100
AcDbText
  0
TEXT
  5
71D8
330
1E
100
AcDbEntity
  8
図枠
 62
     7
100
AcDbText
 10
1651.439172189083
 20
477.5782981525359
 30
0.0
 40
5.0
  1
 1
100
AcDbText
  0
TEXT
  5
71D9
330
1E
100
AcDbEntity
  8
図枠
 62
     7
100
AcDbText
 10
1648.189172189083
 20
486.578298152536
 30
0.0
 40
5.0
  1
入数
100
AcDbText
  0
TEXT
  5
71DA
330
1E
100
AcDbEntity
  8
図枠
 62
     7
100
AcDbText
 10
1583.439172189083
 20
288.578298152536
 30
0.0
 40
5.0
  1
 1
100
AcDbText
  0
TEXT
  5
71DB
330
1E
100
AcDbEntity
  8
図枠
 62
     7
100
AcDbText
 10
1583.439172189083
 20
297.578298152536
 30
0.0
 40
5.0
  1
 6
100
AcDbText
  0
TEXT
  5
71DC
330
1E
100
AcDbEntity
  8
図枠
 62
     7
100
AcDbText
 10
1583.439172189083
 20
306.5782981525361
 30
0.0
 40
5.0
  1
 6
100
AcDbText
  0
TEXT
  5
71DD
330
1E
100
AcDbEntity
  8
図枠
 62
     7
100
AcDbText
 10
1583.439172189083
 20
315.5782981525361
 30
0.0
 40
5.0
  1
 6
100
AcDbText
  0
TEXT
  5
71DE
330
1E
100
AcDbEntity
  8
図枠
 62
     7
100
AcDbText
 10
1583.439172189083
 20
324.5782981525361
 30
0.0
 40
5.0
  1
 6
100
AcDbText
  0
TEXT
  5
71DF
330
1E
100
AcDbEntity
  8
図枠
 62
     7
100
AcDbText
 10
1583.439172189083
 20
333.5782981525361
 30
0.0
 40
5.0
  1
 6
100
AcDbText
  0
TEXT
  5
71E0
330
1E
100
AcDbEntity
  8
図枠
 62
     7
100
AcDbText
 10
1583.439172189083
 20
342.5782981525361
 30
0.0
 40
5.0
  1
 6
100
AcDbText
  0
TEXT
  5
71E1
330
1E
100
AcDbEntity
  8
図枠
 62
     7
100
AcDbText
 10
1583.439172189083
 20
351.5782981525361
 30
0.0
 40
5.0
  1
 6
100
AcDbText
  0
TEXT
  5
71E2
330
1E
100
AcDbEntity
  8
図枠
 62
     7
100
AcDbText
 10
1583.439172189083
 20
360.5782981525361
 30
0.0
 40
5.0
  1
 6
100
AcDbText
  0
TEXT
  5
71E3
330
1E
100
AcDbEntity
  8
図枠
 62
     7
100
AcDbText
 10
1583.439172189083
 20
369.578298152536
 30
0.0
 40
5.0
  1
 1
100
AcDbText
  0
TEXT
  5
71E4
330
1E
100
AcDbEntity
  8
図枠
 62
     7
100
AcDbText
 10
1583.439172189083
 20
378.578298152536
 30
0.0
 40
5.0
  1
 1
100
AcDbText
  0
TEXT
  5
71E5
330
1E
100
AcDbEntity
  8
図枠
 62
     7
100
AcDbText
 10
1583.439172189083
 20
387.5782981525361
 30
0.0
 40
5.0
  1
 1
100
AcDbText
  0
TEXT
  5
71E6
330
1E
100
AcDbEntity
  8
図枠
 62
     7
100
AcDbText
 10
1583.439172189083
 20
396.578298152536
 30
0.0
 40
5.0
  1
 1
100
AcDbText
  0
TEXT
  5
71E7
330
1E
100
AcDbEntity
  8
図枠
 62
     7
100
AcDbText
 10
1583.439172189083
 20
405.578298152536
 30
0.0
 40
5.0
  1
 1
100
AcDbText
  0
TEXT
  5
71E8
330
1E
100
AcDbEntity
  8
図枠
 62
     7
100
AcDbText
 10
1583.439172189083
 20
414.578298152536
 30
0.0
 40
5.0
  1
 6
100
AcDbText
  0
TEXT
  5
71E9
330
1E
100
AcDbEntity
  8
図枠
 62
     7
100
AcDbText
 10
1583.439172189083
 20
423.578298152536
 30
0.0
 40
5.0
  1
 6
100
AcDbText
  0
TEXT
  5
71EA
330
1E
100
AcDbEntity
  8
図枠
 62
     7
100
AcDbText
 10
1583.439172189083
 20
432.5782981525359
 30
0.0
 40
5.0
  1
 6
100
AcDbText
  0
TEXT
  5
71EB
330
1E
100
AcDbEntity
  8
図枠
 62
     7
100
AcDbText
 10
1583.439172189083
 20
441.5782981525359
 30
0.0
 40
5.0
  1
 1
100
AcDbText
  0
TEXT
  5
71EC
330
1E
100
AcDbEntity
  8
図枠
 62
     7
100
AcDbText
 10
1583.439172189083
 20
450.5782981525359
 30
0.0
 40
5.0
  1
 1
100
AcDbText
  0
TEXT
  5
71ED
330
1E
100
AcDbEntity
  8
図枠
 62
     7
100
AcDbText
 10
1583.439172189083
 20
459.5782981525359
 30
0.0
 40
5.0
  1
 1
100
AcDbText
  0
TEXT
  5
71EE
330
1E
100
AcDbEntity
  8
図枠
 62
     7
100
AcDbText
 10
1583.439172189083
 20
468.5782981525359
 30
0.0
 40
5.0
  1
 1
100
AcDbText
  0
TEXT
  5
71EF
330
1E
100
AcDbEntity
  8
図枠
 62
     7
100
AcDbText
 10
1583.439172189083
 20
477.5782981525359
 30
0.0
 40
5.0
  1
 1
100
AcDbText
  0
TEXT
  5
71F0
330
1E
100
AcDbEntity
  8
図枠
 62
     7
100
AcDbText
 10
1580.189172189083
 20
486.578298152536
 30
0.0
 40
5.0
  1
入数
100
AcDbText
  0
TEXT
  5
71F1
330
1E
100
AcDbEntity
  8
図枠
 62
     7
100
AcDbText
 10
1621.439172189083
 20
288.578298152536
 30
0.0
 40
5.0
  1
6000
100
AcDbText
  0
TEXT
  5
71F2
330
1E
100
AcDbEntity
  8
図枠
 62
     7
100
AcDbText
 10
1621.439172189083
 20
369.578298152536
 30
0.0
 40
5.0
  1
2000
100
AcDbText
  0
TEXT
  5
71F3
330
1E
100
AcDbEntity
  8
図枠
 62
     7
100
AcDbText
 10
1621.439172189083
 20
378.578298152536
 30
0.0
 40
5.0
  1
2100
100
AcDbText
  0
TEXT
  5
71F4
330
1E
100
AcDbEntity
  8
図枠
 62
     7
100
AcDbText
 10
1621.439172189083
 20
387.5782981525361
 30
0.0
 40
5.0
  1
2060
100
AcDbText
  0
TEXT
  5
71F5
330
1E
100
AcDbEntity
  8
図枠
 62
     7
100
AcDbText
 10
1621.439172189083
 20
441.5782981525359
 30
0.0
 40
5.0
  1
2010
100
AcDbText
  0
TEXT
  5
71F6
330
1E
100
AcDbEntity
  8
図枠
 62
     7
100
AcDbText
 10
1621.439172189083
 20
450.5782981525359
 30
0.0
 40
5.0
  1
2000
100
AcDbText
  0
TEXT
  5
71F7
330
1E
100
AcDbEntity
  8
図枠
 62
     7
100
AcDbText
 10
1621.439172189083
 20
459.5782981525359
 30
0.0
 40
5.0
  1
2000
100
AcDbText
  0
TEXT
  5
71F8
330
1E
100
AcDbEntity
  8
図枠
 62
     7
100
AcDbText
 10
1621.439172189083
 20
468.5782981525359
 30
0.0
 40
5.0
  1
2000
100
AcDbText
  0
TEXT
  5
71F9
330
1E
100
AcDbEntity
  8
図枠
 62
     7
100
AcDbText
 10
1621.439172189083
 20
477.5782981525359
 30
0.0
 40
5.0
  1
2000
100
AcDbText
  0
TEXT
  5
71FA
330
1E
100
AcDbEntity
  8
図枠
 62
     7
100
AcDbText
 10
1614.439172189083
 20
486.578298152536
 30
0.0
 40
5.0
  1
定尺(mm)
100
AcDbText
  0
TEXT
  5
71FB
330
1E
100
AcDbEntity
  8
図枠
 62
     7
100
AcDbText
 10
1553.439172189083
 20
288.578298152536
 30
0.0
 40
5.0
  1
6000
100
AcDbText
  0
TEXT
  5
71FC
330
1E
100
AcDbEntity
  8
図枠
 62
     7
100
AcDbText
 10
1553.439172189083
 20
369.578298152536
 30
0.0
 40
5.0
  1
3000
100
AcDbText
  0
TEXT
  5
71FD
330
1E
100
AcDbEntity
  8
図枠
 62
     7
100
AcDbText
 10
1553.439172189083
 20
378.578298152536
 30
0.0
 40
5.0
  1
3100
100
AcDbText
  0
TEXT
  5
71FE
330
1E
100
AcDbEntity
  8
図枠
 62
     7
100
AcDbText
 10
1553.439172189083
 20
387.5782981525361
 30
0.0
 40
5.0
  1
3060
100
AcDbText
  0
TEXT
  5
71FF
330
1E
100
AcDbEntity
  8
図枠
 62
     7
100
AcDbText
 10
1553.439172189083
 20
441.5782981525359
 30
0.0
 40
5.0
  1
3010
100
AcDbText
  0
TEXT
  5
7200
330
1E
100
AcDbEntity
  8
図枠
 62
     7
100
AcDbText
 10
1553.439172189083
 20
450.5782981525359
 30
0.0
 40
5.0
  1
3000
100
AcDbText
  0
TEXT
  5
7201
330
1E
100
AcDbEntity
  8
図枠
 62
     7
100
AcDbText
 10
1553.439172189083
 20
459.5782981525359
 30
0.0
 40
5.0
  1
3000
100
AcDbText
  0
TEXT
  5
7202
330
1E
100
AcDbEntity
  8
図枠
 62
     7
100
AcDbText
 10
1553.439172189083
 20
468.5782981525359
 30
0.0
 40
5.0
  1
3000
100
AcDbText
  0
TEXT
  5
7203
330
1E
100
AcDbEntity
  8
図枠
 62
     7
100
AcDbText
 10
1553.439172189083
 20
477.5782981525359
 30
0.0
 40
5.0
  1
3000
100
AcDbText
  0
TEXT
  5
7204
330
1E
100
AcDbEntity
  8
図枠
 62
     7
100
AcDbText
 10
1546.439172189083
 20
486.578298152536
 30
0.0
 40
5.0
  1
定尺(mm)
100
AcDbText
  0
LINE
  5
7205
330
1E
100
AcDbEntity
  8
図枠
  6
Continuous
 62
     7
100
AcDbLine
 10
1677.689172189083
 20
287.078298152536
 30
0.0
 11
1677.689172189083
 21
494.0782981525359
 31
0.0
  0
LINE
  5
7206
330
1E
100
AcDbEntity
  8
図枠
  6
Continuous
 62
     7
100
AcDbLine
 10
1610.689172189083
 20
287.078298152536
 30
0.0
 11
1677.689172189083
 21
287.078298152536
 31
0.0
  0
LINE
  5
7207
330
1E
100
AcDbEntity
  8
図枠
  6
Continuous
 62
     7
100
AcDbLine
 10
1610.689172189083
 20
296.078298152536
 30
0.0
 11
1677.689172189083
 21
296.078298152536
 31
0.0
  0
LINE
  5
7208
330
1E
100
AcDbEntity
  8
図枠
  6
Continuous
 62
     7
100
AcDbLine
 10
1610.689172189083
 20
305.0782981525361
 30
0.0
 11
1677.689172189083
 21
305.0782981525361
 31
0.0
  0
LINE
  5
7209
330
1E
100
AcDbEntity
  8
図枠
  6
Continuous
 62
     7
100
AcDbLine
 10
1610.689172189083
 20
314.0782981525362
 30
0.0
 11
1677.689172189083
 21
314.0782981525362
 31
0.0
  0
LINE
  5
720A
330
1E
100
AcDbEntity
  8
図枠
  6
Continuous
 62
     7
100
AcDbLine
 10
1610.689172189083
 20
323.0782981525361
 30
0.0
 11
1677.689172189083
 21
323.0782981525361
 31
0.0
  0
LINE
  5
720B
330
1E
100
AcDbEntity
  8
図枠
  6
Continuous
 62
     7
100
AcDbLine
 10
1610.689172189083
 20
332.0782981525361
 30
0.0
 11
1677.689172189083
 21
332.0782981525361
 31
0.0
  0
LINE
  5
720C
330
1E
100
AcDbEntity
  8
図枠
  6
Continuous
 62
     7
100
AcDbLine
 10
1610.689172189083
 20
341.0782981525361
 30
0.0
 11
1677.689172189083
 21
341.0782981525361
 31
0.0
  0
LINE
  5
720D
330
1E
100
AcDbEntity
  8
図枠
  6
Continuous
 62
     7
100
AcDbLine
 10
1610.689172189083
 20
350.0782981525361
 30
0.0
 11
1677.689172189083
 21
350.0782981525361
 31
0.0
  0
LINE
  5
720E
330
1E
100
AcDbEntity
  8
図枠
  6
Continuous
 62
     7
100
AcDbLine
 10
1610.689172189083
 20
359.078298152536
 30
0.0
 11
1677.689172189083
 21
359.078298152536
 31
0.0
  0
LINE
  5
720F
330
1E
100
AcDbEntity
  8
図枠
  6
Continuous
 62
     7
100
AcDbLine
 10
1610.689172189083
 20
368.078298152536
 30
0.0
 11
1677.689172189083
 21
368.078298152536
 31
0.0
  0
LINE
  5
7210
330
1E
100
AcDbEntity
  8
図枠
  6
Continuous
 62
     7
100
AcDbLine
 10
1610.689172189083
 20
377.0782981525361
 30
0.0
 11
1677.689172189083
 21
377.0782981525361
 31
0.0
  0
LINE
  5
7211
330
1E
100
AcDbEntity
  8
図枠
  6
Continuous
 62
     7
100
AcDbLine
 10
1610.689172189083
 20
386.078298152536
 30
0.0
 11
1677.689172189083
 21
386.078298152536
 31
0.0
  0
LINE
  5
7212
330
1E
100
AcDbEntity
  8
図枠
  6
Continuous
 62
     7
100
AcDbLine
 10
1610.689172189083
 20
395.078298152536
 30
0.0
 11
1677.689172189083
 21
395.078298152536
 31
0.0
  0
LINE
  5
7213
330
1E
100
AcDbEntity
  8
図枠
  6
Continuous
 62
     7
100
AcDbLine
 10
1610.689172189083
 20
404.078298152536
 30
0.0
 11
1677.689172189083
 21
404.078298152536
 31
0.0
  0
LINE
  5
7214
330
1E
100
AcDbEntity
  8
図枠
  6
Continuous
 62
     7
100
AcDbLine
 10
1610.689172189083
 20
413.078298152536
 30
0.0
 11
1677.689172189083
 21
413.078298152536
 31
0.0
  0
LINE
  5
7215
330
1E
100
AcDbEntity
  8
図枠
  6
Continuous
 62
     7
100
AcDbLine
 10
1610.689172189083
 20
422.078298152536
 30
0.0
 11
1677.689172189083
 21
422.078298152536
 31
0.0
  0
LINE
  5
7216
330
1E
100
AcDbEntity
  8
図枠
  6
Continuous
 62
     7
100
AcDbLine
 10
1610.689172189083
 20
431.0782981525359
 30
0.0
 11
1677.689172189083
 21
431.0782981525359
 31
0.0
  0
LINE
  5
7217
330
1E
100
AcDbEntity
  8
図枠
  6
Continuous
 62
     7
100
AcDbLine
 10
1610.689172189083
 20
440.0782981525359
 30
0.0
 11
1677.689172189083
 21
440.0782981525359
 31
0.0
  0
LINE
  5
7218
330
1E
100
AcDbEntity
  8
図枠
  6
Continuous
 62
     7
100
AcDbLine
 10
1610.689172189083
 20
449.0782981525359
 30
0.0
 11
1677.689172189083
 21
449.0782981525359
 31
0.0
  0
LINE
  5
7219
330
1E
100
AcDbEntity
  8
図枠
  6
Continuous
 62
     7
100
AcDbLine
 10
1610.689172189083
 20
458.0782981525358
 30
0.0
 11
1677.689172189083
 21
458.0782981525358
 31
0.0
  0
LINE
  5
721A
330
1E
100
AcDbEntity
  8
図枠
  6
Continuous
 62
     7
100
AcDbLine
 10
1610.689172189083
 20
467.0782981525359
 30
0.0
 11
1677.689172189083
 21
467.0782981525359
 31
0.0
  0
LINE
  5
721B
330
1E
100
AcDbEntity
  8
図枠
  6
Continuous
 62
     7
100
AcDbLine
 10
1610.689172189083
 20
476.078298152536
 30
0.0
 11
1677.689172189083
 21
476.078298152536
 31
0.0
  0
LINE
  5
721C
330
1E
100
AcDbEntity
  8
図枠
  6
Continuous
 62
     7
100
AcDbLine
 10
1610.689172189083
 20
485.0782981525359
 30
0.0
 11
1677.689172189083
 21
485.0782981525359
 31
0.0
  0
LINE
  5
721D
330
1E
100
AcDbEntity
  8
図枠
  6
Continuous
 62
     7
100
AcDbLine
 10
1610.689172189083
 20
494.0782981525359
 30
0.0
 11
1677.689172189083
 21
494.0782981525359
 31
0.0
  0
LINE
  5
721E
330
1E
100
AcDbEntity
  8
図枠
  6
Continuous
 62
     7
100
AcDbLine
 10
1663.689172189083
 20
287.078298152536
 30
0.0
 11
1663.689172189083
 21
494.0782981525359
 31
0.0
  0
LINE
  5
721F
330
1E
100
AcDbEntity
  8
図枠
  6
Continuous
 62
     7
100
AcDbLine
 10
1645.689172189083
 20
287.078298152536
 30
0.0
 11
1645.689172189083
 21
494.0782981525359
 31
0.0
  0
LINE
  5
7220
330
1E
100
AcDbEntity
  8
図枠
  6
Continuous
 62
     7
100
AcDbLine
 10
1610.689172189083
 20
287.078298152536
 30
0.0
 11
1610.689172189083
 21
494.0782981525359
 31
0.0
  0
LINE
  5
7221
330
1E
100
AcDbEntity
  8
図枠
  6
Continuous
 62
     7
100
AcDbLine
 10
1609.689172189083
 20
287.078298152536
 30
0.0
 11
1609.689172189083
 21
494.0782981525359
 31
0.0
  0
LINE
  5
7222
330
1E
100
AcDbEntity
  8
図枠
  6
Continuous
 62
     7
100
AcDbLine
 10
1609.689172189083
 20
287.078298152536
 30
0.0
 11
1542.689172189083
 21
287.078298152536
 31
0.0
  0
LINE
  5
7223
330
1E
100
AcDbEntity
  8
図枠
  6
Continuous
 62
     7
100
AcDbLine
 10
1609.689172189083
 20
296.078298152536
 30
0.0
 11
1542.689172189083
 21
296.078298152536
 31
0.0
  0
LINE
  5
7224
330
1E
100
AcDbEntity
  8
図枠
  6
Continuous
 62
     7
100
AcDbLine
 10
1609.689172189083
 20
305.0782981525361
 30
0.0
 11
1542.689172189083
 21
305.0782981525361
 31
0.0
  0
LINE
  5
7225
330
1E
100
AcDbEntity
  8
図枠
  6
Continuous
 62
     7
100
AcDbLine
 10
1609.689172189083
 20
314.0782981525362
 30
0.0
 11
1542.689172189083
 21
314.0782981525362
 31
0.0
  0
LINE
  5
7226
330
1E
100
AcDbEntity
  8
図枠
  6
Continuous
 62
     7
100
AcDbLine
 10
1609.689172189083
 20
323.0782981525361
 30
0.0
 11
1542.689172189083
 21
323.0782981525361
 31
0.0
  0
LINE
  5
7227
330
1E
100
AcDbEntity
  8
図枠
  6
Continuous
 62
     7
100
AcDbLine
 10
1609.689172189083
 20
332.0782981525361
 30
0.0
 11
1542.689172189083
 21
332.0782981525361
 31
0.0
  0
LINE
  5
7228
330
1E
100
AcDbEntity
  8
図枠
  6
Continuous
 62
     7
100
AcDbLine
 10
1609.689172189083
 20
341.0782981525361
 30
0.0
 11
1542.689172189083
 21
341.0782981525361
 31
0.0
  0
LINE
  5
7229
330
1E
100
AcDbEntity
  8
図枠
  6
Continuous
 62
     7
100
AcDbLine
 10
1609.689172189083
 20
350.0782981525361
 30
0.0
 11
1542.689172189083
 21
350.0782981525361
 31
0.0
  0
LINE
  5
722A
330
1E
100
AcDbEntity
  8
図枠
  6
Continuous
 62
     7
100
AcDbLine
 10
1609.689172189083
 20
359.078298152536
 30
0.0
 11
1542.689172189083
 21
359.078298152536
 31
0.0
  0
LINE
  5
722B
330
1E
100
AcDbEntity
  8
図枠
  6
Continuous
 62
     7
100
AcDbLine
 10
1609.689172189083
 20
368.078298152536
 30
0.0
 11
1542.689172189083
 21
368.078298152536
 31
0.0
  0
LINE
  5
722C
330
1E
100
AcDbEntity
  8
図枠
  6
Continuous
 62
     7
100
AcDbLine
 10
1609.689172189083
 20
377.0782981525361
 30
0.0
 11
1542.689172189083
 21
377.0782981525361
 31
0.0
  0
LINE
  5
722D
330
1E
100
AcDbEntity
  8
図枠
  6
Continuous
 62
     7
100
AcDbLine
 10
1609.689172189083
 20
386.078298152536
 30
0.0
 11
1542.689172189083
 21
386.078298152536
 31
0.0
  0
LINE
  5
722E
330
1E
100
AcDbEntity
  8
図枠
  6
Continuous
 62
     7
100
AcDbLine
 10
1609.689172189083
 20
395.078298152536
 30
0.0
 11
1542.689172189083
 21
395.078298152536
 31
0.0
  0
LINE
  5
722F
330
1E
100
AcDbEntity
  8
図枠
  6
Continuous
 62
     7
100
AcDbLine
 10
1609.689172189083
 20
404.078298152536
 30
0.0
 11
1542.689172189083
 21
404.078298152536
 31
0.0
  0
LINE
  5
7230
330
1E
100
AcDbEntity
  8
図枠
  6
Continuous
 62
     7
100
AcDbLine
 10
1609.689172189083
 20
413.078298152536
 30
0.0
 11
1542.689172189083
 21
413.078298152536
 31
0.0
  0
LINE
  5
7231
330
1E
100
AcDbEntity
  8
図枠
  6
Continuous
 62
     7
100
AcDbLine
 10
1609.689172189083
 20
422.078298152536
 30
0.0
 11
1542.689172189083
 21
422.078298152536
 31
0.0
  0
LINE
  5
7232
330
1E
100
AcDbEntity
  8
図枠
  6
Continuous
 62
     7
100
AcDbLine
 10
1609.689172189083
 20
431.0782981525359
 30
0.0
 11
1542.689172189083
 21
431.0782981525359
 31
0.0
  0
LINE
  5
7233
330
1E
100
AcDbEntity
  8
図枠
  6
Continuous
 62
     7
100
AcDbLine
 10
1609.689172189083
 20
440.0782981525359
 30
0.0
 11
1542.689172189083
 21
440.0782981525359
 31
0.0
  0
LINE
  5
7234
330
1E
100
AcDbEntity
  8
図枠
  6
Continuous
 62
     7
100
AcDbLine
 10
1609.689172189083
 20
449.0782981525359
 30
0.0
 11
1542.689172189083
 21
449.0782981525359
 31
0.0
  0
LINE
  5
7235
330
1E
100
AcDbEntity
  8
図枠
  6
Continuous
 62
     7
100
AcDbLine
 10
1609.689172189083
 20
458.0782981525358
 30
0.0
 11
1542.689172189083
 21
458.0782981525358
 31
0.0
  0
LINE
  5
7236
330
1E
100
AcDbEntity
  8
図枠
  6
Continuous
 62
     7
100
AcDbLine
 10
1609.689172189083
 20
467.0782981525359
 30
0.0
 11
1542.689172189083
 21
467.0782981525359
 31
0.0
  0
LINE
  5
7237
330
1E
100
AcDbEntity
  8
図枠
  6
Continuous
 62
     7
100
AcDbLine
 10
1609.689172189083
 20
476.078298152536
 30
0.0
 11
1542.689172189083
 21
476.078298152536
 31
0.0
  0
LINE
  5
7238
330
1E
100
AcDbEntity
  8
図枠
  6
Continuous
 62
     7
100
AcDbLine
 10
1609.689172189083
 20
485.0782981525359
 30
0.0
 11
1542.689172189083
 21
485.0782981525359
 31
0.0
  0
LINE
  5
7239
330
1E
100
AcDbEntity
  8
図枠
  6
Continuous
 62
     7
100
AcDbLine
 10
1609.689172189083
 20
494.0782981525359
 30
0.0
 11
1542.689172189083
 21
494.0782981525359
 31
0.0
  0
TEXT
  5
723A
330
1E
100
AcDbEntity
  8
図枠
 62
     7
100
AcDbText
 10
1336.689172189083
 20
288.578298152536
 30
0.0
 40
5.0
  1
※
100
AcDbText
  0
TEXT
  5
723B
330
1E
100
AcDbEntity
  8
図枠
 62
     7
100
AcDbText
 10
1336.439172189083
 20
297.578298152536
 30
0.0
 40
5.0
  1
21
100
AcDbText
  0
TEXT
  5
723C
330
1E
100
AcDbEntity
  8
図枠
 62
     7
100
AcDbText
 10
1336.439172189083
 20
306.5782981525361
 30
0.0
 40
5.0
  1
20
100
AcDbText
  0
TEXT
  5
723D
330
1E
100
AcDbEntity
  8
図枠
 62
     7
100
AcDbText
 10
1336.439172189083
 20
315.5782981525361
 30
0.0
 40
5.0
  1
19
100
AcDbText
  0
TEXT
  5
723E
330
1E
100
AcDbEntity
  8
図枠
 62
     7
100
AcDbText
 10
1336.439172189083
 20
324.5782981525361
 30
0.0
 40
5.0
  1
18
100
AcDbText
  0
TEXT
  5
723F
330
1E
100
AcDbEntity
  8
図枠
 62
     7
100
AcDbText
 10
1336.439172189083
 20
333.5782981525361
 30
0.0
 40
5.0
  1
17
100
AcDbText
  0
TEXT
  5
7240
330
1E
100
AcDbEntity
  8
図枠
 62
     7
100
AcDbText
 10
1336.439172189083
 20
342.5782981525361
 30
0.0
 40
5.0
  1
16
100
AcDbText
  0
TEXT
  5
7241
330
1E
100
AcDbEntity
  8
図枠
 62
     7
100
AcDbText
 10
1336.439172189083
 20
351.5782981525361
 30
0.0
 40
5.0
  1
15
100
AcDbText
  0
TEXT
  5
7242
330
1E
100
AcDbEntity
  8
図枠
 62
     7
100
AcDbText
 10
1336.439172189083
 20
360.5782981525361
 30
0.0
 40
5.0
  1
14
100
AcDbText
  0
TEXT
  5
7243
330
1E
100
AcDbEntity
  8
図枠
 62
     7
100
AcDbText
 10
1336.439172189083
 20
369.578298152536
 30
0.0
 40
5.0
  1
13
100
AcDbText
  0
TEXT
  5
7244
330
1E
100
AcDbEntity
  8
図枠
 62
     7
100
AcDbText
 10
1336.439172189083
 20
378.578298152536
 30
0.0
 40
5.0
  1
12
100
AcDbText
  0
TEXT
  5
7245
330
1E
100
AcDbEntity
  8
図枠
 62
     7
100
AcDbText
 10
1336.439172189083
 20
387.5782981525361
 30
0.0
 40
5.0
  1
11
100
AcDbText
  0
TEXT
  5
7246
330
1E
100
AcDbEntity
  8
図枠
 62
     7
100
AcDbText
 10
1336.439172189083
 20
396.578298152536
 30
0.0
 40
5.0
  1
10
100
AcDbText
  0
TEXT
  5
7247
330
1E
100
AcDbEntity
  8
図枠
 62
     7
100
AcDbText
 10
1336.439172189083
 20
405.578298152536
 30
0.0
 40
5.0
  1
 9
100
AcDbText
  0
TEXT
  5
7248
330
1E
100
AcDbEntity
  8
図枠
 62
     7
100
AcDbText
 10
1336.439172189083
 20
414.578298152536
 30
0.0
 40
5.0
  1
 8
100
AcDbText
  0
TEXT
  5
7249
330
1E
100
AcDbEntity
  8
図枠
 62
     7
100
AcDbText
 10
1336.439172189083
 20
423.578298152536
 30
0.0
 40
5.0
  1
 7
100
AcDbText
  0
TEXT
  5
724A
330
1E
100
AcDbEntity
  8
図枠
 62
     7
100
AcDbText
 10
1336.439172189083
 20
432.5782981525359
 30
0.0
 40
5.0
  1
 6
100
AcDbText
  0
TEXT
  5
724B
330
1E
100
AcDbEntity
  8
図枠
 62
     7
100
AcDbText
 10
1336.439172189083
 20
441.5782981525359
 30
0.0
 40
5.0
  1
 5
100
AcDbText
  0
TEXT
  5
724C
330
1E
100
AcDbEntity
  8
図枠
 62
     7
100
AcDbText
 10
1336.439172189083
 20
450.5782981525359
 30
0.0
 40
5.0
  1
 4
100
AcDbText
  0
TEXT
  5
724D
330
1E
100
AcDbEntity
  8
図枠
 62
     7
100
AcDbText
 10
1336.439172189083
 20
459.5782981525359
 30
0.0
 40
5.0
  1
 3
100
AcDbText
  0
TEXT
  5
724E
330
1E
100
AcDbEntity
  8
図枠
 62
     7
100
AcDbText
 10
1336.439172189083
 20
468.5782981525359
 30
0.0
 40
5.0
  1
 2
100
AcDbText
  0
TEXT
  5
724F
330
1E
100
AcDbEntity
  8
図枠
 62
     7
100
AcDbText
 10
1336.439172189083
 20
477.5782981525359
 30
0.0
 40
5.0
  1
 1
100
AcDbText
  0
TEXT
  5
7250
330
1E
100
AcDbEntity
  8
図枠
 62
     7
100
AcDbText
 10
1334.689172189083
 20
486.578298152536
 30
0.0
 40
5.0
  1
No.
100
AcDbText
  0
LINE
  5
7251
330
1E
100
AcDbEntity
  8
図枠
  6
Continuous
 62
     7
100
AcDbLine
 10
1332.689172189083
 20
287.078298152536
 30
0.0
 11
1332.689172189083
 21
494.0782981525359
 31
0.0
  0
LINE
  5
7252
330
1E
100
AcDbEntity
  8
図枠
  6
Continuous
 62
     7
100
AcDbLine
 10
1541.689172189083
 20
287.078298152536
 30
0.0
 11
1332.689172189083
 21
287.078298152536
 31
0.0
  0
LINE
  5
7253
330
1E
100
AcDbEntity
  8
図枠
  6
Continuous
 62
     7
100
AcDbLine
 10
1541.689172189083
 20
296.078298152536
 30
0.0
 11
1332.689172189083
 21
296.078298152536
 31
0.0
  0
LINE
  5
7254
330
1E
100
AcDbEntity
  8
図枠
  6
Continuous
 62
     7
100
AcDbLine
 10
1541.689172189083
 20
305.0782981525361
 30
0.0
 11
1332.689172189083
 21
305.0782981525361
 31
0.0
  0
LINE
  5
7255
330
1E
100
AcDbEntity
  8
図枠
  6
Continuous
 62
     7
100
AcDbLine
 10
1541.689172189083
 20
314.0782981525362
 30
0.0
 11
1332.689172189083
 21
314.0782981525362
 31
0.0
  0
LINE
  5
7256
330
1E
100
AcDbEntity
  8
図枠
  6
Continuous
 62
     7
100
AcDbLine
 10
1541.689172189083
 20
323.0782981525361
 30
0.0
 11
1332.689172189083
 21
323.0782981525361
 31
0.0
  0
LINE
  5
7257
330
1E
100
AcDbEntity
  8
図枠
  6
Continuous
 62
     7
100
AcDbLine
 10
1541.689172189083
 20
332.0782981525361
 30
0.0
 11
1332.689172189083
 21
332.0782981525361
 31
0.0
  0
LINE
  5
7258
330
1E
100
AcDbEntity
  8
図枠
  6
Continuous
 62
     7
100
AcDbLine
 10
1541.689172189083
 20
341.0782981525361
 30
0.0
 11
1332.689172189083
 21
341.0782981525361
 31
0.0
  0
LINE
  5
7259
330
1E
100
AcDbEntity
  8
図枠
  6
Continuous
 62
     7
100
AcDbLine
 10
1541.689172189083
 20
350.0782981525361
 30
0.0
 11
1332.689172189083
 21
350.0782981525361
 31
0.0
  0
LINE
  5
725A
330
1E
100
AcDbEntity
  8
図枠
  6
Continuous
 62
     7
100
AcDbLine
 10
1541.689172189083
 20
359.078298152536
 30
0.0
 11
1332.689172189083
 21
359.078298152536
 31
0.0
  0
LINE
  5
725B
330
1E
100
AcDbEntity
  8
図枠
  6
Continuous
 62
     7
100
AcDbLine
 10
1541.689172189083
 20
368.078298152536
 30
0.0
 11
1332.689172189083
 21
368.078298152536
 31
0.0
  0
LINE
  5
725C
330
1E
100
AcDbEntity
  8
図枠
  6
Continuous
 62
     7
100
AcDbLine
 10
1541.689172189083
 20
377.0782981525361
 30
0.0
 11
1332.689172189083
 21
377.0782981525361
 31
0.0
  0
LINE
  5
725D
330
1E
100
AcDbEntity
  8
図枠
  6
Continuous
 62
     7
100
AcDbLine
 10
1541.689172189083
 20
386.078298152536
 30
0.0
 11
1332.689172189083
 21
386.078298152536
 31
0.0
  0
LINE
  5
725E
330
1E
100
AcDbEntity
  8
図枠
  6
Continuous
 62
     7
100
AcDbLine
 10
1541.689172189083
 20
395.078298152536
 30
0.0
 11
1332.689172189083
 21
395.078298152536
 31
0.0
  0
LINE
  5
725F
330
1E
100
AcDbEntity
  8
図枠
  6
Continuous
 62
     7
100
AcDbLine
 10
1541.689172189083
 20
404.078298152536
 30
0.0
 11
1332.689172189083
 21
404.078298152536
 31
0.0
  0
LINE
  5
7260
330
1E
100
AcDbEntity
  8
図枠
  6
Continuous
 62
     7
100
AcDbLine
 10
1541.689172189083
 20
413.078298152536
 30
0.0
 11
1332.689172189083
 21
413.078298152536
 31
0.0
  0
LINE
  5
7261
330
1E
100
AcDbEntity
  8
図枠
  6
Continuous
 62
     7
100
AcDbLine
 10
1541.689172189083
 20
422.078298152536
 30
0.0
 11
1332.689172189083
 21
422.078298152536
 31
0.0
  0
LINE
  5
7262
330
1E
100
AcDbEntity
  8
図枠
  6
Continuous
 62
     7
100
AcDbLine
 10
1541.689172189083
 20
431.0782981525359
 30
0.0
 11
1332.689172189083
 21
431.0782981525359
 31
0.0
  0
LINE
  5
7263
330
1E
100
AcDbEntity
  8
図枠
  6
Continuous
 62
     7
100
AcDbLine
 10
1541.689172189083
 20
440.0782981525359
 30
0.0
 11
1332.689172189083
 21
440.0782981525359
 31
0.0
  0
LINE
  5
7264
330
1E
100
AcDbEntity
  8
図枠
  6
Continuous
 62
     7
100
AcDbLine
 10
1541.689172189083
 20
449.0782981525359
 30
0.0
 11
1332.689172189083
 21
449.0782981525359
 31
0.0
  0
LINE
  5
7265
330
1E
100
AcDbEntity
  8
図枠
  6
Continuous
 62
     7
100
AcDbLine
 10
1541.689172189083
 20
458.0782981525358
 30
0.0
 11
1332.689172189083
 21
458.0782981525358
 31
0.0
  0
LINE
  5
7266
330
1E
100
AcDbEntity
  8
図枠
  6
Continuous
 62
     7
100
AcDbLine
 10
1541.689172189083
 20
467.0782981525359
 30
0.0
 11
1332.689172189083
 21
467.0782981525359
 31
0.0
  0
LINE
  5
7267
330
1E
100
AcDbEntity
  8
図枠
  6
Continuous
 62
     7
100
AcDbLine
 10
1541.689172189083
 20
476.078298152536
 30
0.0
 11
1332.689172189083
 21
476.078298152536
 31
0.0
  0
LINE
  5
7268
330
1E
100
AcDbEntity
  8
図枠
  6
Continuous
 62
     7
100
AcDbLine
 10
1541.689172189083
 20
485.0782981525359
 30
0.0
 11
1332.689172189083
 21
485.0782981525359
 31
0.0
  0
LINE
  5
7269
330
1E
100
AcDbEntity
  8
図枠
  6
Continuous
 62
     7
100
AcDbLine
 10
1541.689172189083
 20
494.0782981525359
 30
0.0
 11
1332.689172189083
 21
494.0782981525359
 31
0.0
  0
LINE
  5
726A
330
1E
100
AcDbEntity
  8
図枠
  6
Continuous
 62
     7
100
AcDbLine
 10
1595.689172189083
 20
287.078298152536
 30
0.0
 11
1595.689172189083
 21
494.0782981525359
 31
0.0
  0
LINE
  5
726B
330
1E
100
AcDbEntity
  8
図枠
  6
Continuous
 62
     7
100
AcDbLine
 10
1577.689172189083
 20
287.078298152536
 30
0.0
 11
1577.689172189083
 21
494.0782981525359
 31
0.0
  0
LINE
  5
726C
330
1E
100
AcDbEntity
  8
図枠
  6
Continuous
 62
     7
100
AcDbLine
 10
1542.689172189083
 20
287.078298152536
 30
0.0
 11
1542.689172189083
 21
494.0782981525359
 31
0.0
  0
LINE
  5
726D
330
1E
100
AcDbEntity
  8
図枠
  6
Continuous
 62
     7
100
AcDbLine
 10
1541.689172189083
 20
287.078298152536
 30
0.0
 11
1541.689172189083
 21
494.0782981525359
 31
0.0
  0
LINE
  5
726E
330
1E
100
AcDbEntity
  8
図枠
  6
Continuous
 62
     7
100
AcDbLine
 10
1446.689172189083
 20
287.078298152536
 30
0.0
 11
1446.689172189083
 21
494.0782981525359
 31
0.0
  0
LINE
  5
726F
330
1E
100
AcDbEntity
  8
図枠
  6
Continuous
 62
     7
100
AcDbLine
 10
1346.689172189083
 20
287.078298152536
 30
0.0
 11
1346.689172189083
 21
494.0782981525359
 31
0.0
  0
TEXT
  5
7270
330
1E
100
AcDbEntity
  8
図枠
 62
     7
100
AcDbText
 10
1351.689172189083
 20
288.578298152536
 30
0.0
 40
5.0
  1
ブチルテープ
100
AcDbText
  0
TEXT
  5
7271
330
1E
100
AcDbEntity
  8
図枠
 62
     7
100
AcDbText
 10
1451.689172189083
 20
297.578298152536
 30
0.0
 40
5.0
  1
1.5×18×5.5穴
100
AcDbText
  0
TEXT
  5
7272
330
1E
100
AcDbEntity
  8
図枠
 62
     7
100
AcDbText
 10
1351.689172189083
 20
297.578298152536
 30
0.0
 40
5.0
  1
ステンワッシャー
100
AcDbText
  0
TEXT
  5
7273
330
1E
100
AcDbEntity
  8
図枠
 62
     7
100
AcDbText
 10
1451.689172189083
 20
306.5782981525361
 30
0.0
 40
5.0
  1
1.5×18×6.5穴
100
AcDbText
  0
TEXT
  5
7274
330
1E
100
AcDbEntity
  8
図枠
 62
     7
100
AcDbText
 10
1351.689172189083
 20
306.5782981525361
 30
0.0
 40
5.0
  1
ステスワッシャー
100
AcDbText
  0
TEXT
  5
7275
330
1E
100
AcDbEntity
  8
図枠
 62
     7
100
AcDbText
 10
1451.689172189083
 20
315.5782981525361
 30
0.0
 40
5.0
  1
ナベ 5×50
100
AcDbText
  0
TEXT
  5
7276
330
1E
100
AcDbEntity
  8
図枠
 62
     7
100
AcDbText
 10
1351.689172189083
 20
315.5782981525361
 30
0.0
 40
5.0
  1
ステンタッピンねじ
100
AcDbText
  0
TEXT
  5
7277
330
1E
100
AcDbEntity
  8
図枠
 62
     7
100
AcDbText
 10
1451.689172189083
 20
324.5782981525361
 30
0.0
 40
5.0
  1
フィッシャープラグ　Ｓ8
100
AcDbText
  0
TEXT
  5
7278
330
1E
100
AcDbEntity
  8
図枠
 62
     7
100
AcDbText
 10
1351.689172189083
 20
324.5782981525361
 30
0.0
 40
5.0
  1
アンカープラグ
100
AcDbText
  0
TEXT
  5
7279
330
1E
100
AcDbEntity
  8
図枠
 62
     7
100
AcDbText
 10
1451.689172189083
 20
333.5782981525361
 30
0.0
 40
5.0
  1
ＡＧ－660
100
AcDbText
  0
TEXT
  5
727A
330
1E
100
AcDbEntity
  8
図枠
 62
     7
100
AcDbText
 10
1351.689172189083
 20
333.5782981525361
 30
0.0
 40
5.0
  1
アジャストアンカー
100
AcDbText
  0
TEXT
  5
727B
330
1E
100
AcDbEntity
  8
図枠
 62
     7
100
AcDbText
 10
1451.689172189083
 20
342.5782981525361
 30
0.0
 40
5.0
  1
Ｍ6×40
100
AcDbText
  0
TEXT
  5
727C
330
1E
100
AcDbEntity
  8
図枠
 62
     7
100
AcDbText
 10
1351.689172189083
 20
342.5782981525361
 30
0.0
 40
5.0
  1
ステン六角ボルト
100
AcDbText
  0
TEXT
  5
727D
330
1E
100
AcDbEntity
  8
図枠
 62
     7
100
AcDbText
 10
1451.689172189083
 20
351.5782981525361
 30
0.0
 40
5.0
  1
ナベＭ4×10
100
AcDbText
  0
TEXT
  5
727E
330
1E
100
AcDbEntity
  8
図枠
 62
     7
100
AcDbText
 10
1351.689172189083
 20
351.5782981525361
 30
0.0
 40
5.0
  1
ステン小ネジ
100
AcDbText
  0
TEXT
  5
727F
330
1E
100
AcDbEntity
  8
図枠
 62
     7
100
AcDbText
 10
1451.689172189083
 20
360.5782981525361
 30
0.0
 40
5.0
  1
ナベＭ6×35
100
AcDbText
  0
TEXT
  5
7280
330
1E
100
AcDbEntity
  8
図枠
 62
     7
100
AcDbText
 10
1351.689172189083
 20
360.5782981525361
 30
0.0
 40
5.0
  1
ステン小ネジ
100
AcDbText
  0
TEXT
  5
7281
330
1E
100
AcDbEntity
  8
図枠
 62
     7
100
AcDbText
 10
1351.689172189083
 20
369.578298152536
 30
0.0
 40
5.0
  1
ガスケットＮ
100
AcDbText
  0
TEXT
  5
7282
330
1E
100
AcDbEntity
  8
図枠
 62
     7
100
AcDbText
 10
1351.689172189083
 20
378.578298152536
 30
0.0
 40
5.0
  1
止水補助板
100
AcDbText
  0
TEXT
  5
7283
330
1E
100
AcDbEntity
  8
図枠
 62
     7
100
AcDbText
 10
1451.689172189083
 20
387.5782981525361
 30
0.0
 40
5.0
  1
ＰＳ
100
AcDbText
  0
TEXT
  5
7284
330
1E
100
AcDbEntity
  8
図枠
 62
     7
100
AcDbText
 10
1351.689172189083
 20
387.5782981525361
 30
0.0
 40
5.0
  1
止水補助板
100
AcDbText
  0
TEXT
  5
7285
330
1E
100
AcDbEntity
  8
図枠
 62
     7
100
AcDbText
 10
1351.689172189083
 20
396.578298152536
 30
0.0
 40
5.0
  1
ＦＹＫｻｲﾄﾞｷｬｯﾌﾟ ｼﾞｮｲﾝﾄ
100
AcDbText
  0
TEXT
  5
7286
330
1E
100
AcDbEntity
  8
図枠
 62
     7
100
AcDbText
 10
1351.689172189083
 20
405.578298152536
 30
0.0
 40
5.0
  1
ＦＹＫ水切ジョイント
100
AcDbText
  0
TEXT
  5
7287
330
1E
100
AcDbEntity
  8
図枠
 62
     7
100
AcDbText
 10
1351.689172189083
 20
414.578298152536
 30
0.0
 40
5.0
  1
ＦＹＹフレームナット
100
AcDbText
  0
TEXT
  5
7288
330
1E
100
AcDbEntity
  8
図枠
 62
     7
100
AcDbText
 10
1351.689172189083
 20
423.578298152536
 30
0.0
 40
5.0
  1
ＦＹＹホルダースプリング
100
AcDbText
  0
TEXT
  5
7289
330
1E
100
AcDbEntity
  8
図枠
 62
     7
100
AcDbText
 10
1351.689172189083
 20
432.5782981525359
 30
0.0
 40
5.0
  1
ＦＹＫホルダー
100
AcDbText
  0
TEXT
  5
728A
330
1E
100
AcDbEntity
  8
図枠
 62
     7
100
AcDbText
 10
1351.689172189083
 20
450.5782981525359
 30
0.0
 40
5.0
  1
ＦＹＫ壁フレーム
100
AcDbText
  0
TEXT
  5
728B
330
1E
100
AcDbEntity
  8
図枠
 62
     7
100
AcDbText
 10
1351.689172189083
 20
459.5782981525359
 30
0.0
 40
5.0
  1
ＦＹＹフレーム
100
AcDbText
  0
TEXT
  5
728C
330
1E
100
AcDbEntity
  8
図枠
 62
     7
100
AcDbText
 10
1351.689172189083
 20
468.5782981525359
 30
0.0
 40
5.0
  1
ＦＹＫサイドキャップＡ
100
AcDbText
  0
TEXT
  5
728D
330
1E
100
AcDbEntity
  8
図枠
 62
     7
100
AcDbText
 10
1351.689172189083
 20
477.5782981525359
 30
0.0
 40
5.0
  1
ＦＹＫキャップＡ
100
AcDbText
  0
TEXT
  5
728E
330
1E
100
AcDbEntity
  8
図枠
 62
     7
100
AcDbText
 10
1484.189172189083
 20
486.578298152536
 30
0.0
 40
5.0
  1
規　格
100
AcDbText
  0
TEXT
  5
728F
330
1E
100
AcDbEntity
  8
図枠
 62
     7
100
AcDbText
 10
1383.189172189083
 20
486.578298152536
 30
0.0
 40
5.0
  1
部材名称
100
AcDbText
  0
LINE
  5
7290
330
1E
100
AcDbEntity
  8
図枠
  6
Continuous
 62
     7
100
AcDbLine
 10
1215.689172189083
 20
842.0782981525359
 30
0.0
 11
1215.689172189083
 21
266.078298152536
 31
0.0
  0
LINE
  5
7291
330
1E
100
AcDbEntity
  8
図枠
  6
Continuous
 62
     7
100
AcDbLine
 10
2039.689172189083
 20
842.0782981525359
 30
0.0
 11
1215.689172189083
 21
842.0782981525359
 31
0.0
  0
LINE
  5
7292
330
1E
100
AcDbEntity
  8
図枠
  6
Continuous
 62
     7
100
AcDbLine
 10
2039.689172189083
 20
266.078298152536
 30
0.0
 11
2039.689172189083
 21
842.0782981525359
 31
0.0
  0
LINE
  5
7293
330
1E
100
AcDbEntity
  8
図枠
  6
Continuous
 62
     7
100
AcDbLine
 10
1215.689172189083
 20
266.078298152536
 30
0.0
 11
2039.689172189083
 21
266.078298152536
 31
0.0
  0
LINE
  5
7294
330
1E
100
AcDbEntity
  8
躯体と製品
  6
DASHED1
 62
     7
100
AcDbLine
 10
1438.532164320354
 20
709.5529367287071
 30
0.0
 11
1458.945987568184
 21
708.4830935856123
 31
0.0
  0
LINE
  5
7295
330
1E
100
AcDbEntity
  8
図枠
  6
Continuous
 62
     7
100
AcDbLine
 10
1922.689172189083
 20
494.0782981525359
 30
0.0
 11
1697.689172189083
 21
494.0782981525359
 31
0.0
  0
DIMENSION
  5
7296
330
1E
100
AcDbEntity
  8
寸法
  6
Continuous
100
AcDbDimension
  2
*D4
 10
1371.689172189083
 20
708.2111149183019
 30
0.0
 11
1368.189172189083
 21
676.1447065354192
 31
0.0
 70
    32
  1
D
 71
     5
 42
-1.0
  3
AutoCAD
100
AcDbAlignedDimension
 13
1424.689172189083
 23
644.078298152536
 33
0.0
 14
1371.689172189083
 24
708.2111149183019
 34
0.0
 50
90.0
100
AcDbRotatedDimension
  0
DIMENSION
  5
72A2
330
1E
100
AcDbEntity
  8
寸法
  6
Continuous
100
AcDbDimension
  2
*D5
 10
1351.689172189083
 20
767.2111149183019
 30
0.0
 11
1348.189172189083
 21
705.6447065354192
 31
0.0
 70
    32
  1
E
 71
     5
 42
-1.0
  3
AutoCAD
100
AcDbAlignedDimension
 13
1424.689172189083
 23
644.078298152536
 33
0.0
 14
1424.689172189083
 24
767.2111149183019
 34
0.0
 50
90.0
100
AcDbRotatedDimension
  0
DIMENSION
  5
72AF
330
1E
100
AcDbEntity
  8
寸法
  6
Continuous
100
AcDbDimension
  2
*D6
 10
1451.689172189083
 20
519.0782981525361
 30
0.0
 11
1439.189172189083
 21
522.5782981525362
 31
0.0
 70
    32
 71
     5
 42
-1.0
  3
AutoCAD
100
AcDbAlignedDimension
 13
1426.689172189083
 23
642.078298152536
 33
0.0
 14
1451.689172189083
 24
519.0782981525361
 34
0.0
100
AcDbRotatedDimension
  0
DIMENSION
  5
72D2
330
1E
100
AcDbEntity
  8
寸法
  6
Continuous
100
AcDbDimension
  2
*D7
 10
1601.689172189083
 20
519.0782981525361
 30
0.0
 11
1526.689172189083
 21
522.5782981525362
 31
0.0
 70
    32
 71
     5
 42
-1.0
  3
AutoCAD
100
AcDbAlignedDimension
 13
1451.689172189083
 23
518.8282981525361
 33
0.0
 14
1601.689172189083
 24
519.0782981525361
 34
0.0
100
AcDbRotatedDimension
  0
DIMENSION
  5
72DE
330
1E
100
AcDbEntity
  8
寸法
  6
Continuous
100
AcDbDimension
  2
*D8
 10
1751.689172189083
 20
519.0782981525361
 30
0.0
 11
1676.81227315821
 21
522.5782981525362
 31
0.0
 70
    32
  1
≦Ｃ
 71
     5
 42
-1.0
  3
AutoCAD
100
AcDbAlignedDimension
 13
1601.935374127336
 23
519.1217101969528
 33
0.0
 14
1751.689172189083
 24
519.0782981525361
 34
0.0
100
AcDbRotatedDimension
  0
DIMENSION
  5
7326
330
1E
100
AcDbEntity
  8
寸法
  6
Continuous
100
AcDbDimension
  2
*D9
 10
1827.689172189083
 20
519.0782981525361
 30
0.0
 11
1789.689172189083
 21
522.5782981525362
 31
0.0
 70
    32
  1
75≦
 71
     5
 42
-1.0
  3
AutoCAD
100
AcDbAlignedDimension
 13
1751.689172189083
 23
519.0782981525361
 33
0.0
 14
1827.689172189083
 24
599.1608268458706
 34
0.0
100
AcDbRotatedDimension
  0
DIMENSION
  5
7332
330
1E
100
AcDbEntity
  8
寸法
  6
Continuous
100
AcDbDimension
  2
*D10
 10
1867.689172189083
 20
644.0782981525359
 30
0.0
 11
1864.189172189083
 21
622.6195624992036
 31
0.0
 70
    32
  1
44
 71
     5
 42
-1.0
  3
AutoCAD
100
AcDbAlignedDimension
 13
1829.689172189083
 23
601.1608268458705
 33
0.0
 14
1755.654249441801
 24
644.078298152536
 34
0.0
 50
90.0
100
AcDbRotatedDimension
  0
DIMENSION
  5
733F
330
1E
100
AcDbEntity
  8
寸法
  6
Continuous
100
AcDbDimension
  2
*D11
 10
1887.689172189083
 20
691.1608268458707
 30
0.0
 11
1884.189172189083
 21
646.1608268458709
 31
0.0
 70
    32
 71
     5
 42
-1.0
  3
AutoCAD
100
AcDbAlignedDimension
 13
1829.689172189083
 23
601.1608268458705
 33
0.0
 14
1829.689172189083
 24
691.1608268458707
 34
0.0
 50
90.0
100
AcDbRotatedDimension
  0
DIMENSION
  5
734C
330
1E
100
AcDbEntity
  8
寸法
  6
Continuous
100
AcDbDimension
  2
*D12
 10
1442.689172189083
 20
745.211114918302
 30
0.0
 11
1635.189172189083
 21
748.711114918302
 31
0.0
 70
    32
  1
A
 71
     5
 42
-1.0
  3
AutoCAD
100
AcDbAlignedDimension
 13
1827.689172189083
 23
693.1608268458703
 33
0.0
 14
1442.689172189083
 24
725.3378218698415
 34
0.0
100
AcDbRotatedDimension
  0
DIMENSION
  5
7359
330
1E
100
AcDbEntity
  8
寸法
  6
Continuous
100
AcDbDimension
  2
*D13
 10
1427.689172189083
 20
822.2111149183016
 30
0.0
 11
1627.689172189083
 21
825.7111149183016
 31
0.0
 70
    32
  1
W
 71
     5
 42
-1.0
  3
AutoCAD
100
AcDbAlignedDimension
 13
1827.689172189083
 23
693.1608268458703
 33
0.0
 14
1427.689172189083
 24
754.2111149183019
 34
0.0
100
AcDbRotatedDimension
  0
DIMENSION
  5
7366
330
1E
100
AcDbEntity
  8
寸法
  6
Continuous
100
AcDbDimension
  2
*D14
 10
1496.189172189083
 20
752.2111149183019
 30
0.0
 11
1492.689172189083
 21
734.2111149183022
 31
0.0
 70
    32
 71
     5
 42
-1.0
  3
AutoCAD
100
AcDbAlignedDimension
 13
1463.189172189083
 23
716.211114918302
 33
0.0
 14
1463.189172189083
 24
752.2111149183019
 34
0.0
 50
90.0
100
AcDbRotatedDimension
  0
DIMENSION
  5
7373
330
1E
100
AcDbEntity
  8
寸法
  6
Continuous
100
AcDbDimension
  2
*D15
 10
1496.189172189083
 20
767.2111149183019
 30
0.0
 11
1492.689172189083
 21
759.7111149183022
 31
0.0
 70
    32
 71
     5
 42
-1.0
  3
AutoCAD
100
AcDbAlignedDimension
 13
1463.189172189083
 23
752.2111149183019
 33
0.0
 14
1453.689172189083
 24
767.2111149183019
 34
0.0
 50
90.0
100
AcDbRotatedDimension
  0
DIMENSION
  5
7380
330
1E
100
AcDbEntity
  8
寸法
  6
Continuous
100
AcDbDimension
  2
*D16
 10
1441.189172189083
 20
792.2111149183019
 30
0.0
 11
1451.189172189083
 21
795.7111149183019
 31
0.0
 70
    32
 71
     5
 42
-1.0
  3
AutoCAD
100
AcDbAlignedDimension
 13
1461.189172189083
 23
755.343931684068
 33
0.0
 14
1441.189172189083
 24
769.211114918302
 34
0.0
100
AcDbRotatedDimension
  0
DIMENSION
  5
738D
330
1E
100
AcDbEntity
  8
寸法
  6
Continuous
100
AcDbDimension
  2
*D17
 10
1427.689172189083
 20
807.2111149183019
 30
0.0
 11
1444.439172189083
 21
810.7111149183019
 31
0.0
 70
    32
  1
33.5
 71
     5
 42
-1.0
  3
AutoCAD
100
AcDbAlignedDimension
 13
1461.189172189083
 23
755.343931684068
 33
0.0
 14
1427.689172189083
 24
754.2111149183019
 34
0.0
100
AcDbRotatedDimension
  0
DIMENSION
  5
739A
330
1E
100
AcDbEntity
  8
寸法
  6
Continuous
100
AcDbDimension
  2
*D18
 10
1751.689172189083
 20
584.078298152536
 30
0.0
 11
1726.689172189083
 21
587.578298152536
 31
0.0
 70
    32
 71
     5
 42
-1.0
  3
AutoCAD
100
AcDbAlignedDimension
 13
1701.689172189083
 23
584.078298152536
 33
0.0
 14
1751.689172189083
 24
584.078298152536
 34
0.0
100
AcDbRotatedDimension
  0
ENDSEC
  0
SECTION
  2
OBJECTS
  0
DICTIONARY
  5
C
330
0
100
AcDbDictionary
281
     1
  3
ACAD_COLOR
350
6779
  3
ACAD_GROUP
350
D
  3
ACAD_LAYOUT
350
19
  3
ACAD_MATERIAL
350
6778
  3
ACAD_MLINESTYLE
350
16
  3
ACAD_PLOTSETTINGS
350
18
  3
ACAD_PLOTSTYLENAME
350
E
  3
ACAD_TABLESTYLE
350
677A
  3
ACDBHEADERROUNDTRIPXREC
350
7450
  3
AcDbVariableDictionary
350
169
  0
DICTIONARY
  5
175
330
2
100
AcDbDictionary
280
     1
281
     1
  3
ACAD_LAYERFILTERS
360
185
  3
ACAD_LAYERSTATES
360
176
  0
DICTIONARY
  5
28B
330
1E
100
AcDbDictionary
280
     1
281
     1
  3
ACAD_LAYOUTSELFREF
360
742F
  0
DICTIONARY
  5
28D
330
1A
100
AcDbDictionary
280
     1
281
     1
  3
ACAD_LAYOUTSELFREF
360
742E
  0
DICTIONARY
  5
6779
102
{ACAD_REACTORS
330
C
102
}
330
C
100
AcDbDictionary
281
     1
  0
DICTIONARY
  5
D
102
{ACAD_REACTORS
330
C
102
}
330
C
100
AcDbDictionary
281
     1
  0
DICTIONARY
  5
19
102
{ACAD_REACTORS
330
C
102
}
330
C
100
AcDbDictionary
281
     1
  3
Model
350
21
  3
ﾚｲｱｳﾄ1
350
1D
  0
DICTIONARY
  5
6778
102
{ACAD_REACTORS
330
C
102
}
330
C
100
AcDbDictionary
281
     1
  0
DICTIONARY
  5
16
102
{ACAD_REACTORS
330
C
102
}
330
C
100
AcDbDictionary
281
     1
  3
Standard
350
17
  0
DICTIONARY
  5
18
102
{ACAD_REACTORS
330
C
102
}
330
C
100
AcDbDictionary
281
     1
  0
ACDBDICTIONARYWDFLT
  5
E
102
{ACAD_REACTORS
330
C
102
}
330
C
100
AcDbDictionary
281
     1
  3
Normal
350
F
100
AcDbDictionaryWithDefault
340
F
1001
ACAD
1000
TREAT_AS_HARD
1070
     0
1000
TREAT_AS_HARD
1070
     0
1000
TREAT_AS_HARD
1070
     0
1000
TREAT_AS_HARD
1070
     0
1000
TREAT_AS_HARD
1070
     0
1000
TREAT_AS_HARD
1070
     0
1000
TREAT_AS_HARD
1070
     0
1000
TREAT_AS_HARD
1070
     0
1000
TREAT_AS_HARD
1070
     0
1000
TREAT_AS_HARD
1070
     0
1000
TREAT_AS_HARD
1070
     0
1000
TREAT_AS_HARD
1070
     0
1000
TREAT_AS_HARD
1070
     0
1000
TREAT_AS_HARD
1070
     0
1000
TREAT_AS_HARD
1070
     0
1000
TREAT_AS_HARD
1070
     0
1000
TREAT_AS_HARD
1070
     0
1000
TREAT_AS_HARD
1070
     0
1000
TREAT_AS_HARD
1070
     0
1000
TREAT_AS_HARD
1070
     0
1000
TREAT_AS_HARD
1070
     0
1000
TREAT_AS_HARD
1070
     0
1000
TREAT_AS_HARD
1070
     0
1000
TREAT_AS_HARD
1070
     0
1000
TREAT_AS_HARD
1070
     0
1000
TREAT_AS_HARD
1070
     0
1000
TREAT_AS_HARD
1070
     0
  0
DICTIONARY
  5
677A
102
{ACAD_REACTORS
330
C
102
}
330
C
100
AcDbDictionary
281
     1
  3
Standard
350
677B
  0
DICTIONARY
  5
7450
102
{ACAD_REACTORS
330
C
102
}
330
C
100
AcDbDictionary
281
     1
  0
DICTIONARY
  5
169
102
{ACAD_REACTORS
330
C
102
}
330
C
100
AcDbDictionary
281
     1
  3
CTABLESTYLE
350
6782
  3
DIMASSOC
350
16A
  3
PROJECTNAME
350
6791
  0
DICTIONARY
  5
185
102
{ACAD_REACTORS
330
175
102
}
330
175
100
AcDbDictionary
280
     1
281
     1
  0
DICTIONARY
  5
176
102
{ACAD_REACTORS
330
175
102
}
330
175
100
AcDbDictionary
281
     1
  3
ACAD
350
177
  0
XRECORD
  5
742F
102
{ACAD_REACTORS
330
28B
102
}
330
28B
100
AcDbXrecord
280
     1
340
1E
  0
XRECORD
  5
742E
102
{ACAD_REACTORS
330
28D
102
}
330
28D
100
AcDbXrecord
280
     1
340
1A
  0
LAYOUT
  5
21
102
{ACAD_XDICTIONARY
360
7453
102
}
102
{ACAD_REACTORS
330
19
102
}
330
19
100
AcDbPlotSettings
  1

  2
\\MEISEI-1\EPSON Stylus Photo EX3
  4

  6

 40
0.0
 41
0.0
 42
0.0
 43
0.0
 44
0.0
 45
0.0
 46
0.0
 47
0.0
 48
0.0
 49
0.0
140
0.0
141
0.0
142
1.0
143
1.0
 70
  1712
 72
     0
 73
     0
 74
     0
  7

 75
     0
147
1.0
148
0.0
149
0.0
100
AcDbLayout
  1
Model
 70
     1
 71
     0
 10
0.0
 20
0.0
 11
12.0
 21
9.0
 12
0.0
 22
0.0
 32
0.0
 14
0.0
 24
0.0
 34
0.0
 15
0.0
 25
0.0
 35
0.0
146
0.0
 13
0.0
 23
0.0
 33
0.0
 16
1.0
 26
0.0
 36
0.0
 17
0.0
 27
1.0
 37
0.0
 76
     0
330
1E
  0
LAYOUT
  5
1D
102
{ACAD_XDICTIONARY
360
7451
102
}
102
{ACAD_REACTORS
330
19
102
}
330
19
100
AcDbPlotSettings
  1

  2
\\MEISEI-1\EPSON Stylus Photo EX3
  4

  6

 40
0.0
 41
0.0
 42
0.0
 43
0.0
 44
0.0
 45
0.0
 46
0.0
 47
0.0
 48
0.0
 49
0.0
140
0.0
141
0.0
142
1.0
143
1.0
 70
   688
 72
     0
 73
     0
 74
     5
  7

 75
    16
147
1.0
148
0.0
149
0.0
100
AcDbLayout
  1
ﾚｲｱｳﾄ1
 70
     1
 71
     1
 10
0.0
 20
0.0
 11
12.0
 21
9.0
 12
0.0
 22
0.0
 32
0.0
 14
1.000000000000000E+20
 24
1.000000000000000E+20
 34
1.000000000000000E+20
 15
-1.000000000000000E+20
 25
-1.000000000000000E+20
 35
-1.000000000000000E+20
146
0.0
 13
0.0
 23
0.0
 33
0.0
 16
1.0
 26
0.0
 36
0.0
 17
0.0
 27
1.0
 37
0.0
 76
     0
330
1A
  0
MLINESTYLE
  5
17
102
{ACAD_REACTORS
330
16
102
}
330
16
100
AcDbMlineStyle
  2
STANDARD
 70
     0
  3

 62
   256
 51
90.0
 52
90.0
 71
     2
 49
0.5
 62
   256
  6
BYLAYER
 49
-0.5
 62
   256
  6
BYLAYER
  0
ACDBPLACEHOLDER
  5
F
102
{ACAD_REACTORS
330
E
102
}
330
E
  0
TABLESTYLE
  5
677B
102
{ACAD_REACTORS
330
677A
102
}
330
677A
100
AcDbTableStyle
  3
Standard
 70
     0
 71
     0
 40
0.06
 41
0.06
280
     0
281
     0
  7
STANDARD
140
0.18
170
     2
 62
     0
 63
     7
283
     0
274
    -2
284
     1
 64
     0
275
    -2
285
     1
 65
     0
276
    -2
286
     1
 66
     0
277
    -2
287
     1
 67
     0
278
    -2
288
     1
 68
     0
279
    -2
289
     1
 69
     0
  7
STANDARD
140
0.25
170
     5
 62
     0
 63
     7
283
     0
274
    -2
284
     1
 64
     0
275
    -2
285
     1
 65
     0
276
    -2
286
     1
 66
     0
277
    -2
287
     1
 67
     0
278
    -2
288
     1
 68
     0
279
    -2
289
     1
 69
     0
  7
STANDARD
140
0.18
170
     5
 62
     0
 63
     7
283
     0
274
    -2
284
     1
 64
     0
275
    -2
285
     1
 65
     0
276
    -2
286
     1
 66
     0
277
    -2
287
     1
 67
     0
278
    -2
288
     1
 68
     0
279
    -2
289
     1
 69
     0
  0
DICTIONARYVAR
  5
6782
102
{ACAD_REACTORS
330
169
102
}
330
169
100
DictionaryVariables
280
     0
  1
STANDARD
  0
DICTIONARYVAR
  5
16A
102
{ACAD_REACTORS
330
169
102
}
330
169
100
DictionaryVariables
280
     0
  1
1
  0
DICTIONARYVAR
  5
6791
102
{ACAD_REACTORS
330
169
102
}
330
169
100
DictionaryVariables
280
     0
  1

  0
XRECORD
  5
177
102
{ACAD_REACTORS
330
176
102
}
330
176
100
AcDbXrecord
280
     1
 91
      476
330
179
 90
        8
 62
     7
370
    -3
331
15
  1
Color_7
330
178
 90
        8
 62
     7
370
    -3
331
15
  1
Color_7
330
128
 90
        0
 62
     7
370
    -3
331
15
  1
Color_7
330
10
 90
        8
 62
     7
370
    -3
331
15
  1
Color_7
  0
DICTIONARY
  5
7453
330
21
100
AcDbDictionary
280
     1
281
     1
  3
ACAD_XREC_ROUNDTRIP
360
7454
  0
DICTIONARY
  5
7451
330
1D
100
AcDbDictionary
280
     1
281
     1
  3
ACAD_XREC_ROUNDTRIP
360
7452
  0
XRECORD
  5
7454
102
{ACAD_REACTORS
330
7453
102
}
330
7453
100
AcDbXrecord
280
     1
102
SHADEPLOT
 70
     0
102
SHADEPLOTRESLEVEL
 70
     2
102
SHADEPLOTCUSTOMDPI
 70
   300
  0
XRECORD
  5
7452
102
{ACAD_REACTORS
330
7451
102
}
330
7451
100
AcDbXrecord
280
     1
102
SHADEPLOT
 70
     0
102
SHADEPLOTRESLEVEL
 70
     2
102
SHADEPLOTCUSTOMDPI
 70
   300
  0
ENDSEC
  0
EOF
