  0
SECTION
  2
HEADER
  9
$ACADVER
  1
AC1015
  9
$ACADMAINTVER
 70
    20
  9
$DWGCODEPAGE
  3
ANSI_932
  9
$INSBASE
 10
0.0
 20
0.0
 30
0.0
  9
$EXTMIN
 10
1135.971681556373
 20
372.0434476516184
 30
-0.0015258207003583
  9
$EXTMAX
 10
1960.069290298989
 20
948.0901841476534
 30
0.0000000349246037
  9
$LIMMIN
 10
0.0
 20
0.0
  9
$LIMMAX
 10
420.0
 20
297.0
  9
$ORTHOMODE
 70
     0
  9
$REGENMODE
 70
     1
  9
$FILLMODE
 70
     1
  9
$QTEXTMODE
 70
     0
  9
$MIRRTEXT
 70
     1
  9
$LTSCALE
 40
1.0
  9
$ATTMODE
 70
     1
  9
$TEXTSIZE
 40
5.0
  9
$TRACEWID
 40
0.05
  9
$TEXTSTYLE
  7
ACAD
  9
$CLAYER
  8
0
  9
$CELTYPE
  6
CONTINUOUS
  9
$CECOLOR
 62
   256
  9
$CELTSCALE
 40
1.0
  9
$DISPSILH
 70
     0
  9
$DIMSCALE
 40
1.0
  9
$DIMASZ
 40
1.0
  9
$DIMEXO
 40
0.0
  9
$DIMDLI
 40
0.38
  9
$DIMRND
 40
0.0
  9
$DIMDLE
 40
0.0
  9
$DIMEXE
 40
0.0
  9
$DIMTP
 40
0.0
  9
$DIMTM
 40
0.0
  9
$DIMTXT
 40
5.0
  9
$DIMCEN
 40
0.09
  9
$DIMTSZ
 40
0.0
  9
$DIMTOL
 70
     0
  9
$DIMLIM
 70
     0
  9
$DIMTIH
 70
     0
  9
$DIMTOH
 70
     1
  9
$DIMSE1
 70
     0
  9
$DIMSE2
 70
     0
  9
$DIMTAD
 70
     1
  9
$DIMZIN
 70
     0
  9
$DIMBLK
  1
Dot
  9
$DIMASO
 70
     1
  9
$DIMSHO
 70
     1
  9
$DIMPOST
  1

  9
$DIMAPOST
  1

  9
$DIMALT
 70
     0
  9
$DIMALTD
 70
     2
  9
$DIMALTF
 40
25.4
  9
$DIMLFAC
 40
1.0
  9
$DIMTOFL
 70
     0
  9
$DIMTVP
 40
0.0
  9
$DIMTIX
 70
     1
  9
$DIMSOXD
 70
     0
  9
$DIMSAH
 70
     0
  9
$DIMBLK1
  1

  9
$DIMBLK2
  1

  9
$DIMSTYLE
  2
AutoCAD
  9
$DIMCLRD
 70
     4
  9
$DIMCLRE
 70
     4
  9
$DIMCLRT
 70
     3
  9
$DIMTFAC
 40
1.0
  9
$DIMGAP
 40
1.0
  9
$DIMJUST
 70
     0
  9
$DIMSD1
 70
     0
  9
$DIMSD2
 70
     0
  9
$DIMTOLJ
 70
     1
  9
$DIMTZIN
 70
     0
  9
$DIMALTZ
 70
     0
  9
$DIMALTTZ
 70
     0
  9
$DIMUPT
 70
     0
  9
$DIMDEC
 70
     0
  9
$DIMTDEC
 70
     0
  9
$DIMALTU
 70
     2
  9
$DIMALTTD
 70
     2
  9
$DIMTXSTY
  7
ACAD
  9
$DIMAUNIT
 70
     0
  9
$DIMADEC
 70
     0
  9
$DIMALTRND
 40
0.0
  9
$DIMAZIN
 70
     0
  9
$DIMDSEP
 70
    46
  9
$DIMATFIT
 70
     0
  9
$DIMFRAC
 70
     0
  9
$DIMLDRBLK
  1
None
  9
$DIMLUNIT
 70
     2
  9
$DIMLWD
 70
    -2
  9
$DIMLWE
 70
    -2
  9
$DIMTMOVE
 70
     0
  9
$LUNITS
 70
     2
  9
$LUPREC
 70
     4
  9
$SKETCHINC
 40
0.1
  9
$FILLETRAD
 40
0.0
  9
$AUNITS
 70
     0
  9
$AUPREC
 70
     0
  9
$MENU
  1
.
  9
$ELEVATION
 40
0.0
  9
$PELEVATION
 40
0.0
  9
$THICKNESS
 40
0.0
  9
$LIMCHECK
 70
     0
  9
$CHAMFERA
 40
0.0
  9
$CHAMFERB
 40
0.0
  9
$CHAMFERC
 40
0.0
  9
$CHAMFERD
 40
0.0
  9
$SKPOLY
 70
     0
  9
$TDCREATE
 40
2454316.693457674
  9
$TDUCREATE
 40
2454316.318457674
  9
$TDUPDATE
 40
2454736.672508391
  9
$TDUUPDATE
 40
2454736.297508391
  9
$TDINDWG
 40
0.2593650000
  9
$TDUSRTIMER
 40
0.2593650000
  9
$USRTIMER
 70
     1
  9
$ANGBASE
 50
0.0
  9
$ANGDIR
 70
     0
  9
$PDMODE
 70
     0
  9
$PDSIZE
 40
0.0
  9
$PLINEWID
 40
0.0
  9
$SPLFRAME
 70
     0
  9
$SPLINETYPE
 70
     6
  9
$SPLINESEGS
 70
     8
  9
$HANDSEED
  5
7F63
  9
$SURFTAB1
 70
     6
  9
$SURFTAB2
 70
     6
  9
$SURFTYPE
 70
     6
  9
$SURFU
 70
     6
  9
$SURFV
 70
     6
  9
$UCSBASE
  2

  9
$UCSNAME
  2

  9
$UCSORG
 10
0.0
 20
0.0
 30
0.0
  9
$UCSXDIR
 10
1.0
 20
0.0
 30
0.0
  9
$UCSYDIR
 10
0.0
 20
1.0
 30
0.0
  9
$UCSORTHOREF
  2

  9
$UCSORTHOVIEW
 70
     0
  9
$UCSORGTOP
 10
0.0
 20
0.0
 30
0.0
  9
$UCSORGBOTTOM
 10
0.0
 20
0.0
 30
0.0
  9
$UCSORGLEFT
 10
0.0
 20
0.0
 30
0.0
  9
$UCSORGRIGHT
 10
0.0
 20
0.0
 30
0.0
  9
$UCSORGFRONT
 10
0.0
 20
0.0
 30
0.0
  9
$UCSORGBACK
 10
0.0
 20
0.0
 30
0.0
  9
$PUCSBASE
  2

  9
$PUCSNAME
  2

  9
$PUCSORG
 10
0.0
 20
0.0
 30
0.0
  9
$PUCSXDIR
 10
1.0
 20
0.0
 30
0.0
  9
$PUCSYDIR
 10
0.0
 20
1.0
 30
0.0
  9
$PUCSORTHOREF
  2

  9
$PUCSORTHOVIEW
 70
     0
  9
$PUCSORGTOP
 10
0.0
 20
0.0
 30
0.0
  9
$PUCSORGBOTTOM
 10
0.0
 20
0.0
 30
0.0
  9
$PUCSORGLEFT
 10
0.0
 20
0.0
 30
0.0
  9
$PUCSORGRIGHT
 10
0.0
 20
0.0
 30
0.0
  9
$PUCSORGFRONT
 10
0.0
 20
0.0
 30
0.0
  9
$PUCSORGBACK
 10
0.0
 20
0.0
 30
0.0
  9
$USERI1
 70
     0
  9
$USERI2
 70
     0
  9
$USERI3
 70
     0
  9
$USERI4
 70
     0
  9
$USERI5
 70
     0
  9
$USERR1
 40
0.0
  9
$USERR2
 40
0.0
  9
$USERR3
 40
0.0
  9
$USERR4
 40
0.0
  9
$USERR5
 40
0.0
  9
$WORLDVIEW
 70
     1
  9
$SHADEDGE
 70
     3
  9
$SHADEDIF
 70
    70
  9
$TILEMODE
 70
     1
  9
$MAXACTVP
 70
    48
  9
$PINSBASE
 10
0.0
 20
0.0
 30
0.0
  9
$PLIMCHECK
 70
     0
  9
$PEXTMIN
 10
1.000000000000000E+20
 20
1.000000000000000E+20
 30
1.000000000000000E+20
  9
$PEXTMAX
 10
-1.000000000000000E+20
 20
-1.000000000000000E+20
 30
-1.000000000000000E+20
  9
$PLIMMIN
 10
0.0
 20
0.0
  9
$PLIMMAX
 10
12.0
 20
9.0
  9
$UNITMODE
 70
     0
  9
$VISRETAIN
 70
     0
  9
$PLINEGEN
 70
     0
  9
$PSLTSCALE
 70
     1
  9
$TREEDEPTH
 70
  3020
  9
$CMLSTYLE
  2
Standard
  9
$CMLJUST
 70
     0
  9
$CMLSCALE
 40
1.0
  9
$PROXYGRAPHICS
 70
     1
  9
$MEASUREMENT
 70
     0
  9
$CELWEIGHT
370
    -1
  9
$ENDCAPS
280
     0
  9
$JOINSTYLE
280
     0
  9
$LWDISPLAY
290
     0
  9
$INSUNITS
 70
     0
  9
$HYPERLINKBASE
  1

  9
$STYLESHEET
  1

  9
$XEDIT
290
     1
  9
$CEPSNTYPE
380
     0
  9
$PSTYLEMODE
290
     1
  9
$FINGERPRINTGUID
  2
{CC7D6DEE-A9F1-4F3E-AC95-C84B62CCA3FD}
  9
$VERSIONGUID
  2
{749E1D90-EDCF-42A7-8C11-9B0B144F3B22}
  9
$EXTNAMES
290
     1
  9
$PSVPSCALE
 40
0.0
  9
$OLESTARTUP
290
     0
  0
ENDSEC
  0
SECTION
  2
CLASSES
  0
CLASS
  1
ACDBDICTIONARYWDFLT
  2
AcDbDictionaryWithDefault
  3
ObjectDBX Classes
 90
        0
280
     0
281
     0
  0
CLASS
  1
ACDBPLACEHOLDER
  2
AcDbPlaceHolder
  3
ObjectDBX Classes
 90
        0
280
     0
281
     0
  0
CLASS
  1
LAYOUT
  2
AcDbLayout
  3
ObjectDBX Classes
 90
        0
280
     0
281
     0
  0
CLASS
  1
DICTIONARYVAR
  2
AcDbDictionaryVar
  3
ObjectDBX Classes
 90
        0
280
     0
281
     0
  0
CLASS
  1
TABLESTYLE
  2
AcDbTableStyle
  3
ObjectDBX Classes
 90
     2047
280
     0
281
     0
  0
ENDSEC
  0
SECTION
  2
TABLES
  0
TABLE
  2
VPORT
  5
8
330
0
100
AcDbSymbolTable
 70
     2
  0
VPORT
  5
7F5D
330
8
100
AcDbSymbolTableRecord
100
AcDbViewportTableRecord
  2
*Active
 70
     0
 10
0.0
 20
0.0
 11
1.0
 21
1.0
 12
1570.651600620081
 22
637.0870334962302
 13
0.0
 23
0.0
 14
1.0
 24
1.0
 15
0.0
 25
0.0
 16
0.0
 26
0.0
 36
1.0
 17
0.0
 27
0.0
 37
0.0
 40
651.3173486661988
 41
1.538265306122448
 42
50.0
 43
0.0
 44
0.0
 50
0.0
 51
0.0
 71
     0
 72
   100
 73
     1
 74
     1
 75
     0
 76
     0
 77
     0
 78
     0
281
     0
 65
     1
110
0.0
120
0.0
130
0.0
111
1.0
121
0.0
131
0.0
112
0.0
122
1.0
132
0.0
 79
     0
146
0.0
  0
ENDTAB
  0
TABLE
  2
LTYPE
  5
5
330
0
100
AcDbSymbolTable
 70
    50
  0
LTYPE
  5
13
330
5
100
AcDbSymbolTableRecord
100
AcDbLinetypeTableRecord
  2
ByBlock
 70
     0
  3

 72
    65
 73
     0
 40
0.0
  0
LTYPE
  5
14
330
5
100
AcDbSymbolTableRecord
100
AcDbLinetypeTableRecord
  2
ByLayer
 70
     0
  3

 72
    65
 73
     0
 40
0.0
  0
LTYPE
  5
15
330
5
100
AcDbSymbolTableRecord
100
AcDbLinetypeTableRecord
  2
CONTINUOUS
 70
     0
  3
実線
 72
    65
 73
     0
 40
0.0
  0
LTYPE
  5
22
330
5
100
AcDbSymbolTableRecord
100
AcDbLinetypeTableRecord
  2
DASHED1
 70
     0
  3
--  --  --  --  --  --  --  --  
 72
    65
 73
     2
 40
2.5
 49
1.25
 74
     0
 49
-1.25
 74
     0
  0
LTYPE
  5
23
330
5
100
AcDbSymbolTableRecord
100
AcDbLinetypeTableRecord
  2
DASHED2
 70
     0
  3
----    ----    ----    ----    
 72
    65
 73
     2
 40
5.0
 49
2.5
 74
     0
 49
-2.5
 74
     0
  0
LTYPE
  5
24
330
5
100
AcDbSymbolTableRecord
100
AcDbLinetypeTableRecord
  2
DASHED3
 70
     0
  3
------  ------  ------  ------  
 72
    65
 73
     2
 40
5.0
 49
3.75
 74
     0
 49
-1.25
 74
     0
  0
LTYPE
  5
25
330
5
100
AcDbSymbolTableRecord
100
AcDbLinetypeTableRecord
  2
CENTER1
 70
     0
  3
----- - ----- - ----- - ----- - 
 72
    65
 73
     4
 40
10.0
 49
6.25
 74
     0
 49
-1.25
 74
     0
 49
1.25
 74
     0
 49
-1.25
 74
     0
  0
LTYPE
  5
26
330
5
100
AcDbSymbolTableRecord
100
AcDbLinetypeTableRecord
  2
CENTER2
 70
     0
  3
----------  --  ----------  --  
 72
    65
 73
     4
 40
20.0
 49
12.5
 74
     0
 49
-2.5
 74
     0
 49
2.5
 74
     0
 49
-2.5
 74
     0
  0
LTYPE
  5
27
330
5
100
AcDbSymbolTableRecord
100
AcDbLinetypeTableRecord
  2
PHANTOM1
 70
     0
  3
--- - - --- - - --- - - --- - - 
 72
    65
 73
     6
 40
10.0
 49
3.25
 74
     0
 49
-1.25
 74
     0
 49
1.25
 74
     0
 49
-1.25
 74
     0
 49
1.25
 74
     0
 49
-1.25
 74
     0
  0
LTYPE
  5
28
330
5
100
AcDbSymbolTableRecord
100
AcDbLinetypeTableRecord
  2
PHANTOM2
 70
     0
  3
--------  -  -  --------  -  -  
 72
    65
 73
     6
 40
20.0
 49
10.0
 74
     0
 49
-2.5
 74
     0
 49
1.25
 74
     0
 49
-2.5
 74
     0
 49
1.25
 74
     0
 49
-2.5
 74
     0
  0
LTYPE
  5
29
330
5
100
AcDbSymbolTableRecord
100
AcDbLinetypeTableRecord
  2
DOT
 70
     0
  3
-   -   -   -   -   -   -   -   
 72
    65
 73
     2
 40
2.5
 49
0.625
 74
     0
 49
-1.875
 74
     0
  0
LTYPE
  5
2A
330
5
100
AcDbSymbolTableRecord
100
AcDbLinetypeTableRecord
  2
DUMMY
 70
     0
  3
ダミー
 72
    65
 73
     0
 40
0.0
  0
LTYPE
  5
2B
330
5
100
AcDbSymbolTableRecord
100
AcDbLinetypeTableRecord
  2
RAND1
 70
     0
  3
ランダム線1
 72
    65
 73
     4
 40
10.0
 49
1.0
 74
     0
 49
-2.0
 74
     0
 49
3.0
 74
     0
 49
-4.0
 74
     0
  0
LTYPE
  5
2C
330
5
100
AcDbSymbolTableRecord
100
AcDbLinetypeTableRecord
  2
RAND2
 70
     0
  3
ランダム線2
 72
    65
 73
     4
 40
14.0
 49
2.0
 74
     0
 49
-3.0
 74
     0
 49
4.0
 74
     0
 49
-5.0
 74
     0
  0
LTYPE
  5
2D
330
5
100
AcDbSymbolTableRecord
100
AcDbLinetypeTableRecord
  2
RAND3
 70
     0
  3
ランダム線3
 72
    65
 73
     4
 40
18.0
 49
3.0
 74
     0
 49
-4.0
 74
     0
 49
5.0
 74
     0
 49
-6.0
 74
     0
  0
LTYPE
  5
2E
330
5
100
AcDbSymbolTableRecord
100
AcDbLinetypeTableRecord
  2
RAND4
 70
     0
  3
ランダム線4
 72
    65
 73
     4
 40
22.0
 49
4.0
 74
     0
 49
-5.0
 74
     0
 49
6.0
 74
     0
 49
-7.0
 74
     0
  0
LTYPE
  5
2F
330
5
100
AcDbSymbolTableRecord
100
AcDbLinetypeTableRecord
  2
RAND5
 70
     0
  3
ランダム線5
 72
    65
 73
     4
 40
26.0
 49
5.0
 74
     0
 49
-6.0
 74
     0
 49
7.0
 74
     0
 49
-8.0
 74
     0
  0
LTYPE
  5
30
330
5
100
AcDbSymbolTableRecord
100
AcDbLinetypeTableRecord
  2
LONG1
 70
     0
  3
----------  --  ----------  --  
 72
    65
 73
     4
 40
40.0
 49
32.5
 74
     0
 49
-2.5
 74
     0
 49
2.5
 74
     0
 49
-2.5
 74
     0
  0
LTYPE
  5
31
330
5
100
AcDbSymbolTableRecord
100
AcDbLinetypeTableRecord
  2
LONG2
 70
     0
  3
--------  -  -  --------  -  -  
 72
    65
 73
     6
 40
40.0
 49
30.0
 74
     0
 49
-2.5
 74
     0
 49
1.25
 74
     0
 49
-2.5
 74
     0
 49
1.25
 74
     0
 49
-2.5
 74
     0
  0
LTYPE
  5
32
330
5
100
AcDbSymbolTableRecord
100
AcDbLinetypeTableRecord
  2
LONG3
 70
     0
  3
+++++++++++++++..+++++++++++++++
 72
    65
 73
     2
 40
40.0
 49
37.5
 74
     0
 49
-2.5
 74
     0
  0
LTYPE
  5
33
330
5
100
AcDbSymbolTableRecord
100
AcDbLinetypeTableRecord
  2
LONG4
 70
     0
  3
+++++++++++++++..+++++++++++++++
 72
    65
 73
     2
 40
80.0
 49
75.0
 74
     0
 49
-5.0
 74
     0
  0
LTYPE
  5
34
330
5
100
AcDbSymbolTableRecord
100
AcDbLinetypeTableRecord
  2
LONG5
 70
     0
  3
----------  --  ----------  --  
 72
    65
 73
     4
 40
60.0
 49
37.5
 74
     0
 49
-7.5
 74
     0
 49
7.5
 74
     0
 49
-7.5
 74
     0
  0
LTYPE
  5
35
330
5
100
AcDbSymbolTableRecord
100
AcDbLinetypeTableRecord
  2
DASHED
 70
     0
  3
-------   -------------   ------
 72
    65
 73
     2
 40
7.5
 49
6.0
 74
     0
 49
-1.5
 74
     0
  0
LTYPE
  5
36
330
5
100
AcDbSymbolTableRecord
100
AcDbLinetypeTableRecord
  2
DASHED_SPACED
 70
     0
  3
----        --------        ----
 72
    65
 73
     2
 40
12.0
 49
6.0
 74
     0
 49
-6.0
 74
     0
  0
LTYPE
  5
37
330
5
100
AcDbSymbolTableRecord
100
AcDbLinetypeTableRecord
  2
LONG_DASHED_DOTTED
 70
     0
  3
------------- --- --------------
 72
    65
 73
     4
 40
15.25
 49
12.0
 74
     0
 49
-1.5
 74
     0
 49
0.25
 74
     0
 49
-1.5
 74
     0
  0
LTYPE
  5
38
330
5
100
AcDbSymbolTableRecord
100
AcDbLinetypeTableRecord
  2
LONG_DASHED_DOUBLE-DOTTED
 70
     0
  3
----------- --- --- ------------
 72
    65
 73
     6
 40
17.0
 49
12.0
 74
     0
 49
-1.5
 74
     0
 49
0.25
 74
     0
 49
-1.5
 74
     0
 49
0.25
 74
     0
 49
-1.5
 74
     0
  0
LTYPE
  5
39
330
5
100
AcDbSymbolTableRecord
100
AcDbLinetypeTableRecord
  2
LONG_DASHED_TRIPLICATE-DOTTED
 70
     0
  3
--------- --- --- --- ----------
 72
    65
 73
     8
 40
18.75
 49
12.0
 74
     0
 49
-1.5
 74
     0
 49
0.25
 74
     0
 49
-1.5
 74
     0
 49
0.25
 74
     0
 49
-1.5
 74
     0
 49
0.25
 74
     0
 49
-1.5
 74
     0
  0
LTYPE
  5
3A
330
5
100
AcDbSymbolTableRecord
100
AcDbLinetypeTableRecord
  2
DOTTED
 70
     0
  3
   -       -       -       -    
 72
    65
 73
     2
 40
1.75
 49
0.25
 74
     0
 49
-1.5
 74
     0
  0
LTYPE
  5
3B
330
5
100
AcDbSymbolTableRecord
100
AcDbLinetypeTableRecord
  2
CHAIN
 70
     0
  3
-------------- -- --------------
 72
    65
 73
     4
 40
18.5
 49
12.0
 74
     0
 49
-1.5
 74
     0
 49
3.5
 74
     0
 49
-1.5
 74
     0
  0
LTYPE
  5
3C
330
5
100
AcDbSymbolTableRecord
100
AcDbLinetypeTableRecord
  2
CHAIN_DOUBLE_DASH
 70
     0
  3
------------ -- -- -------------
 72
    65
 73
     6
 40
23.5
 49
12.0
 74
     0
 49
-1.5
 74
     0
 49
3.5
 74
     0
 49
-1.5
 74
     0
 49
3.5
 74
     0
 49
-1.5
 74
     0
  0
LTYPE
  5
3D
330
5
100
AcDbSymbolTableRecord
100
AcDbLinetypeTableRecord
  2
DASHED_DOTTED
 70
     0
  3
-----------     -     ----------
 72
    65
 73
     4
 40
9.25
 49
6.0
 74
     0
 49
-1.5
 74
     0
 49
0.25
 74
     0
 49
-1.5
 74
     0
  0
LTYPE
  5
3E
330
5
100
AcDbSymbolTableRecord
100
AcDbLinetypeTableRecord
  2
DOUBLE-DASHED_DOTTED
 70
     0
  3
------   -----------   -   -----
 72
    65
 73
     6
 40
16.75
 49
6.0
 74
     0
 49
-1.5
 74
     0
 49
6.0
 74
     0
 49
-1.5
 74
     0
 49
0.25
 74
     0
 49
-1.5
 74
     0
  0
LTYPE
  5
3F
330
5
100
AcDbSymbolTableRecord
100
AcDbLinetypeTableRecord
  2
DASHED_DOUBLE-DOTTED
 70
     0
  3
---------    -    -    ---------
 72
    65
 73
     6
 40
11.0
 49
6.0
 74
     0
 49
-1.5
 74
     0
 49
0.25
 74
     0
 49
-1.5
 74
     0
 49
0.25
 74
     0
 49
-1.5
 74
     0
  0
LTYPE
  5
40
330
5
100
AcDbSymbolTableRecord
100
AcDbLinetypeTableRecord
  2
DOUBLE-DASHED_DOUBLE-DOTTED
 70
     0
  3
-----   ---------   -   -   ----
 72
    65
 73
     8
 40
18.5
 49
6.0
 74
     0
 49
-1.5
 74
     0
 49
6.0
 74
     0
 49
-1.5
 74
     0
 49
0.25
 74
     0
 49
-1.5
 74
     0
 49
0.25
 74
     0
 49
-1.5
 74
     0
  0
LTYPE
  5
41
330
5
100
AcDbSymbolTableRecord
100
AcDbLinetypeTableRecord
  2
DASHED_TRIPLICATE-DOTTED
 70
     0
  3
-------    -    -    -    ------
 72
    65
 73
     8
 40
12.75
 49
6.0
 74
     0
 49
-1.5
 74
     0
 49
0.25
 74
     0
 49
-1.5
 74
     0
 49
0.25
 74
     0
 49
-1.5
 74
     0
 49
0.25
 74
     0
 49
-1.5
 74
     0
  0
LTYPE
  5
42
330
5
100
AcDbSymbolTableRecord
100
AcDbLinetypeTableRecord
  2
DOUBLE-DASHED_TRIPLICATE-DOTTED
 70
     0
  3
-----  ---------  -  -  -  -----
 72
    65
 73
    10
 40
20.25
 49
6.0
 74
     0
 49
-1.5
 74
     0
 49
6.0
 74
     0
 49
-1.5
 74
     0
 49
0.25
 74
     0
 49
-1.5
 74
     0
 49
0.25
 74
     0
 49
-1.5
 74
     0
 49
0.25
 74
     0
 49
-1.5
 74
     0
  0
LTYPE
  5
43
330
5
100
AcDbSymbolTableRecord
100
AcDbLinetypeTableRecord
  2
UNDEFINED
 70
     0
  3
--------------------------------
 72
    65
 73
     0
 40
0.0
  0
LTYPE
  5
44
330
5
100
AcDbSymbolTableRecord
100
AcDbLinetypeTableRecord
  2
PLINE2
 70
     0
  3
------     -----------     -----
 72
    65
 73
     2
 40
3.0
 49
2.1
 74
     0
 49
-0.9
 74
     0
  0
LTYPE
  5
45
330
5
100
AcDbSymbolTableRecord
100
AcDbLinetypeTableRecord
  2
PLINE3
 70
     0
  3
------------   ---   -----------
 72
    65
 73
     4
 40
10.0
 49
7.0
 74
     0
 49
-1.0
 74
     0
 49
1.0
 74
     0
 49
-1.0
 74
     0
  0
LTYPE
  5
46
330
5
100
AcDbSymbolTableRecord
100
AcDbLinetypeTableRecord
  2
PLINE4
 70
     0
  3
---------   ---   ---   --------
 72
    65
 73
     6
 40
10.0
 49
5.0
 74
     0
 49
-1.0
 74
     0
 49
1.0
 74
     0
 49
-1.0
 74
     0
 49
1.0
 74
     0
 49
-1.0
 74
     0
  0
LTYPE
  5
47
330
5
100
AcDbSymbolTableRecord
100
AcDbLinetypeTableRecord
  2
PLINE5
 70
     0
  3
------     -----------     -----
 72
    65
 73
     2
 40
5.0
 49
3.5
 74
     0
 49
-1.5
 74
     0
  0
LTYPE
  5
48
330
5
100
AcDbSymbolTableRecord
100
AcDbLinetypeTableRecord
  2
PLINE6
 70
     0
  3
------------   ---   -----------
 72
    65
 73
     4
 40
15.0
 49
10.5
 74
     0
 49
-1.5
 74
     0
 49
1.5
 74
     0
 49
-1.5
 74
     0
  0
LTYPE
  5
49
330
5
100
AcDbSymbolTableRecord
100
AcDbLinetypeTableRecord
  2
PLINE7
 70
     0
  3
---------   ---   ---   --------
 72
    65
 73
     6
 40
15.0
 49
7.5
 74
     0
 49
-1.5
 74
     0
 49
1.5
 74
     0
 49
-1.5
 74
     0
 49
1.5
 74
     0
 49
-1.5
 74
     0
  0
LTYPE
  5
4A
330
5
100
AcDbSymbolTableRecord
100
AcDbLinetypeTableRecord
  2
PLINE8
 70
     0
  3
------     -----------     -----
 72
    65
 73
     2
 40
7.0
 49
4.9
 74
     0
 49
-2.1
 74
     0
  0
LTYPE
  5
4B
330
5
100
AcDbSymbolTableRecord
100
AcDbLinetypeTableRecord
  2
PLINE9
 70
     0
  3
------------   ---   -----------
 72
    65
 73
     4
 40
20.0
 49
14.0
 74
     0
 49
-2.0
 74
     0
 49
2.0
 74
     0
 49
-2.0
 74
     0
  0
LTYPE
  5
4C
330
5
100
AcDbSymbolTableRecord
100
AcDbLinetypeTableRecord
  2
PLINE10
 70
     0
  3
---------   ---   ---   --------
 72
    65
 73
     6
 40
20.0
 49
10.0
 74
     0
 49
-2.0
 74
     0
 49
2.0
 74
     0
 49
-2.0
 74
     0
 49
2.0
 74
     0
 49
-2.0
 74
     0
  0
LTYPE
  5
4D
330
5
100
AcDbSymbolTableRecord
100
AcDbLinetypeTableRecord
  2
PLINE11
 70
     0
  3
------     -----------     -----
 72
    65
 73
     2
 40
9.0
 49
6.299999999999999
 74
     0
 49
-2.7
 74
     0
  0
LTYPE
  5
4E
330
5
100
AcDbSymbolTableRecord
100
AcDbLinetypeTableRecord
  2
PLINE12
 70
     0
  3
------------   ---   -----------
 72
    65
 73
     4
 40
25.0
 49
17.5
 74
     0
 49
-2.5
 74
     0
 49
2.5
 74
     0
 49
-2.5
 74
     0
  0
LTYPE
  5
4F
330
5
100
AcDbSymbolTableRecord
100
AcDbLinetypeTableRecord
  2
PLINE13
 70
     0
  3
---------   ---   ---   --------
 72
    65
 73
     6
 40
25.0
 49
12.5
 74
     0
 49
-2.5
 74
     0
 49
2.5
 74
     0
 49
-2.5
 74
     0
 49
2.5
 74
     0
 49
-2.5
 74
     0
  0
LTYPE
  5
50
330
5
100
AcDbSymbolTableRecord
100
AcDbLinetypeTableRecord
  2
PLINE14
 70
     0
  3
------     -----------     -----
 72
    65
 73
     2
 40
11.0
 49
7.7
 74
     0
 49
-3.299999999999999
 74
     0
  0
LTYPE
  5
51
330
5
100
AcDbSymbolTableRecord
100
AcDbLinetypeTableRecord
  2
PLINE15
 70
     0
  3
------------   ---   -----------
 72
    65
 73
     4
 40
30.0
 49
21.0
 74
     0
 49
-3.0
 74
     0
 49
3.0
 74
     0
 49
-3.0
 74
     0
  0
LTYPE
  5
52
330
5
100
AcDbSymbolTableRecord
100
AcDbLinetypeTableRecord
  2
PLINE16
 70
     0
  3
---------   ---   ---   --------
 72
    65
 73
     6
 40
30.0
 49
15.0
 74
     0
 49
-3.0
 74
     0
 49
3.0
 74
     0
 49
-3.0
 74
     0
 49
3.0
 74
     0
 49
-3.0
 74
     0
  0
ENDTAB
  0
TABLE
  2
LAYER
  5
2
102
{ACAD_XDICTIONARY
360
175
102
}
330
0
100
AcDbSymbolTable
 70
     5
  0
LAYER
  5
10
330
2
100
AcDbSymbolTableRecord
100
AcDbLayerTableRecord
  2
0
 70
     0
 62
     7
  6
CONTINUOUS
370
    -3
390
F
  0
LAYER
  5
128
330
2
100
AcDbSymbolTableRecord
100
AcDbLayerTableRecord
  2
Defpoints
 70
     0
 62
     7
  6
CONTINUOUS
290
     0
370
    -3
390
F
  0
LAYER
  5
178
330
2
100
AcDbSymbolTableRecord
100
AcDbLayerTableRecord
  2
寸法
 70
     0
 62
     7
  6
CONTINUOUS
370
    -3
390
F
  0
LAYER
  5
179
330
2
100
AcDbSymbolTableRecord
100
AcDbLayerTableRecord
  2
躯体と製品
 70
     0
 62
     7
  6
CONTINUOUS
370
    -3
390
F
  0
LAYER
  5
4F62
330
2
100
AcDbSymbolTableRecord
100
AcDbLayerTableRecord
  2
図枠
 70
     0
 62
     7
  6
CONTINUOUS
370
    -3
390
F
  0
ENDTAB
  0
TABLE
  2
STYLE
  5
3
330
0
100
AcDbSymbolTable
 70
     5
  0
STYLE
  5
11
330
3
100
AcDbSymbolTableRecord
100
AcDbTextStyleTableRecord
  2
STANDARD
 70
     0
 40
0.0
 41
1.0
 50
0.0
 71
     0
 42
0.2
  3
txt
  4
bigfont.shx
  0
STYLE
  5
53
330
3
100
AcDbSymbolTableRecord
100
AcDbTextStyleTableRecord
  2
TATEGAKI
 70
     4
 40
0.0
 41
1.0
 50
0.0
 71
     0
 42
1.0
  3
txt
  4
bigfont.shx
  0
STYLE
  5
123
330
3
100
AcDbSymbolTableRecord
100
AcDbTextStyleTableRecord
  2
ACAD
 70
     0
 40
5.0
 41
0.8
 50
0.0
 71
     0
 42
5.0
  3
romans.shx
  4
extfont.shx
  0
STYLE
  5
3A5F
330
3
100
AcDbSymbolTableRecord
100
AcDbTextStyleTableRecord
  2
VERTXT
 70
     4
 40
0.0
 41
0.8582679999999999
 50
0.0
 71
     0
 42
3.5
  3
txt.shx
  4
BIGFONT
  0
STYLE
  5
50AD
330
3
100
AcDbSymbolTableRecord
100
AcDbTextStyleTableRecord
  2
STANDARD2
 70
     0
 40
0.0
 41
0.8582679999999999
 50
0.0
 71
     0
 42
3.5
  3
txt.shx
  4
EXTFONT
  0
ENDTAB
  0
TABLE
  2
VIEW
  5
6
330
0
100
AcDbSymbolTable
 70
     0
  0
ENDTAB
  0
TABLE
  2
UCS
  5
7
330
0
100
AcDbSymbolTable
 70
     0
  0
ENDTAB
  0
TABLE
  2
APPID
  5
9
330
0
100
AcDbSymbolTable
 70
     1
  0
APPID
  5
12
330
9
100
AcDbSymbolTableRecord
100
AcDbRegAppTableRecord
  2
ACAD
 70
     0
  0
ENDTAB
  0
TABLE
  2
DIMSTYLE
  5
A
330
0
100
AcDbSymbolTable
 70
     3
100
AcDbDimStyleTable
 71
     1
340
126
  0
DIMSTYLE
105
11C
330
A
100
AcDbSymbolTableRecord
100
AcDbDimStyleTableRecord
  2
Standard
 70
     0
340
11
  0
DIMSTYLE
105
126
102
{ACAD_REACTORS
330
7DDE
330
7DEA
330
7DF7
330
7E03
330
7E0F
330
7E27
330
7E34
330
7E41
330
7E4E
330
7E5B
330
7E68
330
7E75
330
7E82
330
7E8F
330
7F40
102
}
330
A
100
AcDbSymbolTableRecord
100
AcDbDimStyleTableRecord
  2
AutoCAD
 70
     0
 41
1.0
 42
0.0
 44
0.0
 73
     0
 77
     1
140
5.0
147
1.0
174
     1
176
     4
177
     4
178
     3
271
     0
272
     0
289
     0
340
123
341
15B0
342
11E
  0
DIMSTYLE
105
2CBB
330
A
100
AcDbSymbolTableRecord
100
AcDbDimStyleTableRecord
  2
111
 70
     0
 41
1.0
 42
0.0
 44
0.0
 73
     0
 77
     1
140
5.0
147
1.0
174
     1
176
     4
177
     4
178
     3
271
     0
272
     0
289
     0
340
123
341
15B0
342
2CB5
  0
ENDTAB
  0
TABLE
  2
BLOCK_RECORD
  5
1
330
0
100
AcDbSymbolTable
 70
    20
  0
BLOCK_RECORD
  5
1E
102
{ACAD_XDICTIONARY
360
28B
102
}
330
1
100
AcDbSymbolTableRecord
100
AcDbBlockTableRecord
  2
*Model_Space
340
21
  0
BLOCK_RECORD
  5
1A
102
{ACAD_XDICTIONARY
360
28D
102
}
330
1
100
AcDbSymbolTableRecord
100
AcDbBlockTableRecord
  2
*Paper_Space
340
1D
  0
BLOCK_RECORD
  5
11E
330
1
100
AcDbSymbolTableRecord
100
AcDbBlockTableRecord
  2
_Dot
340
0
102
{BLKREFS
331
7DFB
331
7DFC
331
7E07
331
7E08
331
7E39
331
7E3A
331
7E46
331
7E47
331
7E53
331
7E54
331
7E60
331
7E61
331
7E92
331
7E93
331
7EA6
331
7EA7
331
7EAF
331
7EB0
331
7EB8
331
7EB9
331
7EC1
331
7EC2
331
7ED9
331
7EDA
331
7EE1
331
7EE2
331
7EEA
331
7EEB
331
7F06
331
7F07
331
7F50
331
7F51
102
}
  0
BLOCK_RECORD
  5
15B0
330
1
100
AcDbSymbolTableRecord
100
AcDbBlockTableRecord
  2
_None
340
0
  0
BLOCK_RECORD
  5
2CB5
330
1
100
AcDbSymbolTableRecord
100
AcDbBlockTableRecord
  2
_Open30
340
0
  0
BLOCK_RECORD
  5
35E3
330
1
100
AcDbSymbolTableRecord
100
AcDbBlockTableRecord
  2
_DotBlank
340
0
  0
BLOCK_RECORD
  5
7DDF
330
1
100
AcDbSymbolTableRecord
100
AcDbBlockTableRecord
  2
*D4
340
0
  0
BLOCK_RECORD
  5
7DEB
330
1
100
AcDbSymbolTableRecord
100
AcDbBlockTableRecord
  2
*D5
340
0
  0
BLOCK_RECORD
  5
7DF8
330
1
100
AcDbSymbolTableRecord
100
AcDbBlockTableRecord
  2
*D6
340
0
  0
BLOCK_RECORD
  5
7E04
330
1
100
AcDbSymbolTableRecord
100
AcDbBlockTableRecord
  2
*D7
340
0
  0
BLOCK_RECORD
  5
7E10
330
1
100
AcDbSymbolTableRecord
100
AcDbBlockTableRecord
  2
*D8
340
0
  0
BLOCK_RECORD
  5
7E28
330
1
100
AcDbSymbolTableRecord
100
AcDbBlockTableRecord
  2
*D9
340
0
  0
BLOCK_RECORD
  5
7E35
330
1
100
AcDbSymbolTableRecord
100
AcDbBlockTableRecord
  2
*D10
340
0
  0
BLOCK_RECORD
  5
7E42
330
1
100
AcDbSymbolTableRecord
100
AcDbBlockTableRecord
  2
*D11
340
0
  0
BLOCK_RECORD
  5
7E4F
330
1
100
AcDbSymbolTableRecord
100
AcDbBlockTableRecord
  2
*D12
340
0
  0
BLOCK_RECORD
  5
7E5C
330
1
100
AcDbSymbolTableRecord
100
AcDbBlockTableRecord
  2
*D13
340
0
  0
BLOCK_RECORD
  5
7E69
330
1
100
AcDbSymbolTableRecord
100
AcDbBlockTableRecord
  2
*D14
340
0
  0
BLOCK_RECORD
  5
7E76
330
1
100
AcDbSymbolTableRecord
100
AcDbBlockTableRecord
  2
*D15
340
0
  0
BLOCK_RECORD
  5
7E83
330
1
100
AcDbSymbolTableRecord
100
AcDbBlockTableRecord
  2
*D16
340
0
  0
BLOCK_RECORD
  5
7E90
330
1
100
AcDbSymbolTableRecord
100
AcDbBlockTableRecord
  2
*D17
340
0
  0
BLOCK_RECORD
  5
7F41
330
1
100
AcDbSymbolTableRecord
100
AcDbBlockTableRecord
  2
*D19
340
0
  0
ENDTAB
  0
ENDSEC
  0
SECTION
  2
BLOCKS
  0
BLOCK
  5
1F
330
1E
100
AcDbEntity
  8
0
100
AcDbBlockBegin
  2
*Model_Space
 70
     0
 10
0.0
 20
0.0
 30
0.0
  3
*Model_Space
  1

  0
ENDBLK
  5
20
330
1E
100
AcDbEntity
  8
0
100
AcDbBlockEnd
  0
BLOCK
  5
1B
330
1A
100
AcDbEntity
 67
     1
  8
0
100
AcDbBlockBegin
  2
*Paper_Space
 70
     0
 10
0.0
 20
0.0
 30
0.0
  3
*Paper_Space
  1

  0
ENDBLK
  5
1C
330
1A
100
AcDbEntity
 67
     1
  8
0
100
AcDbBlockEnd
  0
BLOCK
  5
121
330
11E
100
AcDbEntity
  8
0
100
AcDbBlockBegin
  2
_Dot
 70
     0
 10
0.0
 20
0.0
 30
0.0
  3
_Dot
  1

  0
LWPOLYLINE
  5
11F
330
11E
100
AcDbEntity
  8
0
  6
ByBlock
 62
     0
100
AcDbPolyline
 90
        2
 70
     1
 43
0.5
 10
-0.25
 20
0.0
 42
1.0
 10
0.25
 20
0.0
 42
1.0
  0
LINE
  5
120
330
11E
100
AcDbEntity
  8
0
  6
ByBlock
 62
     0
370
    -2
100
AcDbLine
 10
-0.5
 20
0.0
 30
0.0
 11
-1.0
 21
0.0
 31
0.0
  0
ENDBLK
  5
122
330
11E
100
AcDbEntity
  8
0
100
AcDbBlockEnd
  0
BLOCK
  5
15B1
330
15B0
100
AcDbEntity
  8
0
100
AcDbBlockBegin
  2
_None
 70
     0
 10
0.0
 20
0.0
 30
0.0
  3
_None
  1

  0
ENDBLK
  5
15B2
330
15B0
100
AcDbEntity
  8
0
100
AcDbBlockEnd
  0
BLOCK
  5
2CB9
330
2CB5
100
AcDbEntity
  8
0
100
AcDbBlockBegin
  2
_Open30
 70
     0
 10
0.0
 20
0.0
 30
0.0
  3
_Open30
  1

  0
LINE
  5
2CB6
330
2CB5
100
AcDbEntity
  8
0
  6
ByBlock
 62
     0
370
    -2
100
AcDbLine
 10
-1.0
 20
0.26794919
 30
0.0
 11
0.0
 21
0.0
 31
0.0
  0
LINE
  5
2CB7
330
2CB5
100
AcDbEntity
  8
0
  6
ByBlock
 62
     0
370
    -2
100
AcDbLine
 10
0.0
 20
0.0
 30
0.0
 11
-1.0
 21
-0.26794919
 31
0.0
  0
LINE
  5
2CB8
330
2CB5
100
AcDbEntity
  8
0
  6
ByBlock
 62
     0
370
    -2
100
AcDbLine
 10
0.0
 20
0.0
 30
0.0
 11
-1.0
 21
0.0
 31
0.0
  0
ENDBLK
  5
2CBA
330
2CB5
100
AcDbEntity
  8
0
100
AcDbBlockEnd
  0
BLOCK
  5
35E6
330
35E3
100
AcDbEntity
  8
0
100
AcDbBlockBegin
  2
_DotBlank
 70
     0
 10
0.0
 20
0.0
 30
0.0
  3
_DotBlank
  1

  0
CIRCLE
  5
35E4
330
35E3
100
AcDbEntity
  8
0
  6
ByBlock
 62
     0
370
    -2
100
AcDbCircle
 10
0.0
 20
0.0
 30
0.0
 40
0.5
  0
LINE
  5
35E5
330
35E3
100
AcDbEntity
  8
0
  6
ByBlock
 62
     0
370
    -2
100
AcDbLine
 10
-0.5
 20
0.0
 30
0.0
 11
-1.0
 21
0.0
 31
0.0
  0
ENDBLK
  5
35E7
330
35E3
100
AcDbEntity
  8
0
100
AcDbBlockEnd
  0
BLOCK
  5
7DE8
330
7DDF
100
AcDbEntity
  8
0
100
AcDbBlockBegin
  2
*D4
 70
     1
 10
0.0
 20
0.0
 30
0.0
  3
*D4
  1

  0
LINE
  5
7EDF
330
7DDF
100
AcDbEntity
  8
寸法
  6
Continuous
 62
     4
370
    -2
100
AcDbLine
 10
1432.509470993259
 20
735.0612494069964
 30
0.0
 11
1379.509470993259
 21
735.0612494069964
 31
0.0
  0
LINE
  5
7EE0
330
7DDF
100
AcDbEntity
  8
寸法
  6
Continuous
 62
     4
370
    -2
100
AcDbLine
 10
1379.509470993259
 20
736.0612494069965
 30
0.0
 11
1379.509470993259
 21
790.332899280306
 31
0.0
  0
INSERT
  5
7EE1
330
7DDF
100
AcDbEntity
  8
寸法
  6
Continuous
 62
     4
370
    -2
100
AcDbBlockReference
  2
_Dot
 10
1379.509470993259
 20
735.0612494069964
 30
0.0
 50
270.0
  0
INSERT
  5
7EE2
330
7DDF
100
AcDbEntity
  8
寸法
  6
Continuous
 62
     4
370
    -2
100
AcDbBlockReference
  2
_Dot
 10
1379.509470993259
 20
791.332899280306
 30
0.0
 50
90.0
  0
MTEXT
  5
7EE3
330
7DDF
100
AcDbEntity
  8
寸法
  6
Continuous
 62
     3
100
AcDbMText
 10
1376.009470993259
 20
763.1970743436514
 30
0.0
 40
5.0
 41
0.0
 71
     5
 72
     1
  1
\A1;D
  7
ACAD
 11
0.0000000000000001
 21
1.0
 31
0.0
 73
     1
 44
1.0
1001
ACAD
1000
MTEXTBEGIN
1070
    73
1070
     1
1070
    44
1040
1.0
1070
    74
1070
     0
1000
MTEXTEND
  0
POINT
  5
7EE4
330
7DDF
100
AcDbEntity
  8
Defpoints
  6
Continuous
 62
     0
100
AcDbPoint
 10
1432.509470993259
 20
735.0612494069964
 30
0.0
  0
POINT
  5
7EE5
330
7DDF
100
AcDbEntity
  8
Defpoints
  6
Continuous
 62
     0
100
AcDbPoint
 10
1379.509470993259
 20
791.332899280306
 30
0.0
  0
POINT
  5
7EE6
330
7DDF
100
AcDbEntity
  8
Defpoints
  6
Continuous
 62
     0
100
AcDbPoint
 10
1379.509470993259
 20
791.332899280306
 30
0.0
  0
ENDBLK
  5
7DE9
330
7DDF
100
AcDbEntity
  8
0
100
AcDbBlockEnd
  0
BLOCK
  5
7DF5
330
7DEB
100
AcDbEntity
  8
0
100
AcDbBlockBegin
  2
*D5
 70
     1
 10
0.0
 20
0.0
 30
0.0
  3
*D5
  1

  0
LINE
  5
7EE7
330
7DEB
100
AcDbEntity
  8
寸法
  6
Continuous
 62
     4
370
    -2
100
AcDbLine
 10
1432.509470993259
 20
735.0612494069964
 30
0.0
 11
1359.509470993259
 21
735.0612494069964
 31
0.0
  0
LINE
  5
7EE8
330
7DEB
100
AcDbEntity
  8
寸法
  6
Continuous
 62
     4
370
    -2
100
AcDbLine
 10
1432.509470993259
 20
850.332899280306
 30
0.0
 11
1359.509470993259
 21
850.332899280306
 31
0.0
  0
LINE
  5
7EE9
330
7DEB
100
AcDbEntity
  8
寸法
  6
Continuous
 62
     4
370
    -2
100
AcDbLine
 10
1359.509470993259
 20
736.0612494069965
 30
0.0
 11
1359.509470993259
 21
849.3328992803061
 31
0.0
  0
INSERT
  5
7EEA
330
7DEB
100
AcDbEntity
  8
寸法
  6
Continuous
 62
     4
370
    -2
100
AcDbBlockReference
  2
_Dot
 10
1359.509470993259
 20
735.0612494069964
 30
0.0
 50
270.0
  0
INSERT
  5
7EEB
330
7DEB
100
AcDbEntity
  8
寸法
  6
Continuous
 62
     4
370
    -2
100
AcDbBlockReference
  2
_Dot
 10
1359.509470993259
 20
850.332899280306
 30
0.0
 50
90.0
  0
MTEXT
  5
7EEC
330
7DEB
100
AcDbEntity
  8
寸法
  6
Continuous
 62
     3
100
AcDbMText
 10
1356.009470993259
 20
792.6970743436514
 30
0.0
 40
5.0
 41
0.0
 71
     5
 72
     1
  1
\A1;E
  7
ACAD
 11
0.0000000000000001
 21
1.0
 31
0.0
 73
     1
 44
1.0
1001
ACAD
1000
MTEXTBEGIN
1070
    73
1070
     1
1070
    44
1040
1.0
1070
    74
1070
     0
1000
MTEXTEND
  0
POINT
  5
7EED
330
7DEB
100
AcDbEntity
  8
Defpoints
  6
Continuous
 62
     0
100
AcDbPoint
 10
1432.509470993259
 20
735.0612494069964
 30
0.0
  0
POINT
  5
7EEE
330
7DEB
100
AcDbEntity
  8
Defpoints
  6
Continuous
 62
     0
100
AcDbPoint
 10
1432.509470993259
 20
850.332899280306
 30
0.0
  0
POINT
  5
7EEF
330
7DEB
100
AcDbEntity
  8
Defpoints
  6
Continuous
 62
     0
100
AcDbPoint
 10
1359.509470993259
 20
850.332899280306
 30
0.0
  0
ENDBLK
  5
7DF6
330
7DEB
100
AcDbEntity
  8
0
100
AcDbBlockEnd
  0
BLOCK
  5
7E01
330
7DF8
100
AcDbEntity
  8
0
100
AcDbBlockBegin
  2
*D6
 70
     1
 10
0.0
 20
0.0
 30
0.0
  3
*D6
  1

  0
LINE
  5
7DF9
330
7DF8
100
AcDbEntity
  8
寸法
  6
Continuous
 62
     4
370
    -2
100
AcDbLine
 10
1434.509470993259
 20
733.0612494069964
 30
0.0
 11
1434.509470993259
 21
630.0612494069964
 31
0.0
  0
LINE
  5
7DFA
330
7DF8
100
AcDbEntity
  8
寸法
  6
Continuous
 62
     4
370
    -2
100
AcDbLine
 10
1435.509470993259
 20
630.0612494069964
 30
0.0
 11
1458.509470993259
 21
630.0612494069964
 31
0.0
  0
INSERT
  5
7DFB
330
7DF8
100
AcDbEntity
  8
寸法
  6
Continuous
 62
     4
370
    -2
100
AcDbBlockReference
  2
_Dot
 10
1434.509470993259
 20
630.0612494069964
 30
0.0
 50
180.0
  0
INSERT
  5
7DFC
330
7DF8
100
AcDbEntity
  8
寸法
  6
Continuous
 62
     4
370
    -2
100
AcDbBlockReference
  2
_Dot
 10
1459.509470993259
 20
630.0612494069964
 30
0.0
  0
MTEXT
  5
7DFD
330
7DF8
100
AcDbEntity
  8
寸法
  6
Continuous
 62
     3
100
AcDbMText
 10
1447.009470993259
 20
633.5612494069964
 30
0.0
 40
5.0
 41
0.0
 71
     5
 72
     1
  1
\A1;25
  7
ACAD
 73
     1
 44
1.0
1001
ACAD
1000
MTEXTBEGIN
1070
    73
1070
     1
1070
    44
1040
1.0
1070
    74
1070
     0
1000
MTEXTEND
  0
POINT
  5
7DFE
330
7DF8
100
AcDbEntity
  8
Defpoints
  6
Continuous
 62
     0
100
AcDbPoint
 10
1434.509470993259
 20
733.0612494069964
 30
0.0
  0
POINT
  5
7DFF
330
7DF8
100
AcDbEntity
  8
Defpoints
  6
Continuous
 62
     0
100
AcDbPoint
 10
1459.509470993259
 20
630.0612494069964
 30
0.0
  0
POINT
  5
7E00
330
7DF8
100
AcDbEntity
  8
Defpoints
  6
Continuous
 62
     0
100
AcDbPoint
 10
1459.509470993259
 20
630.0612494069964
 30
0.0
  0
ENDBLK
  5
7E02
330
7DF8
100
AcDbEntity
  8
0
100
AcDbBlockEnd
  0
BLOCK
  5
7E0D
330
7E04
100
AcDbEntity
  8
0
100
AcDbBlockBegin
  2
*D7
 70
     1
 10
0.0
 20
0.0
 30
0.0
  3
*D7
  1

  0
LINE
  5
7E05
330
7E04
100
AcDbEntity
  8
寸法
  6
Continuous
 62
     4
370
    -2
100
AcDbLine
 10
1459.509470993259
 20
629.8112494069965
 30
0.0
 11
1459.509470993259
 21
630.0612494069964
 31
0.0
  0
LINE
  5
7E06
330
7E04
100
AcDbEntity
  8
寸法
  6
Continuous
 62
     4
370
    -2
100
AcDbLine
 10
1460.509470993259
 20
630.0612494069964
 30
0.0
 11
1508.50947099326
 21
630.0612494069964
 31
0.0
  0
INSERT
  5
7E07
330
7E04
100
AcDbEntity
  8
寸法
  6
Continuous
 62
     4
370
    -2
100
AcDbBlockReference
  2
_Dot
 10
1459.509470993259
 20
630.0612494069964
 30
0.0
 50
180.0
  0
INSERT
  5
7E08
330
7E04
100
AcDbEntity
  8
寸法
  6
Continuous
 62
     4
370
    -2
100
AcDbBlockReference
  2
_Dot
 10
1509.50947099326
 20
630.0612494069964
 30
0.0
  0
MTEXT
  5
7E09
330
7E04
100
AcDbEntity
  8
寸法
  6
Continuous
 62
     3
100
AcDbMText
 10
1484.509470993259
 20
633.5612494069964
 30
0.0
 40
5.0
 41
0.0
 71
     5
 72
     1
  1
\A1;50
  7
ACAD
 73
     1
 44
1.0
1001
ACAD
1000
MTEXTBEGIN
1070
    73
1070
     1
1070
    44
1040
1.0
1070
    74
1070
     0
1000
MTEXTEND
  0
POINT
  5
7E0A
330
7E04
100
AcDbEntity
  8
Defpoints
  6
Continuous
 62
     0
100
AcDbPoint
 10
1459.509470993259
 20
629.8112494069965
 30
0.0
  0
POINT
  5
7E0B
330
7E04
100
AcDbEntity
  8
Defpoints
  6
Continuous
 62
     0
100
AcDbPoint
 10
1509.50947099326
 20
630.0612494069964
 30
0.0
  0
POINT
  5
7E0C
330
7E04
100
AcDbEntity
  8
Defpoints
  6
Continuous
 62
     0
100
AcDbPoint
 10
1509.50947099326
 20
630.0612494069964
 30
0.0
  0
ENDBLK
  5
7E0E
330
7E04
100
AcDbEntity
  8
0
100
AcDbBlockEnd
  0
BLOCK
  5
7E19
330
7E10
100
AcDbEntity
  8
0
100
AcDbBlockBegin
  2
*D8
 70
     1
 10
0.0
 20
0.0
 30
0.0
  3
*D8
  1

  0
LINE
  5
7ED7
330
7E10
100
AcDbEntity
  8
寸法
  6
Continuous
 62
     4
370
    -2
100
AcDbLine
 10
1509.509470993259
 20
629.8112494069965
 30
0.0
 11
1509.509470993259
 21
630.0612494069964
 31
0.0
  0
LINE
  5
7ED8
330
7E10
100
AcDbEntity
  8
寸法
  6
Continuous
 62
     4
370
    -2
100
AcDbLine
 10
1510.509470993259
 20
630.0612494069964
 30
0.0
 11
1608.509470993259
 21
630.0612494069964
 31
0.0
  0
INSERT
  5
7ED9
330
7E10
100
AcDbEntity
  8
寸法
  6
Continuous
 62
     4
370
    -2
100
AcDbBlockReference
  2
_Dot
 10
1509.509470993259
 20
630.0612494069964
 30
0.0
 50
180.0
  0
INSERT
  5
7EDA
330
7E10
100
AcDbEntity
  8
寸法
  6
Continuous
 62
     4
370
    -2
100
AcDbBlockReference
  2
_Dot
 10
1609.509470993259
 20
630.0612494069964
 30
0.0
  0
MTEXT
  5
7EDB
330
7E10
100
AcDbEntity
  8
寸法
  6
Continuous
 62
     3
100
AcDbMText
 10
1559.509470993259
 20
633.5612494069964
 30
0.0
 40
5.0
 41
0.0
 71
     5
 72
     1
  1
\A1;≦Ｃ
  7
ACAD
 73
     1
 44
1.0
1001
ACAD
1000
MTEXTBEGIN
1070
    73
1070
     1
1070
    44
1040
1.0
1070
    74
1070
     0
1000
MTEXTEND
  0
POINT
  5
7EDC
330
7E10
100
AcDbEntity
  8
Defpoints
  6
Continuous
 62
     0
100
AcDbPoint
 10
1509.509470993259
 20
629.8112494069965
 30
0.0
  0
POINT
  5
7EDD
330
7E10
100
AcDbEntity
  8
Defpoints
  6
Continuous
 62
     0
100
AcDbPoint
 10
1609.509470993259
 20
630.0612494069964
 30
0.0
  0
POINT
  5
7EDE
330
7E10
100
AcDbEntity
  8
Defpoints
  6
Continuous
 62
     0
100
AcDbPoint
 10
1609.509470993259
 20
630.0612494069964
 30
0.0
  0
ENDBLK
  5
7E1A
330
7E10
100
AcDbEntity
  8
0
100
AcDbBlockEnd
  0
BLOCK
  5
7E32
330
7E28
100
AcDbEntity
  8
0
100
AcDbBlockBegin
  2
*D9
 70
     1
 10
0.0
 20
0.0
 30
0.0
  3
*D9
  1

  0
LINE
  5
7EBE
330
7E28
100
AcDbEntity
  8
寸法
  6
Continuous
 62
     4
370
    -2
100
AcDbLine
 10
1662.509470993259
 20
693.4414035503898
 30
0.0
 11
1700.509470993259
 21
693.4414035503898
 31
0.0
  0
LINE
  5
7EBF
330
7E28
100
AcDbEntity
  8
寸法
  6
Continuous
 62
     4
370
    -2
100
AcDbLine
 10
1613.509470993261
 20
735.0612494069964
 30
0.0
 11
1700.509470993259
 21
735.0612494069964
 31
0.0
  0
LINE
  5
7EC0
330
7E28
100
AcDbEntity
  8
寸法
  6
Continuous
 62
     4
370
    -2
100
AcDbLine
 10
1700.509470993259
 20
694.4414035503898
 30
0.0
 11
1700.509470993259
 21
734.0612494069964
 31
0.0
  0
INSERT
  5
7EC1
330
7E28
100
AcDbEntity
  8
寸法
  6
Continuous
 62
     4
370
    -2
100
AcDbBlockReference
  2
_Dot
 10
1700.509470993259
 20
693.4414035503898
 30
0.0
 50
270.0
  0
INSERT
  5
7EC2
330
7E28
100
AcDbEntity
  8
寸法
  6
Continuous
 62
     4
370
    -2
100
AcDbBlockReference
  2
_Dot
 10
1700.509470993259
 20
735.0612494069964
 30
0.0
 50
90.0
  0
MTEXT
  5
7EC3
330
7E28
100
AcDbEntity
  8
寸法
  6
Continuous
 62
     3
100
AcDbMText
 10
1697.009470993259
 20
714.2513264786933
 30
0.0
 40
5.0
 41
0.0
 71
     5
 72
     1
  1
\A1;44
  7
ACAD
 11
0.0000000000000001
 21
1.0
 31
0.0
 73
     1
 44
1.0
1001
ACAD
1000
MTEXTBEGIN
1070
    73
1070
     1
1070
    44
1040
1.0
1070
    74
1070
     0
1000
MTEXTEND
  0
POINT
  5
7EC4
330
7E28
100
AcDbEntity
  8
Defpoints
  6
Continuous
 62
     0
100
AcDbPoint
 10
1662.509470993259
 20
693.4414035503898
 30
0.0
  0
POINT
  5
7EC5
330
7E28
100
AcDbEntity
  8
Defpoints
  6
Continuous
 62
     0
100
AcDbPoint
 10
1613.509470993261
 20
735.0612494069964
 30
0.0
  0
POINT
  5
7EC6
330
7E28
100
AcDbEntity
  8
Defpoints
  6
Continuous
 62
     0
100
AcDbPoint
 10
1700.509470993259
 20
735.0612494069964
 30
0.0
  0
ENDBLK
  5
7E33
330
7E28
100
AcDbEntity
  8
0
100
AcDbBlockEnd
  0
BLOCK
  5
7E3F
330
7E35
100
AcDbEntity
  8
0
100
AcDbBlockBegin
  2
*D10
 70
     1
 10
0.0
 20
0.0
 30
0.0
  3
*D10
  1

  0
LINE
  5
7E36
330
7E35
100
AcDbEntity
  8
寸法
  6
Continuous
 62
     4
370
    -2
100
AcDbLine
 10
1662.509470993259
 20
693.4414035503898
 30
0.0
 11
1720.509470993259
 21
693.4414035503898
 31
0.0
  0
LINE
  5
7E37
330
7E35
100
AcDbEntity
  8
寸法
  6
Continuous
 62
     4
370
    -2
100
AcDbLine
 10
1662.509470993259
 20
783.4414035503898
 30
0.0
 11
1720.509470993259
 21
783.4414035503898
 31
0.0
  0
LINE
  5
7E38
330
7E35
100
AcDbEntity
  8
寸法
  6
Continuous
 62
     4
370
    -2
100
AcDbLine
 10
1720.509470993259
 20
694.4414035503898
 30
0.0
 11
1720.509470993259
 21
782.4414035503898
 31
0.0
  0
INSERT
  5
7E39
330
7E35
100
AcDbEntity
  8
寸法
  6
Continuous
 62
     4
370
    -2
100
AcDbBlockReference
  2
_Dot
 10
1720.509470993259
 20
693.4414035503898
 30
0.0
 50
270.0
  0
INSERT
  5
7E3A
330
7E35
100
AcDbEntity
  8
寸法
  6
Continuous
 62
     4
370
    -2
100
AcDbBlockReference
  2
_Dot
 10
1720.509470993259
 20
783.4414035503898
 30
0.0
 50
90.0
  0
MTEXT
  5
7E3B
330
7E35
100
AcDbEntity
  8
寸法
  6
Continuous
 62
     3
100
AcDbMText
 10
1717.009470993259
 20
738.44140355039
 30
0.0
 40
5.0
 41
0.0
 71
     5
 72
     1
  1
\A1;90
  7
ACAD
 11
0.0000000000000001
 21
1.0
 31
0.0
 73
     1
 44
1.0
1001
ACAD
1000
MTEXTBEGIN
1070
    73
1070
     1
1070
    44
1040
1.0
1070
    74
1070
     0
1000
MTEXTEND
  0
POINT
  5
7E3C
330
7E35
100
AcDbEntity
  8
Defpoints
  6
Continuous
 62
     0
100
AcDbPoint
 10
1662.509470993259
 20
693.4414035503898
 30
0.0
  0
POINT
  5
7E3D
330
7E35
100
AcDbEntity
  8
Defpoints
  6
Continuous
 62
     0
100
AcDbPoint
 10
1662.509470993259
 20
783.4414035503898
 30
0.0
  0
POINT
  5
7E3E
330
7E35
100
AcDbEntity
  8
Defpoints
  6
Continuous
 62
     0
100
AcDbPoint
 10
1720.509470993259
 20
783.4414035503898
 30
0.0
  0
ENDBLK
  5
7E40
330
7E35
100
AcDbEntity
  8
0
100
AcDbBlockEnd
  0
BLOCK
  5
7E4C
330
7E42
100
AcDbEntity
  8
0
100
AcDbBlockBegin
  2
*D11
 70
     1
 10
0.0
 20
0.0
 30
0.0
  3
*D11
  1

  0
LINE
  5
7E43
330
7E42
100
AcDbEntity
  8
寸法
  6
Continuous
 62
     4
370
    -2
100
AcDbLine
 10
1471.009470993259
 20
799.332899280306
 30
0.0
 11
1504.009470993259
 21
799.332899280306
 31
0.0
  0
LINE
  5
7E44
330
7E42
100
AcDbEntity
  8
寸法
  6
Continuous
 62
     4
370
    -2
100
AcDbLine
 10
1471.009470993259
 20
835.3328992803058
 30
0.0
 11
1504.009470993259
 21
835.3328992803058
 31
0.0
  0
LINE
  5
7E45
330
7E42
100
AcDbEntity
  8
寸法
  6
Continuous
 62
     4
370
    -2
100
AcDbLine
 10
1504.009470993259
 20
800.332899280306
 30
0.0
 11
1504.009470993259
 21
834.3328992803058
 31
0.0
  0
INSERT
  5
7E46
330
7E42
100
AcDbEntity
  8
寸法
  6
Continuous
 62
     4
370
    -2
100
AcDbBlockReference
  2
_Dot
 10
1504.009470993259
 20
799.332899280306
 30
0.0
 50
270.0
  0
INSERT
  5
7E47
330
7E42
100
AcDbEntity
  8
寸法
  6
Continuous
 62
     4
370
    -2
100
AcDbBlockReference
  2
_Dot
 10
1504.009470993259
 20
835.3328992803058
 30
0.0
 50
90.0
  0
MTEXT
  5
7E48
330
7E42
100
AcDbEntity
  8
寸法
  6
Continuous
 62
     3
100
AcDbMText
 10
1500.509470993259
 20
817.332899280306
 30
0.0
 40
5.0
 41
0.0
 71
     5
 72
     1
  1
\A1;36
  7
ACAD
 11
0.0000000000000001
 21
1.0
 31
0.0
 73
     1
 44
1.0
1001
ACAD
1000
MTEXTBEGIN
1070
    73
1070
     1
1070
    44
1040
1.0
1070
    74
1070
     0
1000
MTEXTEND
  0
POINT
  5
7E49
330
7E42
100
AcDbEntity
  8
Defpoints
  6
Continuous
 62
     0
100
AcDbPoint
 10
1471.009470993259
 20
799.332899280306
 30
0.0
  0
POINT
  5
7E4A
330
7E42
100
AcDbEntity
  8
Defpoints
  6
Continuous
 62
     0
100
AcDbPoint
 10
1471.009470993259
 20
835.3328992803058
 30
0.0
  0
POINT
  5
7E4B
330
7E42
100
AcDbEntity
  8
Defpoints
  6
Continuous
 62
     0
100
AcDbPoint
 10
1504.009470993259
 20
835.3328992803058
 30
0.0
  0
ENDBLK
  5
7E4D
330
7E42
100
AcDbEntity
  8
0
100
AcDbBlockEnd
  0
BLOCK
  5
7E59
330
7E4F
100
AcDbEntity
  8
0
100
AcDbBlockBegin
  2
*D12
 70
     1
 10
0.0
 20
0.0
 30
0.0
  3
*D12
  1

  0
LINE
  5
7E50
330
7E4F
100
AcDbEntity
  8
寸法
  6
Continuous
 62
     4
370
    -2
100
AcDbLine
 10
1471.009470993259
 20
835.3328992803058
 30
0.0
 11
1504.009470993259
 21
835.3328992803058
 31
0.0
  0
LINE
  5
7E51
330
7E4F
100
AcDbEntity
  8
寸法
  6
Continuous
 62
     4
370
    -2
100
AcDbLine
 10
1461.509470993259
 20
850.332899280306
 30
0.0
 11
1504.009470993259
 21
850.332899280306
 31
0.0
  0
LINE
  5
7E52
330
7E4F
100
AcDbEntity
  8
寸法
  6
Continuous
 62
     4
370
    -2
100
AcDbLine
 10
1504.009470993259
 20
836.3328992803058
 30
0.0
 11
1504.009470993259
 21
849.3328992803061
 31
0.0
  0
INSERT
  5
7E53
330
7E4F
100
AcDbEntity
  8
寸法
  6
Continuous
 62
     4
370
    -2
100
AcDbBlockReference
  2
_Dot
 10
1504.009470993259
 20
835.3328992803058
 30
0.0
 50
270.0
  0
INSERT
  5
7E54
330
7E4F
100
AcDbEntity
  8
寸法
  6
Continuous
 62
     4
370
    -2
100
AcDbBlockReference
  2
_Dot
 10
1504.009470993259
 20
850.332899280306
 30
0.0
 50
90.0
  0
MTEXT
  5
7E55
330
7E4F
100
AcDbEntity
  8
寸法
  6
Continuous
 62
     3
100
AcDbMText
 10
1500.509470993259
 20
842.8328992803061
 30
0.0
 40
5.0
 41
0.0
 71
     5
 72
     1
  1
\A1;15
  7
ACAD
 11
0.0000000000000001
 21
1.0
 31
0.0
 73
     1
 44
1.0
1001
ACAD
1000
MTEXTBEGIN
1070
    73
1070
     1
1070
    44
1040
1.0
1070
    74
1070
     0
1000
MTEXTEND
  0
POINT
  5
7E56
330
7E4F
100
AcDbEntity
  8
Defpoints
  6
Continuous
 62
     0
100
AcDbPoint
 10
1471.009470993259
 20
835.3328992803058
 30
0.0
  0
POINT
  5
7E57
330
7E4F
100
AcDbEntity
  8
Defpoints
  6
Continuous
 62
     0
100
AcDbPoint
 10
1461.509470993259
 20
850.332899280306
 30
0.0
  0
POINT
  5
7E58
330
7E4F
100
AcDbEntity
  8
Defpoints
  6
Continuous
 62
     0
100
AcDbPoint
 10
1504.009470993259
 20
850.332899280306
 30
0.0
  0
ENDBLK
  5
7E5A
330
7E4F
100
AcDbEntity
  8
0
100
AcDbBlockEnd
  0
BLOCK
  5
7E66
330
7E5C
100
AcDbEntity
  8
0
100
AcDbBlockBegin
  2
*D13
 70
     1
 10
0.0
 20
0.0
 30
0.0
  3
*D13
  1

  0
LINE
  5
7E5D
330
7E5C
100
AcDbEntity
  8
寸法
  6
Continuous
 62
     4
370
    -2
100
AcDbLine
 10
1449.009470993259
 20
852.332899280306
 30
0.0
 11
1449.009470993259
 21
885.3328992803058
 31
0.0
  0
LINE
  5
7E5E
330
7E5C
100
AcDbEntity
  8
寸法
  6
Continuous
 62
     4
370
    -2
100
AcDbLine
 10
1469.009470993259
 20
838.6045491536156
 30
0.0
 11
1469.009470993259
 21
885.3328992803058
 31
0.0
  0
LINE
  5
7E5F
330
7E5C
100
AcDbEntity
  8
寸法
  6
Continuous
 62
     4
370
    -2
100
AcDbLine
 10
1450.009470993259
 20
885.3328992803058
 30
0.0
 11
1468.009470993259
 21
885.3328992803058
 31
0.0
  0
INSERT
  5
7E60
330
7E5C
100
AcDbEntity
  8
寸法
  6
Continuous
 62
     4
370
    -2
100
AcDbBlockReference
  2
_Dot
 10
1449.009470993259
 20
885.3328992803058
 30
0.0
 50
180.0
  0
INSERT
  5
7E61
330
7E5C
100
AcDbEntity
  8
寸法
  6
Continuous
 62
     4
370
    -2
100
AcDbBlockReference
  2
_Dot
 10
1469.009470993259
 20
885.3328992803058
 30
0.0
  0
MTEXT
  5
7E62
330
7E5C
100
AcDbEntity
  8
寸法
  6
Continuous
 62
     3
100
AcDbMText
 10
1459.009470993259
 20
888.8328992803058
 30
0.0
 40
5.0
 41
0.0
 71
     5
 72
     1
  1
\A1;20
  7
ACAD
 73
     1
 44
1.0
1001
ACAD
1000
MTEXTBEGIN
1070
    73
1070
     1
1070
    44
1040
1.0
1070
    74
1070
     0
1000
MTEXTEND
  0
POINT
  5
7E63
330
7E5C
100
AcDbEntity
  8
Defpoints
  6
Continuous
 62
     0
100
AcDbPoint
 10
1449.009470993259
 20
852.332899280306
 30
0.0
  0
POINT
  5
7E64
330
7E5C
100
AcDbEntity
  8
Defpoints
  6
Continuous
 62
     0
100
AcDbPoint
 10
1469.009470993259
 20
838.6045491536156
 30
0.0
  0
POINT
  5
7E65
330
7E5C
100
AcDbEntity
  8
Defpoints
  6
Continuous
 62
     0
100
AcDbPoint
 10
1469.009470993259
 20
885.3328992803058
 30
0.0
  0
ENDBLK
  5
7E67
330
7E5C
100
AcDbEntity
  8
0
100
AcDbBlockEnd
  0
BLOCK
  5
7E73
330
7E69
100
AcDbEntity
  8
0
100
AcDbBlockBegin
  2
*D14
 70
     1
 10
0.0
 20
0.0
 30
0.0
  3
*D14
  1

  0
LINE
  5
7EAC
330
7E69
100
AcDbEntity
  8
寸法
  6
Continuous
 62
     4
370
    -2
100
AcDbLine
 10
1435.509470993259
 20
837.332899280306
 30
0.0
 11
1435.509470993259
 21
900.332899280306
 31
0.0
  0
LINE
  5
7EAD
330
7E69
100
AcDbEntity
  8
寸法
  6
Continuous
 62
     4
370
    -2
100
AcDbLine
 10
1469.009470993259
 20
838.6045491536156
 30
0.0
 11
1469.009470993259
 21
900.332899280306
 31
0.0
  0
LINE
  5
7EAE
330
7E69
100
AcDbEntity
  8
寸法
  6
Continuous
 62
     4
370
    -2
100
AcDbLine
 10
1436.509470993259
 20
900.332899280306
 30
0.0
 11
1468.009470993259
 21
900.332899280306
 31
0.0
  0
INSERT
  5
7EAF
330
7E69
100
AcDbEntity
  8
寸法
  6
Continuous
 62
     4
370
    -2
100
AcDbBlockReference
  2
_Dot
 10
1435.509470993259
 20
900.332899280306
 30
0.0
 50
180.0
  0
INSERT
  5
7EB0
330
7E69
100
AcDbEntity
  8
寸法
  6
Continuous
 62
     4
370
    -2
100
AcDbBlockReference
  2
_Dot
 10
1469.009470993259
 20
900.332899280306
 30
0.0
  0
MTEXT
  5
7EB1
330
7E69
100
AcDbEntity
  8
寸法
  6
Continuous
 62
     3
100
AcDbMText
 10
1452.259470993259
 20
903.8328992803061
 30
0.0
 40
5.0
 41
0.0
 71
     5
 72
     1
  1
\A1;33.5
  7
ACAD
 73
     1
 44
1.0
1001
ACAD
1000
MTEXTBEGIN
1070
    73
1070
     1
1070
    44
1040
1.0
1070
    74
1070
     0
1000
MTEXTEND
  0
POINT
  5
7EB2
330
7E69
100
AcDbEntity
  8
Defpoints
  6
Continuous
 62
     0
100
AcDbPoint
 10
1435.509470993259
 20
837.332899280306
 30
0.0
  0
POINT
  5
7EB3
330
7E69
100
AcDbEntity
  8
Defpoints
  6
Continuous
 62
     0
100
AcDbPoint
 10
1469.009470993259
 20
838.6045491536156
 30
0.0
  0
POINT
  5
7EB4
330
7E69
100
AcDbEntity
  8
Defpoints
  6
Continuous
 62
     0
100
AcDbPoint
 10
1469.009470993259
 20
900.332899280306
 30
0.0
  0
ENDBLK
  5
7E74
330
7E69
100
AcDbEntity
  8
0
100
AcDbBlockEnd
  0
BLOCK
  5
7E80
330
7E76
100
AcDbEntity
  8
0
100
AcDbBlockBegin
  2
*D15
 70
     1
 10
0.0
 20
0.0
 30
0.0
  3
*D15
  1

  0
LINE
  5
7EA3
330
7E76
100
AcDbEntity
  8
寸法
  6
Continuous
 62
     4
370
    -2
100
AcDbLine
 10
1435.509470993259
 20
837.332899280306
 30
0.0
 11
1435.509470993259
 21
915.3328992803061
 31
0.0
  0
LINE
  5
7EA4
330
7E76
100
AcDbEntity
  8
寸法
  6
Continuous
 62
     4
370
    -2
100
AcDbLine
 10
1660.509470993259
 20
785.4414035503897
 30
0.0
 11
1660.509470993259
 21
915.3328992803061
 31
0.0
  0
LINE
  5
7EA5
330
7E76
100
AcDbEntity
  8
寸法
  6
Continuous
 62
     4
370
    -2
100
AcDbLine
 10
1436.509470993259
 20
915.3328992803061
 30
0.0
 11
1659.509470993259
 21
915.3328992803061
 31
0.0
  0
INSERT
  5
7EA6
330
7E76
100
AcDbEntity
  8
寸法
  6
Continuous
 62
     4
370
    -2
100
AcDbBlockReference
  2
_Dot
 10
1435.509470993259
 20
915.3328992803061
 30
0.0
 50
180.0
  0
INSERT
  5
7EA7
330
7E76
100
AcDbEntity
  8
寸法
  6
Continuous
 62
     4
370
    -2
100
AcDbBlockReference
  2
_Dot
 10
1660.509470993259
 20
915.3328992803061
 30
0.0
  0
MTEXT
  5
7EA8
330
7E76
100
AcDbEntity
  8
寸法
  6
Continuous
 62
     3
100
AcDbMText
 10
1548.009470993259
 20
918.8328992803061
 30
0.0
 40
5.0
 41
0.0
 71
     5
 72
     1
  1
\A1;W
  7
ACAD
 73
     1
 44
1.0
1001
ACAD
1000
MTEXTBEGIN
1070
    73
1070
     1
1070
    44
1040
1.0
1070
    74
1070
     0
1000
MTEXTEND
  0
POINT
  5
7EA9
330
7E76
100
AcDbEntity
  8
Defpoints
  6
Continuous
 62
     0
100
AcDbPoint
 10
1435.509470993259
 20
837.332899280306
 30
0.0
  0
POINT
  5
7EAA
330
7E76
100
AcDbEntity
  8
Defpoints
  6
Continuous
 62
     0
100
AcDbPoint
 10
1660.509470993259
 20
785.4414035503897
 30
0.0
  0
POINT
  5
7EAB
330
7E76
100
AcDbEntity
  8
Defpoints
  6
Continuous
 62
     0
100
AcDbPoint
 10
1660.509470993259
 20
915.3328992803061
 30
0.0
  0
ENDBLK
  5
7E81
330
7E76
100
AcDbEntity
  8
0
100
AcDbBlockEnd
  0
BLOCK
  5
7E8D
330
7E83
100
AcDbEntity
  8
0
100
AcDbBlockBegin
  2
*D16
 70
     1
 10
0.0
 20
0.0
 30
0.0
  3
*D16
  1

  0
LINE
  5
7EB5
330
7E83
100
AcDbEntity
  8
寸法
  6
Continuous
 62
     4
370
    -2
100
AcDbLine
 10
1450.509470993259
 20
808.4470371998284
 30
0.0
 11
1450.509470993259
 21
828.332899280306
 31
0.0
  0
LINE
  5
7EB6
330
7E83
100
AcDbEntity
  8
寸法
  6
Continuous
 62
     4
370
    -2
100
AcDbLine
 10
1660.509470993259
 20
785.4414035503897
 30
0.0
 11
1660.509470993259
 21
828.332899280306
 31
0.0
  0
LINE
  5
7EB7
330
7E83
100
AcDbEntity
  8
寸法
  6
Continuous
 62
     4
370
    -2
100
AcDbLine
 10
1451.509470993259
 20
828.332899280306
 30
0.0
 11
1659.509470993259
 21
828.332899280306
 31
0.0
  0
INSERT
  5
7EB8
330
7E83
100
AcDbEntity
  8
寸法
  6
Continuous
 62
     4
370
    -2
100
AcDbBlockReference
  2
_Dot
 10
1450.509470993259
 20
828.332899280306
 30
0.0
 50
180.0
  0
INSERT
  5
7EB9
330
7E83
100
AcDbEntity
  8
寸法
  6
Continuous
 62
     4
370
    -2
100
AcDbBlockReference
  2
_Dot
 10
1660.509470993259
 20
828.332899280306
 30
0.0
  0
MTEXT
  5
7EBA
330
7E83
100
AcDbEntity
  8
寸法
  6
Continuous
 62
     3
100
AcDbMText
 10
1555.50947099326
 20
831.832899280306
 30
0.0
 40
5.0
 41
0.0
 71
     5
 72
     1
  1
\A1;A
  7
ACAD
 73
     1
 44
1.0
1001
ACAD
1000
MTEXTBEGIN
1070
    73
1070
     1
1070
    44
1040
1.0
1070
    74
1070
     0
1000
MTEXTEND
  0
POINT
  5
7EBB
330
7E83
100
AcDbEntity
  8
Defpoints
  6
Continuous
 62
     0
100
AcDbPoint
 10
1450.509470993259
 20
808.4470371998284
 30
0.0
  0
POINT
  5
7EBC
330
7E83
100
AcDbEntity
  8
Defpoints
  6
Continuous
 62
     0
100
AcDbPoint
 10
1660.509470993259
 20
785.4414035503897
 30
0.0
  0
POINT
  5
7EBD
330
7E83
100
AcDbEntity
  8
Defpoints
  6
Continuous
 62
     0
100
AcDbPoint
 10
1660.509470993259
 20
828.332899280306
 30
0.0
  0
ENDBLK
  5
7E8E
330
7E83
100
AcDbEntity
  8
0
100
AcDbBlockEnd
  0
BLOCK
  5
7E98
330
7E90
100
AcDbEntity
  8
0
100
AcDbBlockBegin
  2
*D17
 70
     1
 10
0.0
 20
0.0
 30
0.0
  3
*D17
  1

  0
LINE
  5
7E91
330
7E90
100
AcDbEntity
  8
寸法
  6
Continuous
 62
     4
370
    -2
100
AcDbLine
 10
1560.509470993259
 20
675.0612494069964
 30
0.0
 11
1608.509470993259
 21
675.0612494069964
 31
0.0
  0
INSERT
  5
7E92
330
7E90
100
AcDbEntity
  8
寸法
  6
Continuous
 62
     4
370
    -2
100
AcDbBlockReference
  2
_Dot
 10
1559.509470993259
 20
675.0612494069964
 30
0.0
 50
180.0
  0
INSERT
  5
7E93
330
7E90
100
AcDbEntity
  8
寸法
  6
Continuous
 62
     4
370
    -2
100
AcDbBlockReference
  2
_Dot
 10
1609.509470993259
 20
675.0612494069964
 30
0.0
  0
MTEXT
  5
7E94
330
7E90
100
AcDbEntity
  8
寸法
  6
Continuous
 62
     3
100
AcDbMText
 10
1584.509470993259
 20
678.5612494069964
 30
0.0
 40
5.0
 41
0.0
 71
     5
 72
     1
  1
\A1;50
  7
ACAD
 73
     1
 44
1.0
1001
ACAD
1000
MTEXTBEGIN
1070
    73
1070
     1
1070
    44
1040
1.0
1070
    74
1070
     0
1000
MTEXTEND
  0
POINT
  5
7E95
330
7E90
100
AcDbEntity
  8
Defpoints
  6
Continuous
 62
     0
100
AcDbPoint
 10
1559.509470993259
 20
675.0612494069964
 30
0.0
  0
POINT
  5
7E96
330
7E90
100
AcDbEntity
  8
Defpoints
  6
Continuous
 62
     0
100
AcDbPoint
 10
1609.509470993259
 20
675.0612494069964
 30
0.0
  0
POINT
  5
7E97
330
7E90
100
AcDbEntity
  8
Defpoints
  6
Continuous
 62
     0
100
AcDbPoint
 10
1609.509470993259
 20
675.0612494069964
 30
0.0
  0
ENDBLK
  5
7E99
330
7E90
100
AcDbEntity
  8
0
100
AcDbBlockEnd
  0
BLOCK
  5
7F4B
330
7F41
100
AcDbEntity
  8
0
100
AcDbBlockBegin
  2
*D19
 70
     1
 10
0.0
 20
0.0
 30
0.0
  3
*D19
  1

  0
LINE
  5
7F4D
330
7F41
100
AcDbEntity
  8
寸法
  6
Continuous
 62
     4
370
    -2
100
AcDbLine
 10
1609.509470993259
 20
629.8112494069965
 30
0.0
 11
1609.509470993259
 21
630.0612494069964
 31
0.0
  0
LINE
  5
7F4E
330
7F41
100
AcDbEntity
  8
寸法
  6
Continuous
 62
     4
370
    -2
100
AcDbLine
 10
1660.509470993259
 20
693.4414035503898
 30
0.0
 11
1660.509470993259
 21
630.0612494069964
 31
0.0
  0
LINE
  5
7F4F
330
7F41
100
AcDbEntity
  8
寸法
  6
Continuous
 62
     4
370
    -2
100
AcDbLine
 10
1610.509470993259
 20
630.0612494069964
 30
0.0
 11
1659.509470993259
 21
630.0612494069964
 31
0.0
  0
INSERT
  5
7F50
330
7F41
100
AcDbEntity
  8
寸法
  6
Continuous
 62
     4
370
    -2
100
AcDbBlockReference
  2
_Dot
 10
1609.509470993259
 20
630.0612494069964
 30
0.0
 50
180.0
  0
INSERT
  5
7F51
330
7F41
100
AcDbEntity
  8
寸法
  6
Continuous
 62
     4
370
    -2
100
AcDbBlockReference
  2
_Dot
 10
1660.509470993259
 20
630.0612494069964
 30
0.0
  0
MTEXT
  5
7F52
330
7F41
100
AcDbEntity
  8
寸法
  6
Continuous
 62
     3
100
AcDbMText
 10
1635.009470993259
 20
633.5612494069964
 30
0.0
 40
5.0
 41
0.0
 71
     5
 72
     1
  1
\A1;50≦
  7
ACAD
 73
     1
 44
1.0
1001
ACAD
1000
MTEXTBEGIN
1070
    73
1070
     1
1070
    44
1040
1.0
1070
    74
1070
     0
1000
MTEXTEND
  0
POINT
  5
7F53
330
7F41
100
AcDbEntity
  8
Defpoints
  6
Continuous
 62
     0
100
AcDbPoint
 10
1609.509470993259
 20
629.8112494069965
 30
0.0
  0
POINT
  5
7F54
330
7F41
100
AcDbEntity
  8
Defpoints
  6
Continuous
 62
     0
100
AcDbPoint
 10
1660.509470993259
 20
693.4414035503898
 30
0.0
  0
POINT
  5
7F55
330
7F41
100
AcDbEntity
  8
Defpoints
  6
Continuous
 62
     0
100
AcDbPoint
 10
1660.509470993259
 20
630.0612494069964
 30
0.0
  0
ENDBLK
  5
7F4C
330
7F41
100
AcDbEntity
  8
0
100
AcDbBlockEnd
  0
ENDSEC
  0
SECTION
  2
ENTITIES
  0
LINE
  5
6D36
330
1E
100
AcDbEntity
  8
図枠
  6
Continuous
 62
     4
100
AcDbLine
 10
1552.387719240238
 20
740.2974063395738
 30
0.0
 11
1542.690465608358
 21
723.501270355277
 31
0.0
  0
LINE
  5
6D37
330
1E
100
AcDbEntity
  8
図枠
  6
Continuous
 62
     4
100
AcDbLine
 10
1557.383460017257
 20
709.9785880088497
 30
0.0
 11
1547.34184582251
 21
692.5860020335437
 31
0.0
  0
CIRCLE
  5
6D38
330
1E
100
AcDbEntity
  8
図枠
  6
Continuous
 62
     4
100
AcDbCircle
 10
1544.34184582251
 20
687.389849610837
 30
0.0
 40
6.0
  0
TEXT
  5
6D3C
330
1E
100
AcDbEntity
  8
寸法
 62
     7
100
AcDbText
 10
1531.509470993259
 20
821.5339169866368
 30
0.0
 40
5.0
  1
（キャップ幅）
100
AcDbText
  0
TEXT
  5
6D3D
330
1E
100
AcDbEntity
  8
図枠
 62
     7
100
AcDbText
 10
1525.509470993259
 20
796.1102819807413
 30
0.0
 40
5.0
  1
勾配３度
100
AcDbText
  0
LINE
  5
6D3E
330
1E
100
AcDbEntity
  8
図枠
  6
Continuous
 62
     4
100
AcDbLine
 10
1514.009470993259
 20
796.126004945345
 30
0.0
 11
1564.009470993259
 21
793.5056159811929
 31
0.0
  0
LINE
  5
6D3F
330
1E
100
AcDbEntity
  8
図枠
  6
Continuous
 62
     4
100
AcDbLine
 10
1514.009470993259
 20
796.126004945345
 30
0.0
 11
1564.009470993259
 21
796.126004945345
 31
0.0
  0
TEXT
  5
6D40
330
1E
100
AcDbEntity
  8
図枠
 62
     7
100
AcDbText
 10
1537.009470993259
 20
601.3663673626831
 30
0.0
 40
5.0
  1
（2000mmセット）
100
AcDbText
  0
LINE
  5
6D41
330
1E
100
AcDbEntity
  8
躯体と製品
  6
Continuous
 62
     7
100
AcDbLine
 10
1574.509470993259
 20
737.0612494069964
 30
0.0
 11
1544.495188193236
 21
737.0612494069964
 31
0.0
  0
LINE
  5
6D42
330
1E
100
AcDbEntity
  8
躯体と製品
  6
Continuous
 62
     3
100
AcDbLine
 10
1544.509470993259
 20
735.0612494069964
 30
0.0
 11
1574.509470993259
 21
735.0612494069964
 31
0.0
  0
LINE
  5
6D43
330
1E
100
AcDbEntity
  8
躯体と製品
  6
Continuous
 62
     3
100
AcDbLine
 10
1574.509470993259
 20
736.0612494069965
 30
0.0
 11
1544.509470993259
 21
736.0612494069965
 31
0.0
  0
LINE
  5
6D44
330
1E
100
AcDbEntity
  8
躯体と製品
  6
Continuous
 62
     3
100
AcDbLine
 10
1631.449939521267
 20
781.2479433822549
 30
0.0
 11
1466.676066286762
 21
789.8833761623407
 31
0.0
  0
LINE
  5
6D45
330
1E
100
AcDbEntity
  8
躯体と製品
  6
DASHED1
 62
     4
100
AcDbLine
 10
1630.39275320516
 20
761.0756267802123
 30
0.0
 11
1465.618879970654
 21
769.7110595602981
 31
0.0
  0
LINE
  5
6D46
330
1E
100
AcDbEntity
  8
躯体と製品
  6
DASHED1
 62
     4
100
AcDbLine
 10
1630.298548483922
 20
759.2780936176541
 30
0.0
 11
1465.524675249417
 21
767.91352639774
 31
0.0
  0
LINE
  5
6D47
330
1E
100
AcDbEntity
  8
躯体と製品
  6
DASHED1
 62
     4
100
AcDbLine
 10
1630.115372637072
 20
755.782890246013
 30
0.0
 11
1465.341499402567
 21
764.4183230260989
 31
0.0
  0
LINE
  5
6D48
330
1E
100
AcDbEntity
  8
躯体と製品
  6
DASHED1
 62
     4
100
AcDbLine
 10
1630.036868702708
 20
754.2849459438813
 30
0.0
 11
1465.262995468203
 21
762.920378723967
 31
0.0
  0
LINE
  5
6D49
330
1E
100
AcDbEntity
  8
躯体と製品
  6
Continuous
 62
     3
100
AcDbLine
 10
1631.214427718174
 20
776.7541104758593
 30
0.0
 11
1466.440554483669
 21
785.389543255945
 31
0.0
  0
LINE
  5
6D4A
330
1E
100
AcDbEntity
  8
躯体と製品
  6
Continuous
 62
     3
100
AcDbLine
 10
1631.135923783809
 20
775.2561661737273
 30
0.0
 11
1466.362050549304
 21
783.8915989538131
 31
0.0
  0
LINE
  5
6D4B
330
1E
100
AcDbEntity
  8
躯体と製品
  6
Continuous
 62
     3
100
AcDbLine
 10
1629.984532746464
 20
753.286316409127
 30
0.0
 11
1465.21065951196
 21
761.9217491892125
 31
0.0
  0
LINE
  5
6D4C
330
1E
100
AcDbEntity
  8
躯体と製品
  6
Continuous
 62
     3
100
AcDbLine
 10
1451.35246312453
 20
792.4001131622794
 30
0.0
 11
1657.561806949502
 21
781.5931393849998
 31
0.0
  0
LINE
  5
6D4D
330
1E
100
AcDbEntity
  8
躯体と製品
  6
DASHED1
 62
     4
100
AcDbLine
 10
1616.391992565584
 20
780.5350384237669
 30
0.0
 11
1481.577005373716
 21
787.6003925165646
 31
0.0
  0
LINE
  5
6D4F
330
1E
100
AcDbEntity
  8
躯体と製品
  6
DASHED1
 62
     7
100
AcDbLine
 10
1548.804224356571
 20
780.7446299995546
 30
0.0
 11
1535.874273279318
 21
767.1795771403269
 31
0.0
  0
LINE
  5
6D50
330
1E
100
AcDbEntity
  8
躯体と製品
  6
DASHED1
 62
     7
100
AcDbLine
 10
1549.383303271421
 20
780.1926629621545
 30
0.0
 11
1536.453352177663
 21
766.6276100856118
 31
0.0
  0
LINE
  5
6D51
330
1E
100
AcDbEntity
  8
躯体と製品
  6
Continuous
 62
     3
100
AcDbLine
 10
1543.009470993259
 20
737.5612494069964
 30
0.0
 11
1554.509470993259
 21
737.5612494069964
 31
0.0
  0
LINE
  5
6D52
330
1E
100
AcDbEntity
  8
躯体と製品
  6
Continuous
 62
     3
100
AcDbLine
 10
1543.309470993259
 20
739.5612494069965
 30
0.0
 11
1559.009470993259
 21
739.5612494069965
 31
0.0
  0
LINE
  5
6D53
330
1E
100
AcDbEntity
  8
躯体と製品
  6
Continuous
 62
     4
100
AcDbLine
 10
1547.483098207048
 20
735.0612494069959
 30
0.0
 11
1548.483098207048
 21
736.0612494069965
 31
0.0
  0
LINE
  5
6D54
330
1E
100
AcDbEntity
  8
躯体と製品
  6
Continuous
 62
     3
100
AcDbLine
 10
1543.509470993259
 20
743.9612494069963
 30
0.0
 11
1548.009470993259
 21
743.9612494069963
 31
0.0
  0
LINE
  5
6D55
330
1E
100
AcDbEntity
  8
躯体と製品
  6
Continuous
 62
     3
100
AcDbLine
 10
1543.509470993259
 20
745.5612494069964
 30
0.0
 11
1548.009470993259
 21
745.5612494069964
 31
0.0
  0
LINE
  5
6D56
330
1E
100
AcDbEntity
  8
躯体と製品
  6
Continuous
 62
     7
100
AcDbLine
 10
1509.509470993259
 20
735.0612494069964
 30
0.0
 11
1609.509470993259
 21
735.0612494069964
 31
0.0
  0
TEXT
  5
6D57
330
1E
100
AcDbEntity
  8
図枠
 62
     7
100
AcDbText
 10
1541.759470993259
 20
394.5612494069964
 30
0.0
 40
5.0
  1
6000
100
AcDbText
  0
TEXT
  5
6D58
330
1E
100
AcDbEntity
  8
図枠
 62
     7
100
AcDbText
 10
1541.759470993259
 20
475.5612494069962
 30
0.0
 40
5.0
  1
2000
100
AcDbText
  0
TEXT
  5
6D59
330
1E
100
AcDbEntity
  8
図枠
 62
     7
100
AcDbText
 10
1541.759470993259
 20
484.5612494069962
 30
0.0
 40
5.0
  1
2100
100
AcDbText
  0
TEXT
  5
6D5A
330
1E
100
AcDbEntity
  8
図枠
 62
     7
100
AcDbText
 10
1541.759470993259
 20
493.5612494069964
 30
0.0
 40
5.0
  1
2060
100
AcDbText
  0
TEXT
  5
6D5B
330
1E
100
AcDbEntity
  8
図枠
 62
     7
100
AcDbText
 10
1541.759470993259
 20
547.5612494069964
 30
0.0
 40
5.0
  1
2010
100
AcDbText
  0
TEXT
  5
6D5C
330
1E
100
AcDbEntity
  8
図枠
 62
     7
100
AcDbText
 10
1541.759470993259
 20
556.5612494069965
 30
0.0
 40
5.0
  1
2000
100
AcDbText
  0
TEXT
  5
6D5D
330
1E
100
AcDbEntity
  8
図枠
 62
     7
100
AcDbText
 10
1541.759470993259
 20
565.5612494069965
 30
0.0
 40
5.0
  1
2000
100
AcDbText
  0
TEXT
  5
6D5E
330
1E
100
AcDbEntity
  8
図枠
 62
     7
100
AcDbText
 10
1541.759470993259
 20
574.5612494069964
 30
0.0
 40
5.0
  1
2000
100
AcDbText
  0
TEXT
  5
6D5F
330
1E
100
AcDbEntity
  8
図枠
 62
     7
100
AcDbText
 10
1541.759470993259
 20
583.5612494069962
 30
0.0
 40
5.0
  1
2000
100
AcDbText
  0
TEXT
  5
6D60
330
1E
100
AcDbEntity
  8
図枠
 62
     7
100
AcDbText
 10
1534.75947099326
 20
592.5612494069964
 30
0.0
 40
5.0
  1
定尺(mm)
100
AcDbText
  0
LINE
  5
6D61
330
1E
100
AcDbEntity
  8
図枠
  6
Continuous
 62
     7
100
AcDbLine
 10
1531.009470993259
 20
393.0612494069963
 30
0.0
 11
1598.009470993259
 21
393.0612494069963
 31
0.0
  0
LINE
  5
6D62
330
1E
100
AcDbEntity
  8
図枠
  6
Continuous
 62
     7
100
AcDbLine
 10
1531.009470993259
 20
402.0612494069963
 30
0.0
 11
1598.009470993259
 21
402.0612494069963
 31
0.0
  0
LINE
  5
6D63
330
1E
100
AcDbEntity
  8
図枠
  6
Continuous
 62
     7
100
AcDbLine
 10
1531.009470993259
 20
411.0612494069964
 30
0.0
 11
1598.009470993259
 21
411.0612494069964
 31
0.0
  0
LINE
  5
6D64
330
1E
100
AcDbEntity
  8
図枠
  6
Continuous
 62
     7
100
AcDbLine
 10
1531.009470993259
 20
420.0612494069964
 30
0.0
 11
1598.009470993259
 21
420.0612494069964
 31
0.0
  0
LINE
  5
6D65
330
1E
100
AcDbEntity
  8
図枠
  6
Continuous
 62
     7
100
AcDbLine
 10
1531.009470993259
 20
429.0612494069963
 30
0.0
 11
1598.009470993259
 21
429.0612494069963
 31
0.0
  0
LINE
  5
6D66
330
1E
100
AcDbEntity
  8
図枠
  6
Continuous
 62
     7
100
AcDbLine
 10
1531.009470993259
 20
438.0612494069963
 30
0.0
 11
1598.009470993259
 21
438.0612494069963
 31
0.0
  0
LINE
  5
6D67
330
1E
100
AcDbEntity
  8
図枠
  6
Continuous
 62
     7
100
AcDbLine
 10
1531.009470993259
 20
447.0612494069963
 30
0.0
 11
1598.009470993259
 21
447.0612494069963
 31
0.0
  0
LINE
  5
6D68
330
1E
100
AcDbEntity
  8
図枠
  6
Continuous
 62
     7
100
AcDbLine
 10
1531.009470993259
 20
456.0612494069963
 30
0.0
 11
1598.009470993259
 21
456.0612494069963
 31
0.0
  0
LINE
  5
6D69
330
1E
100
AcDbEntity
  8
図枠
  6
Continuous
 62
     7
100
AcDbLine
 10
1531.009470993259
 20
465.0612494069964
 30
0.0
 11
1598.009470993259
 21
465.0612494069964
 31
0.0
  0
LINE
  5
6D6A
330
1E
100
AcDbEntity
  8
図枠
  6
Continuous
 62
     7
100
AcDbLine
 10
1531.009470993259
 20
474.0612494069964
 30
0.0
 11
1598.009470993259
 21
474.0612494069964
 31
0.0
  0
LINE
  5
6D6B
330
1E
100
AcDbEntity
  8
図枠
  6
Continuous
 62
     7
100
AcDbLine
 10
1531.009470993259
 20
483.0612494069963
 30
0.0
 11
1598.009470993259
 21
483.0612494069963
 31
0.0
  0
LINE
  5
6D6C
330
1E
100
AcDbEntity
  8
図枠
  6
Continuous
 62
     7
100
AcDbLine
 10
1531.009470993259
 20
492.0612494069962
 30
0.0
 11
1598.009470993259
 21
492.0612494069962
 31
0.0
  0
LINE
  5
6D6D
330
1E
100
AcDbEntity
  8
図枠
  6
Continuous
 62
     7
100
AcDbLine
 10
1531.009470993259
 20
501.0612494069962
 30
0.0
 11
1598.009470993259
 21
501.0612494069962
 31
0.0
  0
LINE
  5
6D6E
330
1E
100
AcDbEntity
  8
図枠
  6
Continuous
 62
     7
100
AcDbLine
 10
1531.009470993259
 20
510.0612494069962
 30
0.0
 11
1598.009470993259
 21
510.0612494069962
 31
0.0
  0
LINE
  5
6D6F
330
1E
100
AcDbEntity
  8
図枠
  6
Continuous
 62
     7
100
AcDbLine
 10
1531.009470993259
 20
519.0612494069962
 30
0.0
 11
1598.009470993259
 21
519.0612494069962
 31
0.0
  0
LINE
  5
6D70
330
1E
100
AcDbEntity
  8
図枠
  6
Continuous
 62
     7
100
AcDbLine
 10
1531.009470993259
 20
528.0612494069962
 30
0.0
 11
1598.009470993259
 21
528.0612494069962
 31
0.0
  0
LINE
  5
6D71
330
1E
100
AcDbEntity
  8
図枠
  6
Continuous
 62
     7
100
AcDbLine
 10
1531.009470993259
 20
537.0612494069963
 30
0.0
 11
1598.009470993259
 21
537.0612494069963
 31
0.0
  0
LINE
  5
6D72
330
1E
100
AcDbEntity
  8
図枠
  6
Continuous
 62
     7
100
AcDbLine
 10
1531.009470993259
 20
546.0612494069964
 30
0.0
 11
1598.009470993259
 21
546.0612494069964
 31
0.0
  0
LINE
  5
6D73
330
1E
100
AcDbEntity
  8
図枠
  6
Continuous
 62
     7
100
AcDbLine
 10
1531.009470993259
 20
555.0612494069964
 30
0.0
 11
1598.009470993259
 21
555.0612494069964
 31
0.0
  0
LINE
  5
6D74
330
1E
100
AcDbEntity
  8
図枠
  6
Continuous
 62
     7
100
AcDbLine
 10
1531.009470993259
 20
564.0612494069964
 30
0.0
 11
1598.009470993259
 21
564.0612494069964
 31
0.0
  0
LINE
  5
6D75
330
1E
100
AcDbEntity
  8
図枠
  6
Continuous
 62
     7
100
AcDbLine
 10
1531.009470993259
 20
573.0612494069965
 30
0.0
 11
1598.009470993259
 21
573.0612494069965
 31
0.0
  0
LINE
  5
6D76
330
1E
100
AcDbEntity
  8
図枠
  6
Continuous
 62
     7
100
AcDbLine
 10
1531.009470993259
 20
582.0612494069965
 30
0.0
 11
1598.009470993259
 21
582.0612494069965
 31
0.0
  0
LINE
  5
6D77
330
1E
100
AcDbEntity
  8
図枠
  6
Continuous
 62
     7
100
AcDbLine
 10
1531.009470993259
 20
591.0612494069964
 30
0.0
 11
1598.009470993259
 21
591.0612494069964
 31
0.0
  0
LINE
  5
6D78
330
1E
100
AcDbEntity
  8
図枠
  6
Continuous
 62
     7
100
AcDbLine
 10
1531.009470993259
 20
600.0612494069964
 30
0.0
 11
1598.009470993259
 21
600.0612494069964
 31
0.0
  0
LINE
  5
6D79
330
1E
100
AcDbEntity
  8
図枠
  6
Continuous
 62
     7
100
AcDbLine
 10
1136.009470993259
 20
372.0612494069964
 30
0.0
 11
1960.009470993259
 21
372.0612494069964
 31
0.0
  0
LINE
  5
6D7A
330
1E
100
AcDbEntity
  8
図枠
  6
Continuous
 62
     7
100
AcDbLine
 10
1960.009470993259
 20
948.0612494069964
 30
0.0
 11
1136.009470993259
 21
948.0612494069964
 31
0.0
  0
LINE
  5
6D7B
330
1E
100
AcDbEntity
  8
躯体と製品
  6
Continuous
 62
     3
100
AcDbLine
 10
1451.457135037016
 20
794.3973722317887
 30
0.0
 11
1657.666478861989
 21
783.5903984545089
 31
0.0
  0
LINE
  5
6D7D
330
1E
100
AcDbEntity
  8
躯体と製品
  6
Continuous
 62
     7
100
AcDbLine
 10
1509.509470993259
 20
735.0612494069964
 30
0.0
 11
1509.509470993259
 21
615.0612494069965
 31
0.0
  0
LINE
  5
6D7E
330
1E
100
AcDbEntity
  8
躯体と製品
  6
Continuous
 62
     7
100
AcDbLine
 10
1459.509470993259
 20
735.0612494069964
 30
0.0
 11
1459.509470993259
 21
615.0612494069965
 31
0.0
  0
LINE
  5
6D7F
330
1E
100
AcDbEntity
  8
図枠
  6
Continuous
 62
     7
100
AcDbLine
 10
1136.009470993259
 20
948.0612494069964
 30
0.0
 11
1136.009470993259
 21
372.0612494069964
 31
0.0
  0
TEXT
  5
6D80
330
1E
100
AcDbEntity
  8
図枠
 62
     7
100
AcDbText
 10
1272.009470993259
 20
547.5612494069964
 30
0.0
 40
5.0
  1
止水補助板ホルダーＡＬ
100
AcDbText
  0
LINE
  5
6D81
330
1E
100
AcDbEntity
  8
図枠
  6
Continuous
 62
     7
100
AcDbLine
 10
1462.009470993259
 20
393.0612494069963
 30
0.0
 11
1253.009470993259
 21
393.0612494069963
 31
0.0
  0
LINE
  5
6D82
330
1E
100
AcDbEntity
  8
図枠
  6
Continuous
 62
     7
100
AcDbLine
 10
1462.009470993259
 20
402.0612494069963
 30
0.0
 11
1253.009470993259
 21
402.0612494069963
 31
0.0
  0
LINE
  5
6D83
330
1E
100
AcDbEntity
  8
図枠
  6
Continuous
 62
     7
100
AcDbLine
 10
1462.009470993259
 20
411.0612494069964
 30
0.0
 11
1253.009470993259
 21
411.0612494069964
 31
0.0
  0
LINE
  5
6D84
330
1E
100
AcDbEntity
  8
図枠
  6
Continuous
 62
     7
100
AcDbLine
 10
1462.009470993259
 20
420.0612494069964
 30
0.0
 11
1253.009470993259
 21
420.0612494069964
 31
0.0
  0
LINE
  5
6D85
330
1E
100
AcDbEntity
  8
図枠
  6
Continuous
 62
     7
100
AcDbLine
 10
1462.009470993259
 20
429.0612494069963
 30
0.0
 11
1253.009470993259
 21
429.0612494069963
 31
0.0
  0
LINE
  5
6D86
330
1E
100
AcDbEntity
  8
図枠
  6
Continuous
 62
     7
100
AcDbLine
 10
1462.009470993259
 20
438.0612494069963
 30
0.0
 11
1253.009470993259
 21
438.0612494069963
 31
0.0
  0
LINE
  5
6D87
330
1E
100
AcDbEntity
  8
図枠
  6
Continuous
 62
     7
100
AcDbLine
 10
1462.009470993259
 20
447.0612494069963
 30
0.0
 11
1253.009470993259
 21
447.0612494069963
 31
0.0
  0
LINE
  5
6D88
330
1E
100
AcDbEntity
  8
図枠
  6
Continuous
 62
     7
100
AcDbLine
 10
1462.009470993259
 20
456.0612494069963
 30
0.0
 11
1253.009470993259
 21
456.0612494069963
 31
0.0
  0
LINE
  5
6D89
330
1E
100
AcDbEntity
  8
図枠
  6
Continuous
 62
     7
100
AcDbLine
 10
1462.009470993259
 20
465.0612494069964
 30
0.0
 11
1253.009470993259
 21
465.0612494069964
 31
0.0
  0
LINE
  5
6D8A
330
1E
100
AcDbEntity
  8
図枠
  6
Continuous
 62
     7
100
AcDbLine
 10
1462.009470993259
 20
474.0612494069964
 30
0.0
 11
1253.009470993259
 21
474.0612494069964
 31
0.0
  0
LINE
  5
6D8B
330
1E
100
AcDbEntity
  8
図枠
  6
Continuous
 62
     7
100
AcDbLine
 10
1462.009470993259
 20
483.0612494069963
 30
0.0
 11
1253.009470993259
 21
483.0612494069963
 31
0.0
  0
LINE
  5
6D8C
330
1E
100
AcDbEntity
  8
図枠
  6
Continuous
 62
     7
100
AcDbLine
 10
1462.009470993259
 20
492.0612494069962
 30
0.0
 11
1253.009470993259
 21
492.0612494069962
 31
0.0
  0
LINE
  5
6D8D
330
1E
100
AcDbEntity
  8
図枠
  6
Continuous
 62
     7
100
AcDbLine
 10
1462.009470993259
 20
501.0612494069962
 30
0.0
 11
1253.009470993259
 21
501.0612494069962
 31
0.0
  0
LINE
  5
6D8E
330
1E
100
AcDbEntity
  8
図枠
  6
Continuous
 62
     7
100
AcDbLine
 10
1462.009470993259
 20
510.0612494069962
 30
0.0
 11
1253.009470993259
 21
510.0612494069962
 31
0.0
  0
LINE
  5
6D8F
330
1E
100
AcDbEntity
  8
図枠
  6
Continuous
 62
     7
100
AcDbLine
 10
1462.009470993259
 20
519.0612494069962
 30
0.0
 11
1253.009470993259
 21
519.0612494069962
 31
0.0
  0
LINE
  5
6D90
330
1E
100
AcDbEntity
  8
図枠
  6
Continuous
 62
     7
100
AcDbLine
 10
1462.009470993259
 20
528.0612494069962
 30
0.0
 11
1253.009470993259
 21
528.0612494069962
 31
0.0
  0
LINE
  5
6D91
330
1E
100
AcDbEntity
  8
図枠
  6
Continuous
 62
     7
100
AcDbLine
 10
1462.009470993259
 20
537.0612494069963
 30
0.0
 11
1253.009470993259
 21
537.0612494069963
 31
0.0
  0
LINE
  5
6D92
330
1E
100
AcDbEntity
  8
図枠
  6
Continuous
 62
     7
100
AcDbLine
 10
1462.009470993259
 20
546.0612494069964
 30
0.0
 11
1253.009470993259
 21
546.0612494069964
 31
0.0
  0
LINE
  5
6D93
330
1E
100
AcDbEntity
  8
図枠
  6
Continuous
 62
     7
100
AcDbLine
 10
1462.009470993259
 20
555.0612494069964
 30
0.0
 11
1253.009470993259
 21
555.0612494069964
 31
0.0
  0
LINE
  5
6D94
330
1E
100
AcDbEntity
  8
図枠
  6
Continuous
 62
     7
100
AcDbLine
 10
1462.009470993259
 20
564.0612494069964
 30
0.0
 11
1253.009470993259
 21
564.0612494069964
 31
0.0
  0
LINE
  5
6D95
330
1E
100
AcDbEntity
  8
図枠
  6
Continuous
 62
     7
100
AcDbLine
 10
1462.009470993259
 20
573.0612494069965
 30
0.0
 11
1253.009470993259
 21
573.0612494069965
 31
0.0
  0
LINE
  5
6D96
330
1E
100
AcDbEntity
  8
図枠
  6
Continuous
 62
     7
100
AcDbLine
 10
1462.009470993259
 20
582.0612494069965
 30
0.0
 11
1253.009470993259
 21
582.0612494069965
 31
0.0
  0
LINE
  5
6D97
330
1E
100
AcDbEntity
  8
図枠
  6
Continuous
 62
     7
100
AcDbLine
 10
1462.009470993259
 20
591.0612494069964
 30
0.0
 11
1253.009470993259
 21
591.0612494069964
 31
0.0
  0
LINE
  5
6D98
330
1E
100
AcDbEntity
  8
図枠
  6
Continuous
 62
     7
100
AcDbLine
 10
1462.009470993259
 20
600.0612494069964
 30
0.0
 11
1253.009470993259
 21
600.0612494069964
 31
0.0
  0
TEXT
  5
6D99
330
1E
100
AcDbEntity
  8
図枠
 62
     7
100
AcDbText
 10
1272.009470993259
 20
394.5612494069964
 30
0.0
 40
5.0
  1
ブチルテープ
100
AcDbText
  0
TEXT
  5
6D9A
330
1E
100
AcDbEntity
  8
図枠
 62
     7
100
AcDbText
 10
1272.009470993259
 20
403.5612494069964
 30
0.0
 40
5.0
  1
ステンワッシャー
100
AcDbText
  0
TEXT
  5
6D9B
330
1E
100
AcDbEntity
  8
図枠
 62
     7
100
AcDbText
 10
1272.009470993259
 20
412.5612494069963
 30
0.0
 40
5.0
  1
ステスワッシャー
100
AcDbText
  0
TEXT
  5
6D9C
330
1E
100
AcDbEntity
  8
図枠
 62
     7
100
AcDbText
 10
1272.009470993259
 20
421.5612494069963
 30
0.0
 40
5.0
  1
ステンタッピンねじ
100
AcDbText
  0
TEXT
  5
6D9D
330
1E
100
AcDbEntity
  8
図枠
 62
     7
100
AcDbText
 10
1272.009470993259
 20
430.5612494069964
 30
0.0
 40
5.0
  1
アンカープラグ
100
AcDbText
  0
TEXT
  5
6D9E
330
1E
100
AcDbEntity
  8
図枠
 62
     7
100
AcDbText
 10
1272.009470993259
 20
439.5612494069964
 30
0.0
 40
5.0
  1
アジャストアンカー
100
AcDbText
  0
TEXT
  5
6D9F
330
1E
100
AcDbEntity
  8
図枠
 62
     7
100
AcDbText
 10
1272.009470993259
 20
448.5612494069963
 30
0.0
 40
5.0
  1
ステン六角ボルト
100
AcDbText
  0
TEXT
  5
6DA0
330
1E
100
AcDbEntity
  8
図枠
 62
     7
100
AcDbText
 10
1272.009470993259
 20
457.5612494069964
 30
0.0
 40
5.0
  1
ステン小ネジ
100
AcDbText
  0
TEXT
  5
6DA1
330
1E
100
AcDbEntity
  8
図枠
 62
     7
100
AcDbText
 10
1272.009470993259
 20
466.5612494069963
 30
0.0
 40
5.0
  1
ステン小ネジ
100
AcDbText
  0
TEXT
  5
6DA2
330
1E
100
AcDbEntity
  8
図枠
 62
     7
100
AcDbText
 10
1272.009470993259
 20
475.5612494069962
 30
0.0
 40
5.0
  1
ガスケットＮ
100
AcDbText
  0
TEXT
  5
6DA3
330
1E
100
AcDbEntity
  8
図枠
 62
     7
100
AcDbText
 10
1272.009470993259
 20
484.5612494069962
 30
0.0
 40
5.0
  1
止水補助板
100
AcDbText
  0
TEXT
  5
6DA4
330
1E
100
AcDbEntity
  8
図枠
 62
     7
100
AcDbText
 10
1272.009470993259
 20
493.5612494069964
 30
0.0
 40
5.0
  1
止水補助板
100
AcDbText
  0
TEXT
  5
6DA5
330
1E
100
AcDbEntity
  8
図枠
 62
     7
100
AcDbText
 10
1272.009470993259
 20
502.5612494069963
 30
0.0
 40
5.0
  1
ＦＹＫｻｲﾄﾞｷｬｯﾌﾟ ｼﾞｮｲﾝﾄ
100
AcDbText
  0
TEXT
  5
6DA6
330
1E
100
AcDbEntity
  8
図枠
 62
     7
100
AcDbText
 10
1272.009470993259
 20
511.5612494069963
 30
0.0
 40
5.0
  1
ＦＹＫ水切ジョイント
100
AcDbText
  0
TEXT
  5
6DA7
330
1E
100
AcDbEntity
  8
図枠
 62
     7
100
AcDbText
 10
1272.009470993259
 20
520.5612494069962
 30
0.0
 40
5.0
  1
ＦＹＹフレームナット
100
AcDbText
  0
TEXT
  5
6DA8
330
1E
100
AcDbEntity
  8
図枠
 62
     7
100
AcDbText
 10
1272.009470993259
 20
529.5612494069962
 30
0.0
 40
5.0
  1
ＦＹＹホルダースプリング
100
AcDbText
  0
TEXT
  5
6DA9
330
1E
100
AcDbEntity
  8
図枠
 62
     7
100
AcDbText
 10
1272.009470993259
 20
538.5612494069964
 30
0.0
 40
5.0
  1
ＦＹＫホルダー
100
AcDbText
  0
TEXT
  5
6DAA
330
1E
100
AcDbEntity
  8
図枠
 62
     7
100
AcDbText
 10
1272.009470993259
 20
556.5612494069965
 30
0.0
 40
5.0
  1
ＦＹＫ壁フレーム
100
AcDbText
  0
TEXT
  5
6DAB
330
1E
100
AcDbEntity
  8
図枠
 62
     7
100
AcDbText
 10
1272.009470993259
 20
565.5612494069965
 30
0.0
 40
5.0
  1
ＦＹＹフレーム
100
AcDbText
  0
TEXT
  5
6DAC
330
1E
100
AcDbEntity
  8
図枠
 62
     7
100
AcDbText
 10
1272.009470993259
 20
574.5612494069964
 30
0.0
 40
5.0
  1
ＦＹＫサイドキャップＡ
100
AcDbText
  0
TEXT
  5
6DAD
330
1E
100
AcDbEntity
  8
図枠
 62
     7
100
AcDbText
 10
1272.009470993259
 20
583.5612494069962
 30
0.0
 40
5.0
  1
ＦＹＫキャップＡ
100
AcDbText
  0
LINE
  5
6DAE
330
1E
100
AcDbEntity
  8
図枠
  6
Continuous
 62
     7
100
AcDbLine
 10
1253.009470993259
 20
393.0612494069963
 30
0.0
 11
1253.009470993259
 21
600.0612494069964
 31
0.0
  0
LINE
  5
6DAF
330
1E
100
AcDbEntity
  8
図枠
  6
Continuous
 62
     7
100
AcDbLine
 10
1267.009470993259
 20
393.0612494069963
 30
0.0
 11
1267.009470993259
 21
600.0612494069964
 31
0.0
  0
TEXT
  5
6DB0
330
1E
100
AcDbEntity
  8
図枠
 62
     7
100
AcDbText
 10
1256.759470993259
 20
403.5612494069964
 30
0.0
 40
5.0
  1
21
100
AcDbText
  0
TEXT
  5
6DB1
330
1E
100
AcDbEntity
  8
図枠
 62
     7
100
AcDbText
 10
1257.009470993259
 20
394.5612494069964
 30
0.0
 40
5.0
  1
※
100
AcDbText
  0
TEXT
  5
6DB2
330
1E
100
AcDbEntity
  8
図枠
 62
     7
100
AcDbText
 10
1256.759470993259
 20
412.5612494069963
 30
0.0
 40
5.0
  1
20
100
AcDbText
  0
TEXT
  5
6DB3
330
1E
100
AcDbEntity
  8
図枠
 62
     7
100
AcDbText
 10
1256.759470993259
 20
421.5612494069963
 30
0.0
 40
5.0
  1
19
100
AcDbText
  0
TEXT
  5
6DB4
330
1E
100
AcDbEntity
  8
図枠
 62
     7
100
AcDbText
 10
1256.759470993259
 20
448.5612494069963
 30
0.0
 40
5.0
  1
16
100
AcDbText
  0
TEXT
  5
6DB5
330
1E
100
AcDbEntity
  8
図枠
 62
     7
100
AcDbText
 10
1256.759470993259
 20
439.5612494069964
 30
0.0
 40
5.0
  1
17
100
AcDbText
  0
TEXT
  5
6DB6
330
1E
100
AcDbEntity
  8
図枠
 62
     7
100
AcDbText
 10
1256.759470993259
 20
430.5612494069964
 30
0.0
 40
5.0
  1
18
100
AcDbText
  0
TEXT
  5
6DB7
330
1E
100
AcDbEntity
  8
図枠
 62
     7
100
AcDbText
 10
1256.759470993259
 20
457.5612494069964
 30
0.0
 40
5.0
  1
15
100
AcDbText
  0
TEXT
  5
6DB8
330
1E
100
AcDbEntity
  8
図枠
 62
     7
100
AcDbText
 10
1256.759470993259
 20
466.5612494069963
 30
0.0
 40
5.0
  1
14
100
AcDbText
  0
TEXT
  5
6DB9
330
1E
100
AcDbEntity
  8
図枠
 62
     7
100
AcDbText
 10
1256.759470993259
 20
565.5612494069965
 30
0.0
 40
5.0
  1
 3
100
AcDbText
  0
TEXT
  5
6DBA
330
1E
100
AcDbEntity
  8
図枠
 62
     7
100
AcDbText
 10
1256.759470993259
 20
520.5612494069962
 30
0.0
 40
5.0
  1
 8
100
AcDbText
  0
TEXT
  5
6DBB
330
1E
100
AcDbEntity
  8
図枠
 62
     7
100
AcDbText
 10
1256.759470993259
 20
493.5612494069964
 30
0.0
 40
5.0
  1
11
100
AcDbText
  0
TEXT
  5
6DBC
330
1E
100
AcDbEntity
  8
図枠
 62
     7
100
AcDbText
 10
1256.759470993259
 20
484.5612494069962
 30
0.0
 40
5.0
  1
12
100
AcDbText
  0
TEXT
  5
6DBD
330
1E
100
AcDbEntity
  8
図枠
 62
     7
100
AcDbText
 10
1256.759470993259
 20
475.5612494069962
 30
0.0
 40
5.0
  1
13
100
AcDbText
  0
TEXT
  5
6DBE
330
1E
100
AcDbEntity
  8
図枠
 62
     7
100
AcDbText
 10
1256.759470993259
 20
502.5612494069963
 30
0.0
 40
5.0
  1
10
100
AcDbText
  0
TEXT
  5
6DBF
330
1E
100
AcDbEntity
  8
図枠
 62
     7
100
AcDbText
 10
1256.759470993259
 20
511.5612494069963
 30
0.0
 40
5.0
  1
 9
100
AcDbText
  0
TEXT
  5
6DC0
330
1E
100
AcDbEntity
  8
図枠
 62
     7
100
AcDbText
 10
1256.759470993259
 20
529.5612494069962
 30
0.0
 40
5.0
  1
 7
100
AcDbText
  0
TEXT
  5
6DC1
330
1E
100
AcDbEntity
  8
図枠
 62
     7
100
AcDbText
 10
1256.759470993259
 20
538.5612494069964
 30
0.0
 40
5.0
  1
 6
100
AcDbText
  0
TEXT
  5
6DC2
330
1E
100
AcDbEntity
  8
図枠
 62
     7
100
AcDbText
 10
1256.759470993259
 20
547.5612494069964
 30
0.0
 40
5.0
  1
 5
100
AcDbText
  0
TEXT
  5
6DC3
330
1E
100
AcDbEntity
  8
図枠
 62
     7
100
AcDbText
 10
1256.759470993259
 20
556.5612494069965
 30
0.0
 40
5.0
  1
 4
100
AcDbText
  0
TEXT
  5
6DC4
330
1E
100
AcDbEntity
  8
図枠
 62
     7
100
AcDbText
 10
1256.759470993259
 20
574.5612494069964
 30
0.0
 40
5.0
  1
 2
100
AcDbText
  0
TEXT
  5
6DC5
330
1E
100
AcDbEntity
  8
図枠
 62
     7
100
AcDbText
 10
1256.759470993259
 20
583.5612494069962
 30
0.0
 40
5.0
  1
 1
100
AcDbText
  0
TEXT
  5
6DC6
330
1E
100
AcDbEntity
  8
図枠
 62
     7
100
AcDbText
 10
1255.009470993259
 20
592.5612494069964
 30
0.0
 40
5.0
  1
No.
100
AcDbText
  0
LINE
  5
6DC7
330
1E
100
AcDbEntity
  8
図枠
  6
Continuous
 62
     7
100
AcDbLine
 10
1531.009470993259
 20
393.0612494069963
 30
0.0
 11
1531.009470993259
 21
600.0612494069964
 31
0.0
  0
LINE
  5
6DC8
330
1E
100
AcDbEntity
  8
図枠
  6
Continuous
 62
     7
100
AcDbLine
 10
1530.009470993259
 20
393.0612494069963
 30
0.0
 11
1530.009470993259
 21
600.0612494069964
 31
0.0
  0
LINE
  5
6DC9
330
1E
100
AcDbEntity
  8
図枠
  6
Continuous
 62
     7
100
AcDbLine
 10
1516.009470993259
 20
393.0612494069963
 30
0.0
 11
1516.009470993259
 21
600.0612494069964
 31
0.0
  0
LINE
  5
6DCA
330
1E
100
AcDbEntity
  8
図枠
  6
Continuous
 62
     7
100
AcDbLine
 10
1498.009470993259
 20
393.0612494069963
 30
0.0
 11
1498.009470993259
 21
600.0612494069964
 31
0.0
  0
LINE
  5
6DCB
330
1E
100
AcDbEntity
  8
図枠
  6
Continuous
 62
     7
100
AcDbLine
 10
1463.009470993259
 20
393.0612494069963
 30
0.0
 11
1463.009470993259
 21
600.0612494069964
 31
0.0
  0
LINE
  5
6DCC
330
1E
100
AcDbEntity
  8
図枠
  6
Continuous
 62
     7
100
AcDbLine
 10
1462.009470993259
 20
393.0612494069963
 30
0.0
 11
1462.009470993259
 21
600.0612494069964
 31
0.0
  0
LINE
  5
6DCD
330
1E
100
AcDbEntity
  8
図枠
  6
Continuous
 62
     7
100
AcDbLine
 10
1367.00947099326
 20
393.0612494069963
 30
0.0
 11
1367.00947099326
 21
600.0612494069964
 31
0.0
  0
TEXT
  5
6DCE
330
1E
100
AcDbEntity
  8
図枠
 62
     7
100
AcDbText
 10
1372.009470993259
 20
403.5612494069964
 30
0.0
 40
5.0
  1
1.5×18×5.5穴
100
AcDbText
  0
TEXT
  5
6DCF
330
1E
100
AcDbEntity
  8
図枠
 62
     7
100
AcDbText
 10
1372.009470993259
 20
412.5612494069963
 30
0.0
 40
5.0
  1
1.5×18×6.5穴
100
AcDbText
  0
TEXT
  5
6DD0
330
1E
100
AcDbEntity
  8
図枠
 62
     7
100
AcDbText
 10
1372.009470993259
 20
430.5612494069964
 30
0.0
 40
5.0
  1
フィッシャープラグ　Ｓ8
100
AcDbText
  0
TEXT
  5
6DD1
330
1E
100
AcDbEntity
  8
図枠
 62
     7
100
AcDbText
 10
1372.009470993259
 20
394.5612494069964
 30
0.0
 40
5.0
  1
ｔ1.0×ｗ30
100
AcDbText
  0
TEXT
  5
6DD2
330
1E
100
AcDbEntity
  8
図枠
 62
     7
100
AcDbText
 10
1372.009470993259
 20
421.5612494069963
 30
0.0
 40
5.0
  1
ナベ 5×50
100
AcDbText
  0
TEXT
  5
6DD3
330
1E
100
AcDbEntity
  8
図枠
 62
     7
100
AcDbText
 10
1372.009470993259
 20
439.5612494069964
 30
0.0
 40
5.0
  1
ＡＧ－660
100
AcDbText
  0
TEXT
  5
6DD4
330
1E
100
AcDbEntity
  8
図枠
 62
     7
100
AcDbText
 10
1372.009470993259
 20
448.5612494069963
 30
0.0
 40
5.0
  1
Ｍ6×40
100
AcDbText
  0
TEXT
  5
6DD5
330
1E
100
AcDbEntity
  8
図枠
 62
     7
100
AcDbText
 10
1372.009470993259
 20
457.5612494069964
 30
0.0
 40
5.0
  1
ナベＭ4×10
100
AcDbText
  0
TEXT
  5
6DD6
330
1E
100
AcDbEntity
  8
図枠
 62
     7
100
AcDbText
 10
1372.009470993259
 20
466.5612494069963
 30
0.0
 40
5.0
  1
ナベＭ6×35
100
AcDbText
  0
TEXT
  5
6DD7
330
1E
100
AcDbEntity
  8
図枠
 62
     7
100
AcDbText
 10
1473.759470993259
 20
394.5612494069964
 30
0.0
 40
5.0
  1
6000
100
AcDbText
  0
LINE
  5
6DD8
330
1E
100
AcDbEntity
  8
図枠
  6
Continuous
 62
     7
100
AcDbLine
 10
1530.009470993259
 20
393.0612494069963
 30
0.0
 11
1463.009470993259
 21
393.0612494069963
 31
0.0
  0
LINE
  5
6DD9
330
1E
100
AcDbEntity
  8
図枠
  6
Continuous
 62
     7
100
AcDbLine
 10
1530.009470993259
 20
402.0612494069963
 30
0.0
 11
1463.009470993259
 21
402.0612494069963
 31
0.0
  0
LINE
  5
6DDA
330
1E
100
AcDbEntity
  8
図枠
  6
Continuous
 62
     7
100
AcDbLine
 10
1530.009470993259
 20
411.0612494069964
 30
0.0
 11
1463.009470993259
 21
411.0612494069964
 31
0.0
  0
LINE
  5
6DDB
330
1E
100
AcDbEntity
  8
図枠
  6
Continuous
 62
     7
100
AcDbLine
 10
1530.009470993259
 20
420.0612494069964
 30
0.0
 11
1463.009470993259
 21
420.0612494069964
 31
0.0
  0
LINE
  5
6DDC
330
1E
100
AcDbEntity
  8
図枠
  6
Continuous
 62
     7
100
AcDbLine
 10
1530.009470993259
 20
429.0612494069963
 30
0.0
 11
1463.009470993259
 21
429.0612494069963
 31
0.0
  0
LINE
  5
6DDD
330
1E
100
AcDbEntity
  8
図枠
  6
Continuous
 62
     7
100
AcDbLine
 10
1530.009470993259
 20
438.0612494069963
 30
0.0
 11
1463.009470993259
 21
438.0612494069963
 31
0.0
  0
LINE
  5
6DDE
330
1E
100
AcDbEntity
  8
図枠
  6
Continuous
 62
     7
100
AcDbLine
 10
1530.009470993259
 20
447.0612494069963
 30
0.0
 11
1463.009470993259
 21
447.0612494069963
 31
0.0
  0
LINE
  5
6DDF
330
1E
100
AcDbEntity
  8
図枠
  6
Continuous
 62
     7
100
AcDbLine
 10
1530.009470993259
 20
456.0612494069963
 30
0.0
 11
1463.009470993259
 21
456.0612494069963
 31
0.0
  0
LINE
  5
6DE0
330
1E
100
AcDbEntity
  8
図枠
  6
Continuous
 62
     7
100
AcDbLine
 10
1530.009470993259
 20
465.0612494069964
 30
0.0
 11
1463.009470993259
 21
465.0612494069964
 31
0.0
  0
LINE
  5
6DE1
330
1E
100
AcDbEntity
  8
図枠
  6
Continuous
 62
     7
100
AcDbLine
 10
1530.009470993259
 20
474.0612494069964
 30
0.0
 11
1463.009470993259
 21
474.0612494069964
 31
0.0
  0
TEXT
  5
6DE2
330
1E
100
AcDbEntity
  8
図枠
 62
     7
100
AcDbText
 10
1503.759470993259
 20
403.5612494069964
 30
0.0
 40
5.0
  1
 6
100
AcDbText
  0
TEXT
  5
6DE3
330
1E
100
AcDbEntity
  8
図枠
 62
     7
100
AcDbText
 10
1503.759470993259
 20
394.5612494069964
 30
0.0
 40
5.0
  1
 1
100
AcDbText
  0
TEXT
  5
6DE4
330
1E
100
AcDbEntity
  8
図枠
 62
     7
100
AcDbText
 10
1503.759470993259
 20
412.5612494069963
 30
0.0
 40
5.0
  1
 6
100
AcDbText
  0
TEXT
  5
6DE5
330
1E
100
AcDbEntity
  8
図枠
 62
     7
100
AcDbText
 10
1503.759470993259
 20
421.5612494069963
 30
0.0
 40
5.0
  1
 6
100
AcDbText
  0
TEXT
  5
6DE6
330
1E
100
AcDbEntity
  8
図枠
 62
     7
100
AcDbText
 10
1520.009470993259
 20
394.5612494069964
 30
0.0
 40
5.0
  1
巻
100
AcDbText
  0
TEXT
  5
6DE7
330
1E
100
AcDbEntity
  8
図枠
 62
     7
100
AcDbText
 10
1520.009470993259
 20
412.5612494069963
 30
0.0
 40
5.0
  1
枚
100
AcDbText
  0
TEXT
  5
6DE8
330
1E
100
AcDbEntity
  8
図枠
 62
     7
100
AcDbText
 10
1520.009470993259
 20
403.5612494069964
 30
0.0
 40
5.0
  1
〃
100
AcDbText
  0
TEXT
  5
6DE9
330
1E
100
AcDbEntity
  8
図枠
 62
     7
100
AcDbText
 10
1520.009470993259
 20
421.5612494069963
 30
0.0
 40
5.0
  1
〃
100
AcDbText
  0
TEXT
  5
6DEA
330
1E
100
AcDbEntity
  8
図枠
 62
     7
100
AcDbText
 10
1503.759470993259
 20
448.5612494069963
 30
0.0
 40
5.0
  1
 6
100
AcDbText
  0
TEXT
  5
6DEB
330
1E
100
AcDbEntity
  8
図枠
 62
     7
100
AcDbText
 10
1503.759470993259
 20
439.5612494069964
 30
0.0
 40
5.0
  1
 6
100
AcDbText
  0
TEXT
  5
6DEC
330
1E
100
AcDbEntity
  8
図枠
 62
     7
100
AcDbText
 10
1503.759470993259
 20
430.5612494069964
 30
0.0
 40
5.0
  1
 6
100
AcDbText
  0
TEXT
  5
6DED
330
1E
100
AcDbEntity
  8
図枠
 62
     7
100
AcDbText
 10
1503.759470993259
 20
457.5612494069964
 30
0.0
 40
5.0
  1
 6
100
AcDbText
  0
TEXT
  5
6DEE
330
1E
100
AcDbEntity
  8
図枠
 62
     7
100
AcDbText
 10
1503.759470993259
 20
466.5612494069963
 30
0.0
 40
5.0
  1
 6
100
AcDbText
  0
TEXT
  5
6DEF
330
1E
100
AcDbEntity
  8
図枠
 62
     7
100
AcDbText
 10
1520.009470993259
 20
448.5612494069963
 30
0.0
 40
5.0
  1
〃
100
AcDbText
  0
TEXT
  5
6DF0
330
1E
100
AcDbEntity
  8
図枠
 62
     7
100
AcDbText
 10
1520.009470993259
 20
430.5612494069964
 30
0.0
 40
5.0
  1
〃
100
AcDbText
  0
TEXT
  5
6DF1
330
1E
100
AcDbEntity
  8
図枠
 62
     7
100
AcDbText
 10
1520.009470993259
 20
439.5612494069964
 30
0.0
 40
5.0
  1
〃
100
AcDbText
  0
TEXT
  5
6DF2
330
1E
100
AcDbEntity
  8
図枠
 62
     7
100
AcDbText
 10
1520.009470993259
 20
457.5612494069964
 30
0.0
 40
5.0
  1
〃
100
AcDbText
  0
TEXT
  5
6DF3
330
1E
100
AcDbEntity
  8
図枠
 62
     7
100
AcDbText
 10
1520.009470993259
 20
466.5612494069963
 30
0.0
 40
5.0
  1
〃
100
AcDbText
  0
TEXT
  5
6DF4
330
1E
100
AcDbEntity
  8
図枠
 62
     7
100
AcDbText
 10
1372.009470993259
 20
583.5612494069962
 30
0.0
 40
5.0
  1
50ＦＹＫ－Ａ225～500
100
AcDbText
  0
TEXT
  5
6DF5
330
1E
100
AcDbEntity
  8
図枠
 62
     7
100
AcDbText
 10
1372.009470993259
 20
511.5612494069963
 30
0.0
 40
5.0
  1
50ＦＹＫＪ－225～500
100
AcDbText
  0
TEXT
  5
6DF6
330
1E
100
AcDbEntity
  8
図枠
 62
     7
100
AcDbText
 10
1372.009470993259
 20
538.5612494069964
 30
0.0
 40
5.0
  1
50ＦＹＫＨ－225～500
100
AcDbText
  0
TEXT
  5
6DF7
330
1E
100
AcDbEntity
  8
図枠
 62
     7
100
AcDbText
 10
1404.509470993259
 20
592.5612494069964
 30
0.0
 40
5.0
  1
規　格
100
AcDbText
  0
TEXT
  5
6DF8
330
1E
100
AcDbEntity
  8
図枠
 62
     7
100
AcDbText
 10
1372.009470993259
 20
484.5612494069962
 30
0.0
 40
5.0
  1
ＦＳ300～600
100
AcDbText
  0
TEXT
  5
6DF9
330
1E
100
AcDbEntity
  8
図枠
 62
     7
100
AcDbText
 10
1372.009470993259
 20
493.5612494069964
 30
0.0
 40
5.0
  1
ＰＳ
100
AcDbText
  0
TEXT
  5
6DFA
330
1E
100
AcDbEntity
  8
図枠
 62
     7
100
AcDbText
 10
1303.509470993259
 20
592.5612494069964
 30
0.0
 40
5.0
  1
部材名称
100
AcDbText
  0
TEXT
  5
6DFB
330
1E
100
AcDbEntity
  8
図枠
 62
     7
100
AcDbText
 10
1520.009470993259
 20
565.5612494069965
 30
0.0
 40
5.0
  1
〃
100
AcDbText
  0
TEXT
  5
6DFC
330
1E
100
AcDbEntity
  8
図枠
 62
     7
100
AcDbText
 10
1503.759470993259
 20
565.5612494069965
 30
0.0
 40
5.0
  1
 1
100
AcDbText
  0
TEXT
  5
6DFD
330
1E
100
AcDbEntity
  8
図枠
 62
     7
100
AcDbText
 10
1473.759470993259
 20
565.5612494069965
 30
0.0
 40
5.0
  1
3000
100
AcDbText
  0
TEXT
  5
6DFE
330
1E
100
AcDbEntity
  8
図枠
 62
     7
100
AcDbText
 10
1473.759470993259
 20
475.5612494069962
 30
0.0
 40
5.0
  1
3000
100
AcDbText
  0
TEXT
  5
6DFF
330
1E
100
AcDbEntity
  8
図枠
 62
     7
100
AcDbText
 10
1473.759470993259
 20
484.5612494069962
 30
0.0
 40
5.0
  1
3100
100
AcDbText
  0
TEXT
  5
6E00
330
1E
100
AcDbEntity
  8
図枠
 62
     7
100
AcDbText
 10
1473.759470993259
 20
493.5612494069964
 30
0.0
 40
5.0
  1
3060
100
AcDbText
  0
TEXT
  5
6E01
330
1E
100
AcDbEntity
  8
図枠
 62
     7
100
AcDbText
 10
1473.759470993259
 20
547.5612494069964
 30
0.0
 40
5.0
  1
3010
100
AcDbText
  0
TEXT
  5
6E02
330
1E
100
AcDbEntity
  8
図枠
 62
     7
100
AcDbText
 10
1473.759470993259
 20
556.5612494069965
 30
0.0
 40
5.0
  1
3000
100
AcDbText
  0
LINE
  5
6E03
330
1E
100
AcDbEntity
  8
図枠
  6
Continuous
 62
     7
100
AcDbLine
 10
1530.009470993259
 20
483.0612494069963
 30
0.0
 11
1463.009470993259
 21
483.0612494069963
 31
0.0
  0
LINE
  5
6E04
330
1E
100
AcDbEntity
  8
図枠
  6
Continuous
 62
     7
100
AcDbLine
 10
1530.009470993259
 20
492.0612494069962
 30
0.0
 11
1463.009470993259
 21
492.0612494069962
 31
0.0
  0
LINE
  5
6E05
330
1E
100
AcDbEntity
  8
図枠
  6
Continuous
 62
     7
100
AcDbLine
 10
1530.009470993259
 20
501.0612494069962
 30
0.0
 11
1463.009470993259
 21
501.0612494069962
 31
0.0
  0
LINE
  5
6E06
330
1E
100
AcDbEntity
  8
図枠
  6
Continuous
 62
     7
100
AcDbLine
 10
1530.009470993259
 20
510.0612494069962
 30
0.0
 11
1463.009470993259
 21
510.0612494069962
 31
0.0
  0
LINE
  5
6E07
330
1E
100
AcDbEntity
  8
図枠
  6
Continuous
 62
     7
100
AcDbLine
 10
1530.009470993259
 20
519.0612494069962
 30
0.0
 11
1463.009470993259
 21
519.0612494069962
 31
0.0
  0
LINE
  5
6E08
330
1E
100
AcDbEntity
  8
図枠
  6
Continuous
 62
     7
100
AcDbLine
 10
1530.009470993259
 20
528.0612494069962
 30
0.0
 11
1463.009470993259
 21
528.0612494069962
 31
0.0
  0
LINE
  5
6E09
330
1E
100
AcDbEntity
  8
図枠
  6
Continuous
 62
     7
100
AcDbLine
 10
1530.009470993259
 20
537.0612494069963
 30
0.0
 11
1463.009470993259
 21
537.0612494069963
 31
0.0
  0
LINE
  5
6E0A
330
1E
100
AcDbEntity
  8
図枠
  6
Continuous
 62
     7
100
AcDbLine
 10
1530.009470993259
 20
546.0612494069964
 30
0.0
 11
1463.009470993259
 21
546.0612494069964
 31
0.0
  0
LINE
  5
6E0B
330
1E
100
AcDbEntity
  8
図枠
  6
Continuous
 62
     7
100
AcDbLine
 10
1530.009470993259
 20
555.0612494069964
 30
0.0
 11
1463.009470993259
 21
555.0612494069964
 31
0.0
  0
LINE
  5
6E0C
330
1E
100
AcDbEntity
  8
図枠
  6
Continuous
 62
     7
100
AcDbLine
 10
1530.009470993259
 20
564.0612494069964
 30
0.0
 11
1463.009470993259
 21
564.0612494069964
 31
0.0
  0
TEXT
  5
6E0D
330
1E
100
AcDbEntity
  8
図枠
 62
     7
100
AcDbText
 10
1503.759470993259
 20
520.5612494069962
 30
0.0
 40
5.0
  1
 6
100
AcDbText
  0
TEXT
  5
6E0E
330
1E
100
AcDbEntity
  8
図枠
 62
     7
100
AcDbText
 10
1503.759470993259
 20
493.5612494069964
 30
0.0
 40
5.0
  1
 1
100
AcDbText
  0
TEXT
  5
6E0F
330
1E
100
AcDbEntity
  8
図枠
 62
     7
100
AcDbText
 10
1503.759470993259
 20
484.5612494069962
 30
0.0
 40
5.0
  1
 1
100
AcDbText
  0
TEXT
  5
6E10
330
1E
100
AcDbEntity
  8
図枠
 62
     7
100
AcDbText
 10
1503.759470993259
 20
475.5612494069962
 30
0.0
 40
5.0
  1
 1
100
AcDbText
  0
TEXT
  5
6E11
330
1E
100
AcDbEntity
  8
図枠
 62
     7
100
AcDbText
 10
1503.759470993259
 20
502.5612494069963
 30
0.0
 40
5.0
  1
 1
100
AcDbText
  0
TEXT
  5
6E12
330
1E
100
AcDbEntity
  8
図枠
 62
     7
100
AcDbText
 10
1503.759470993259
 20
511.5612494069963
 30
0.0
 40
5.0
  1
 1
100
AcDbText
  0
TEXT
  5
6E13
330
1E
100
AcDbEntity
  8
図枠
 62
     7
100
AcDbText
 10
1520.009470993259
 20
493.5612494069964
 30
0.0
 40
5.0
  1
枚
100
AcDbText
  0
TEXT
  5
6E14
330
1E
100
AcDbEntity
  8
図枠
 62
     7
100
AcDbText
 10
1520.009470993259
 20
484.5612494069962
 30
0.0
 40
5.0
  1
〃
100
AcDbText
  0
TEXT
  5
6E15
330
1E
100
AcDbEntity
  8
図枠
 62
     7
100
AcDbText
 10
1520.009470993259
 20
475.5612494069962
 30
0.0
 40
5.0
  1
本
100
AcDbText
  0
TEXT
  5
6E16
330
1E
100
AcDbEntity
  8
図枠
 62
     7
100
AcDbText
 10
1520.009470993259
 20
502.5612494069963
 30
0.0
 40
5.0
  1
〃
100
AcDbText
  0
TEXT
  5
6E17
330
1E
100
AcDbEntity
  8
図枠
 62
     7
100
AcDbText
 10
1520.009470993259
 20
511.5612494069963
 30
0.0
 40
5.0
  1
〃
100
AcDbText
  0
TEXT
  5
6E18
330
1E
100
AcDbEntity
  8
図枠
 62
     7
100
AcDbText
 10
1503.759470993259
 20
529.5612494069962
 30
0.0
 40
5.0
  1
 6
100
AcDbText
  0
TEXT
  5
6E19
330
1E
100
AcDbEntity
  8
図枠
 62
     7
100
AcDbText
 10
1503.759470993259
 20
538.5612494069964
 30
0.0
 40
5.0
  1
 6
100
AcDbText
  0
TEXT
  5
6E1A
330
1E
100
AcDbEntity
  8
図枠
 62
     7
100
AcDbText
 10
1503.759470993259
 20
547.5612494069964
 30
0.0
 40
5.0
  1
 1
100
AcDbText
  0
TEXT
  5
6E1B
330
1E
100
AcDbEntity
  8
図枠
 62
     7
100
AcDbText
 10
1503.759470993259
 20
556.5612494069965
 30
0.0
 40
5.0
  1
 1
100
AcDbText
  0
TEXT
  5
6E1C
330
1E
100
AcDbEntity
  8
図枠
 62
     7
100
AcDbText
 10
1520.009470993259
 20
529.5612494069962
 30
0.0
 40
5.0
  1
〃
100
AcDbText
  0
TEXT
  5
6E1D
330
1E
100
AcDbEntity
  8
図枠
 62
     7
100
AcDbText
 10
1520.009470993259
 20
520.5612494069962
 30
0.0
 40
5.0
  1
〃
100
AcDbText
  0
TEXT
  5
6E1E
330
1E
100
AcDbEntity
  8
図枠
 62
     7
100
AcDbText
 10
1520.009470993259
 20
538.5612494069964
 30
0.0
 40
5.0
  1
〃
100
AcDbText
  0
TEXT
  5
6E1F
330
1E
100
AcDbEntity
  8
図枠
 62
     7
100
AcDbText
 10
1520.009470993259
 20
547.5612494069964
 30
0.0
 40
5.0
  1
〃
100
AcDbText
  0
TEXT
  5
6E20
330
1E
100
AcDbEntity
  8
図枠
 62
     7
100
AcDbText
 10
1520.009470993259
 20
556.5612494069965
 30
0.0
 40
5.0
  1
〃
100
AcDbText
  0
TEXT
  5
6E21
330
1E
100
AcDbEntity
  8
図枠
 62
     7
100
AcDbText
 10
1469.00947099326
 20
601.3663673626831
 30
0.0
 40
5.0
  1
（3000mmセット）
100
AcDbText
  0
TEXT
  5
6E23
330
1E
100
AcDbEntity
  8
図枠
 62
     7
100
AcDbText
 10
1473.759470993259
 20
574.5612494069964
 30
0.0
 40
5.0
  1
3000
100
AcDbText
  0
TEXT
  5
6E24
330
1E
100
AcDbEntity
  8
図枠
 62
     7
100
AcDbText
 10
1473.759470993259
 20
583.5612494069962
 30
0.0
 40
5.0
  1
3000
100
AcDbText
  0
TEXT
  5
6E25
330
1E
100
AcDbEntity
  8
図枠
 62
     7
100
AcDbText
 10
1466.759470993259
 20
592.5612494069964
 30
0.0
 40
5.0
  1
定尺(mm)
100
AcDbText
  0
LINE
  5
6E26
330
1E
100
AcDbEntity
  8
図枠
  6
Continuous
 62
     7
100
AcDbLine
 10
1530.009470993259
 20
573.0612494069965
 30
0.0
 11
1463.009470993259
 21
573.0612494069965
 31
0.0
  0
LINE
  5
6E27
330
1E
100
AcDbEntity
  8
図枠
  6
Continuous
 62
     7
100
AcDbLine
 10
1530.009470993259
 20
582.0612494069965
 30
0.0
 11
1463.009470993259
 21
582.0612494069965
 31
0.0
  0
LINE
  5
6E28
330
1E
100
AcDbEntity
  8
図枠
  6
Continuous
 62
     7
100
AcDbLine
 10
1530.009470993259
 20
591.0612494069964
 30
0.0
 11
1463.009470993259
 21
591.0612494069964
 31
0.0
  0
LINE
  5
6E29
330
1E
100
AcDbEntity
  8
図枠
  6
Continuous
 62
     7
100
AcDbLine
 10
1530.009470993259
 20
600.0612494069964
 30
0.0
 11
1463.009470993259
 21
600.0612494069964
 31
0.0
  0
TEXT
  5
6E2F
330
1E
100
AcDbEntity
  8
図枠
 62
     7
100
AcDbText
 10
1503.759470993259
 20
574.5612494069964
 30
0.0
 40
5.0
  1
 1
100
AcDbText
  0
TEXT
  5
6E30
330
1E
100
AcDbEntity
  8
図枠
 62
     7
100
AcDbText
 10
1503.759470993259
 20
583.5612494069962
 30
0.0
 40
5.0
  1
 1
100
AcDbText
  0
TEXT
  5
6E31
330
1E
100
AcDbEntity
  8
図枠
 62
     7
100
AcDbText
 10
1500.509470993259
 20
592.5612494069964
 30
0.0
 40
5.0
  1
入数
100
AcDbText
  0
TEXT
  5
6E32
330
1E
100
AcDbEntity
  8
図枠
 62
     7
100
AcDbText
 10
1520.009470993259
 20
574.5612494069964
 30
0.0
 40
5.0
  1
〃
100
AcDbText
  0
TEXT
  5
6E33
330
1E
100
AcDbEntity
  8
図枠
 62
     7
100
AcDbText
 10
1520.009470993259
 20
583.5612494069962
 30
0.0
 40
5.0
  1
本
100
AcDbText
  0
TEXT
  5
6E34
330
1E
100
AcDbEntity
  8
図枠
 62
     7
100
AcDbText
 10
1516.509470993259
 20
592.5612494069964
 30
0.0
 40
5.0
  1
単位
100
AcDbText
  0
TEXT
  5
6E37
330
1E
100
AcDbEntity
  8
図枠
 62
     6
100
AcDbText
 10
1154.929974051044
 20
912.975031385412
 30
0.0
 40
10.0
  1
　　屋根－壁（切欠き壁）
100
AcDbText
  0
TEXT
  5
6E38
330
1E
100
AcDbEntity
  8
図枠
 62
     6
100
AcDbText
 10
1155.555979702394
 20
929.5308815637486
 30
0.0
 40
10.0
  1
◇アルミ５０タイプ（５０ＦＹＫ－Ａ）
100
AcDbText
  0
TEXT
  5
6E39
330
1E
100
AcDbEntity
  8
図枠
 62
     6
100
AcDbText
 10
1153.914273567953
 20
895.7081231728516
 30
0.0
 40
10.0
  1
　　Ｓ＝１／２
100
AcDbText
  0
ARC
  5
6E3A
330
1E
100
AcDbEntity
  8
躯体と製品
  6
Continuous
 62
     7
100
AcDbCircle
 10
1487.134470993258
 20
842.8328992803059
 30
0.0
 40
28.62499999999828
100
AcDbArc
 50
164.8107132628193
 51
195.1892867371807
  0
LINE
  5
6E3B
330
1E
100
AcDbEntity
  8
図枠
  6
Continuous
 62
     4
100
AcDbLine
 10
1441.479883459264
 20
824.0702862524829
 30
0.0
 11
1423.36076821659
 21
855.453514440988
 31
0.0
  0
LINE
  5
6E3C
330
1E
100
AcDbEntity
  8
図枠
  6
Continuous
 62
     4
100
AcDbLine
 10
1445.651380766666
 20
842.5891286703746
 30
0.0
 11
1425.841364548914
 21
876.9010832582839
 31
0.0
  0
LINE
  5
6E3D
330
1E
100
AcDbEntity
  8
図枠
  6
Continuous
 62
     4
100
AcDbLine
 10
1462.030613872528
 20
834.589703872316
 30
0.0
 11
1480.267435377358
 21
866.1768052872467
 31
0.0
  0
LINE
  5
6E3E
330
1E
100
AcDbEntity
  8
図枠
  6
Continuous
 62
     4
100
AcDbLine
 10
1466.727170131399
 20
815.7925920164673
 30
0.0
 11
1488.196026517676
 21
852.9777420578987
 31
0.0
  0
LINE
  5
6E3F
330
1E
100
AcDbEntity
  8
躯体と製品
  6
Continuous
 62
     4
100
AcDbLine
 10
1449.141083565364
 20
849.8287856332888
 30
0.0
 11
1450.516244093354
 21
844.6591973722501
 31
0.0
  0
LINE
  5
6E42
330
1E
100
AcDbEntity
  8
躯体と製品
  6
Continuous
 62
     4
100
AcDbLine
 10
1453.009470993259
 20
840.4565716089742
 30
0.0
 11
1458.702238355323
 21
846.1493389710378
 31
0.0
  0
LINE
  5
6E43
330
1E
100
AcDbEntity
  8
躯体と製品
  6
Continuous
 62
     4
100
AcDbLine
 10
1453.009470993259
 20
843.284998733721
 30
0.0
 11
1459.319698731988
 21
849.5952264724497
 31
0.0
  0
LINE
  5
6E47
330
1E
100
AcDbEntity
  8
躯体と製品
  6
Continuous
 62
     7
100
AcDbLine
 10
1453.009470993259
 20
836.332899280306
 30
0.0
 11
1453.009470993259
 21
849.3328992803061
 31
0.0
  0
LINE
  5
6E48
330
1E
100
AcDbEntity
  8
躯体と製品
  6
Continuous
 62
     7
100
AcDbLine
 10
1434.509470993259
 20
850.332899280306
 30
0.0
 11
1434.509470993259
 21
735.0612494069964
 31
0.0
  0
LINE
  5
6E49
330
1E
100
AcDbEntity
  8
躯体と製品
  6
Continuous
 62
     3
100
AcDbLine
 10
1449.009470993259
 20
846.3328992803058
 30
0.0
 11
1449.009470993259
 21
842.1328992803061
 31
0.0
  0
ARC
  5
6E4A
330
1E
100
AcDbEntity
  8
躯体と製品
  6
Continuous
 62
     3
100
AcDbCircle
 10
1447.009470993259
 20
845.332899280306
 30
0.0
 40
0.5
100
AcDbArc
 50
0.0
 51
90.0
  0
ARC
  5
6E4B
330
1E
100
AcDbEntity
  8
躯体と製品
  6
Continuous
 62
     3
100
AcDbCircle
 10
1437.009470993259
 20
845.332899280306
 30
0.0
 40
0.5
100
AcDbArc
 50
90.0
 51
180.0
  0
LINE
  5
6E4C
330
1E
100
AcDbEntity
  8
躯体と製品
  6
Continuous
 62
     3
100
AcDbLine
 10
1445.509470993259
 20
845.832899280306
 30
0.0
 11
1445.509470993259
 21
845.0328992803061
 31
0.0
  0
CIRCLE
  5
6E4D
330
1E
100
AcDbEntity
  8
図枠
  6
Continuous
 62
     4
100
AcDbCircle
 10
1419.885206925807
 20
764.8085040968167
 30
0.0
 40
6.0
  0
TEXT
  5
6E4E
330
1E
100
AcDbEntity
  8
図枠
 62
     7
100
AcDbText
 10
1414.89401125568
 20
813.9805972666612
 30
0.0
 40
5.0
  1
19
100
AcDbText
  0
CIRCLE
  5
6E4F
330
1E
100
AcDbEntity
  8
図枠
  6
Continuous
 62
     4
100
AcDbCircle
 10
1418.14401125568
 20
816.9805972666614
 30
0.0
 40
6.0
  0
LINE
  5
6E50
330
1E
100
AcDbEntity
  8
躯体と製品
  6
CENTER1
 62
     4
100
AcDbLine
 10
1450.266399293823
 20
791.332899280306
 30
0.0
 11
1375.509470993259
 21
791.332899280306
 31
0.0
  0
LINE
  5
6E52
330
1E
100
AcDbEntity
  8
躯体と製品
  6
DASHED1
 62
     7
100
AcDbLine
 10
1414.709089993259
 20
786.709662280306
 30
0.0
 11
1419.367069993259
 21
785.0142962803061
 31
0.0
  0
LINE
  5
6E53
330
1E
100
AcDbEntity
  8
躯体と製品
  6
DASHED1
 62
     7
100
AcDbLine
 10
1416.601678993259
 20
788.8115942803058
 30
0.0
 11
1414.604419993259
 21
788.7069212803059
 31
0.0
  0
LINE
  5
6E54
330
1E
100
AcDbEntity
  8
躯体と製品
  6
DASHED1
 62
     7
100
AcDbLine
 10
1395.551953993259
 20
789.2104832803059
 30
0.0
 11
1426.509469993259
 21
790.8328982803062
 31
0.0
  0
LINE
  5
6E55
330
1E
100
AcDbEntity
  8
躯体と製品
  6
DASHED1
 62
     7
100
AcDbLine
 10
1416.601678993259
 20
793.8542012803059
 30
0.0
 11
1414.604419993259
 21
793.9588742803059
 31
0.0
  0
LINE
  5
6E56
330
1E
100
AcDbEntity
  8
躯体と製品
  6
DASHED1
 62
     7
100
AcDbLine
 10
1395.551953993259
 20
793.4553122803061
 30
0.0
 11
1426.509469993259
 21
791.8328972803061
 31
0.0
  0
LINE
  5
6E57
330
1E
100
AcDbEntity
  8
躯体と製品
  6
DASHED1
 62
     7
100
AcDbLine
 10
1414.709089993259
 20
787.7738402803061
 30
0.0
 11
1419.709090993259
 21
785.9539892803058
 31
0.0
  0
LINE
  5
6E58
330
1E
100
AcDbEntity
  8
躯体と製品
  6
DASHED1
 62
     7
100
AcDbLine
 10
1414.709089993259
 20
795.9561332803056
 30
0.0
 11
1419.367069993259
 21
797.651499280306
 31
0.0
  0
LINE
  5
6E59
330
1E
100
AcDbEntity
  8
躯体と製品
  6
DASHED1
 62
     7
100
AcDbLine
 10
1414.709089993259
 20
794.8919552803061
 30
0.0
 11
1419.709090993259
 21
796.7118062803058
 31
0.0
  0
LINE
  5
6E5F
330
1E
100
AcDbEntity
  8
図枠
  6
Continuous
 62
     4
100
AcDbLine
 10
1402.575831350417
 20
794.2344711011075
 30
0.0
 11
1393.07770724333
 21
810.6857046311757
 31
0.0
  0
LINE
  5
6E64
330
1E
100
AcDbEntity
  8
躯体と製品
  6
DASHED1
 62
     7
100
AcDbLine
 10
1400.378914993259
 20
789.4634522803062
 30
0.0
 11
1398.509470993259
 21
791.332899280306
 31
0.0
  0
LINE
  5
6E65
330
1E
100
AcDbEntity
  8
躯体と製品
  6
DASHED1
 62
     7
100
AcDbLine
 10
1401.622234993259
 20
788.026554280306
 30
0.0
 11
1399.624975993259
 21
787.921881280306
 31
0.0
  0
LINE
  5
6E66
330
1E
100
AcDbEntity
  8
躯体と製品
  6
DASHED1
 62
     7
100
AcDbLine
 10
1401.622234993259
 20
794.639241280306
 30
0.0
 11
1399.624975993259
 21
794.7439142803059
 31
0.0
  0
LINE
  5
6E67
330
1E
100
AcDbEntity
  8
躯体と製品
  6
DASHED1
 62
     7
100
AcDbLine
 10
1400.378914993259
 20
793.202343280306
 30
0.0
 11
1398.509470993259
 21
791.332899280306
 31
0.0
  0
LINE
  5
6E68
330
1E
100
AcDbEntity
  8
躯体と製品
  6
DASHED1
 62
     7
100
AcDbLine
 10
1399.624975993259
 20
787.921881280306
 30
0.0
 11
1399.729648993259
 21
785.924622280306
 31
0.0
  0
LINE
  5
6E69
330
1E
100
AcDbEntity
  8
躯体と製品
  6
DASHED1
 62
     7
100
AcDbLine
 10
1397.732389993259
 20
785.8199522803061
 30
0.0
 11
1395.630457993259
 21
787.7125382803058
 31
0.0
  0
LINE
  5
6E6A
330
1E
100
AcDbEntity
  8
躯体と製品
  6
DASHED1
 62
     7
100
AcDbLine
 10
1397.549212993259
 20
789.3151562803059
 30
0.0
 11
1397.732389993259
 21
785.8199522803061
 31
0.0
  0
LINE
  5
6E6B
330
1E
100
AcDbEntity
  8
躯体と製品
  6
DASHED1
 62
     7
100
AcDbLine
 10
1399.729648993259
 20
785.924622280306
 30
0.0
 11
1397.732389993259
 21
785.8199522803061
 31
0.0
  0
LINE
  5
6E6C
330
1E
100
AcDbEntity
  8
躯体と製品
  6
DASHED1
 62
     7
100
AcDbLine
 10
1395.630457993259
 20
787.7125382803058
 30
0.0
 11
1395.551953993259
 21
789.2104832803059
 31
0.0
  0
LINE
  5
6E6D
330
1E
100
AcDbEntity
  8
躯体と製品
  6
DASHED1
 62
     7
100
AcDbLine
 10
1399.729648993259
 20
796.7411732803062
 30
0.0
 11
1397.732389993259
 21
796.845843280306
 31
0.0
  0
LINE
  5
6E6E
330
1E
100
AcDbEntity
  8
躯体と製品
  6
DASHED1
 62
     7
100
AcDbLine
 10
1399.624975993259
 20
794.7439142803059
 30
0.0
 11
1399.729648993259
 21
796.7411732803062
 31
0.0
  0
LINE
  5
6E6F
330
1E
100
AcDbEntity
  8
躯体と製品
  6
DASHED1
 62
     7
100
AcDbLine
 10
1395.630457993259
 20
794.9532572803061
 30
0.0
 11
1395.551953993259
 21
793.4553122803061
 31
0.0
  0
LINE
  5
6E70
330
1E
100
AcDbEntity
  8
躯体と製品
  6
DASHED1
 62
     7
100
AcDbLine
 10
1397.732389993259
 20
796.845843280306
 30
0.0
 11
1395.630457993259
 21
794.9532572803061
 31
0.0
  0
LINE
  5
6E71
330
1E
100
AcDbEntity
  8
躯体と製品
  6
DASHED1
 62
     7
100
AcDbLine
 10
1397.549212993259
 20
793.3506392803058
 30
0.0
 11
1397.732389993259
 21
796.845843280306
 31
0.0
  0
LINE
  5
6E72
330
1E
100
AcDbEntity
  8
躯体と製品
  6
DASHED1
 62
     7
100
AcDbLine
 10
1402.725535993259
 20
786.0816302803057
 30
0.0
 11
1401.622234993259
 21
788.026554280306
 31
0.0
  0
LINE
  5
6E73
330
1E
100
AcDbEntity
  8
躯体と製品
  6
DASHED1
 62
     7
100
AcDbLine
 10
1404.618124993259
 20
788.1835622803061
 30
0.0
 11
1404.722794993259
 21
786.1863032803062
 31
0.0
  0
LINE
  5
6E74
330
1E
100
AcDbEntity
  8
躯体と製品
  6
DASHED1
 62
     7
100
AcDbLine
 10
1407.718684993259
 20
786.3433112803059
 30
0.0
 11
1406.615383993259
 21
788.288235280306
 31
0.0
  0
LINE
  5
6E75
330
1E
100
AcDbEntity
  8
躯体と製品
  6
DASHED1
 62
     7
100
AcDbLine
 10
1409.611270993259
 20
788.4452432803061
 30
0.0
 11
1409.715943993259
 21
786.4479842803057
 31
0.0
  0
LINE
  5
6E76
330
1E
100
AcDbEntity
  8
躯体と製品
  6
DASHED1
 62
     7
100
AcDbLine
 10
1412.711830993259
 20
786.604992280306
 30
0.0
 11
1411.608529993259
 21
788.5499132803061
 31
0.0
  0
LINE
  5
6E77
330
1E
100
AcDbEntity
  8
躯体と製品
  6
DASHED1
 62
     7
100
AcDbLine
 10
1414.604419993259
 20
788.7069212803059
 30
0.0
 11
1414.709089993259
 21
786.709662280306
 31
0.0
  0
LINE
  5
6E78
330
1E
100
AcDbEntity
  8
躯体と製品
  6
DASHED1
 62
     7
100
AcDbLine
 10
1409.715943993259
 20
786.4479842803057
 30
0.0
 11
1407.718684993259
 21
786.3433112803059
 31
0.0
  0
LINE
  5
6E79
330
1E
100
AcDbEntity
  8
躯体と製品
  6
DASHED1
 62
     7
100
AcDbLine
 10
1404.722794993259
 20
786.1863032803062
 30
0.0
 11
1402.725535993259
 21
786.0816302803057
 31
0.0
  0
LINE
  5
6E7A
330
1E
100
AcDbEntity
  8
躯体と製品
  6
DASHED1
 62
     7
100
AcDbLine
 10
1414.709089993259
 20
786.709662280306
 30
0.0
 11
1412.711830993259
 21
786.604992280306
 31
0.0
  0
LINE
  5
6E7B
330
1E
100
AcDbEntity
  8
躯体と製品
  6
DASHED1
 62
     7
100
AcDbLine
 10
1409.715943993259
 20
796.2178112803059
 30
0.0
 11
1407.718684993259
 21
796.322484280306
 31
0.0
  0
CIRCLE
  5
6E7C
330
1E
100
AcDbEntity
  8
図枠
  6
Continuous
 62
     4
100
AcDbCircle
 10
1402.575831350417
 20
794.2344711011075
 30
0.0
 40
0.9
  0
LINE
  5
6E7D
330
1E
100
AcDbEntity
  8
躯体と製品
  6
DASHED1
 62
     7
100
AcDbLine
 10
1406.615383993259
 20
788.288235280306
 30
0.0
 11
1404.618124993259
 21
788.1835622803061
 31
0.0
  0
LINE
  5
6E7E
330
1E
100
AcDbEntity
  8
躯体と製品
  6
DASHED1
 62
     7
100
AcDbLine
 10
1402.725535993259
 20
796.584165280306
 30
0.0
 11
1401.622234993259
 21
794.639241280306
 31
0.0
  0
LINE
  5
6E7F
330
1E
100
AcDbEntity
  8
躯体と製品
  6
DASHED1
 62
     7
100
AcDbLine
 10
1404.722794993259
 20
796.4794922803061
 30
0.0
 11
1402.725535993259
 21
796.584165280306
 31
0.0
  0
LINE
  5
6E80
330
1E
100
AcDbEntity
  8
躯体と製品
  6
DASHED1
 62
     7
100
AcDbLine
 10
1404.618124993259
 20
794.482233280306
 30
0.0
 11
1404.722794993259
 21
796.4794922803061
 31
0.0
  0
LINE
  5
6E81
330
1E
100
AcDbEntity
  8
躯体と製品
  6
DASHED1
 62
     7
100
AcDbLine
 10
1406.615383993259
 20
794.3775602803059
 30
0.0
 11
1404.618124993259
 21
794.482233280306
 31
0.0
  0
LINE
  5
6E82
330
1E
100
AcDbEntity
  8
躯体と製品
  6
DASHED1
 62
     7
100
AcDbLine
 10
1407.718684993259
 20
796.322484280306
 30
0.0
 11
1406.615383993259
 21
794.3775602803059
 31
0.0
  0
LINE
  5
6E83
330
1E
100
AcDbEntity
  8
躯体と製品
  6
DASHED1
 62
     7
100
AcDbLine
 10
1411.608529993259
 20
788.5499132803061
 30
0.0
 11
1409.611270993259
 21
788.4452432803061
 31
0.0
  0
LINE
  5
6E84
330
1E
100
AcDbEntity
  8
躯体と製品
  6
DASHED1
 62
     7
100
AcDbLine
 10
1409.611270993259
 20
794.2205522803058
 30
0.0
 11
1409.715943993259
 21
796.2178112803059
 31
0.0
  0
LINE
  5
6E85
330
1E
100
AcDbEntity
  8
躯体と製品
  6
DASHED1
 62
     7
100
AcDbLine
 10
1411.608529993259
 20
794.115882280306
 30
0.0
 11
1409.611270993259
 21
794.2205522803058
 31
0.0
  0
LINE
  5
6E86
330
1E
100
AcDbEntity
  8
躯体と製品
  6
DASHED1
 62
     7
100
AcDbLine
 10
1412.711830993259
 20
796.0608032803061
 30
0.0
 11
1411.608529993259
 21
794.115882280306
 31
0.0
  0
LINE
  5
6E87
330
1E
100
AcDbEntity
  8
躯体と製品
  6
DASHED1
 62
     7
100
AcDbLine
 10
1414.709089993259
 20
795.9561332803056
 30
0.0
 11
1412.711830993259
 21
796.0608032803061
 31
0.0
  0
LINE
  5
6E88
330
1E
100
AcDbEntity
  8
躯体と製品
  6
DASHED1
 62
     7
100
AcDbLine
 10
1414.604419993259
 20
793.9588742803059
 30
0.0
 11
1414.709089993259
 21
795.9561332803056
 31
0.0
  0
CIRCLE
  5
6E89
330
1E
100
AcDbEntity
  8
図枠
  6
Continuous
 62
     4
100
AcDbCircle
 10
1390.077707243331
 20
815.8818570538823
 30
0.0
 40
6.0
  0
TEXT
  5
6E8A
330
1E
100
AcDbEntity
  8
図枠
 62
     7
100
AcDbText
 10
1386.82770724333
 20
812.8818570538824
 30
0.0
 40
5.0
  1
18
100
AcDbText
  0
CIRCLE
  5
6E8B
330
1E
100
AcDbEntity
  8
図枠
  6
Continuous
 62
     4
100
AcDbCircle
 10
1493.121972938675
 20
750.1567349793015
 30
0.0
 40
6.0
  0
ARC
  5
6E8C
330
1E
100
AcDbEntity
  8
躯体と製品
  6
Continuous
 62
     7
100
AcDbCircle
 10
1459.228713087286
 20
758.7804915010228
 30
0.0
 40
22.71924209402661
100
AcDbArc
 50
180.0
 51
270.0
  0
ARC
  5
6E8D
330
1E
100
AcDbEntity
  8
躯体と製品
  6
Continuous
 62
     7
100
AcDbCircle
 10
1459.228713087286
 20
758.7804915010228
 30
0.0
 40
23.71924209402664
100
AcDbArc
 50
180.0
 51
270.0
  0
CIRCLE
  5
6E8E
330
1E
100
AcDbEntity
  8
図枠
  6
Continuous
 62
     4
100
AcDbCircle
 10
1481.299559430468
 20
704.0240351413682
 30
0.0
 40
6.0
  0
TEXT
  5
6E8F
330
1E
100
AcDbEntity
  8
図枠
 62
     7
100
AcDbText
 10
1478.049559430469
 20
701.0240351413682
 30
0.0
 40
5.0
  1
12
100
AcDbText
  0
ARC
  5
6E90
330
1E
100
AcDbEntity
  8
躯体と製品
  6
Continuous
 62
     7
100
AcDbCircle
 10
1484.523733036304
 20
700.0128073763753
 30
0.0
 40
20.951557969379
100
AcDbArc
 50
184.9999999999994
 51
355.0000000000006
  0
ARC
  5
6E91
330
1E
100
AcDbEntity
  8
躯体と製品
  6
Continuous
 62
     7
100
AcDbCircle
 10
1484.523733036304
 20
700.0128073763753
 30
0.0
 40
19.951557969379
100
AcDbArc
 50
184.9999999999994
 51
355.0000000000006
  0
LINE
  5
6E92
330
1E
100
AcDbEntity
  8
躯体と製品
  6
Continuous
 62
     7
100
AcDbLine
 10
1461.501860389442
 20
734.2355608924915
 30
0.0
 11
1464.648096768538
 21
698.2739145225811
 31
0.0
  0
LINE
  5
6E93
330
1E
100
AcDbEntity
  8
躯体と製品
  6
Continuous
 62
     7
100
AcDbLine
 10
1460.505665691351
 20
734.1484051497441
 30
0.0
 11
1463.651902070446
 21
698.1867587798333
 31
0.0
  0
LINE
  5
6E94
330
1E
100
AcDbEntity
  8
図枠
  6
Continuous
 62
     4
100
AcDbLine
 10
1470.422541919215
 20
685.1844881770601
 30
0.0
 11
1478.299559430469
 21
698.8278827186616
 31
0.0
  0
CIRCLE
  5
6E95
330
1E
100
AcDbEntity
  8
図枠
  6
Continuous
 62
     4
100
AcDbCircle
 10
1470.422541919215
 20
685.1844881770601
 30
0.0
 40
0.9
  0
LINE
  5
6E96
330
1E
100
AcDbEntity
  8
躯体と製品
  6
Continuous
 62
     7
100
AcDbLine
 10
1434.509470993259
 20
735.0612494069964
 30
0.0
 11
1459.509470993259
 21
735.0612494069964
 31
0.0
  0
LINE
  5
6E97
330
1E
100
AcDbEntity
  8
躯体と製品
  6
Continuous
 62
     7
100
AcDbLine
 10
1459.228713087286
 20
736.0612494069965
 30
0.0
 11
1459.509470993259
 21
736.0612494069965
 31
0.0
  0
ARC
  5
6E98
330
1E
100
AcDbEntity
  8
躯体と製品
  6
Continuous
 62
     7
100
AcDbCircle
 10
1459.509470993259
 20
734.0612494069964
 30
0.0
 40
2.0
100
AcDbArc
 50
4.999999999999459
 51
90.0
  0
ARC
  5
6E99
330
1E
100
AcDbEntity
  8
躯体と製品
  6
Continuous
 62
     7
100
AcDbCircle
 10
1459.509470993259
 20
734.0612494069964
 30
0.0
 40
1.0
100
AcDbArc
 50
4.999999999999459
 51
90.0
  0
LINE
  5
6E9A
330
1E
100
AcDbEntity
  8
躯体と製品
  6
Continuous
 62
     7
100
AcDbLine
 10
1508.541836069066
 20
734.1488130632833
 30
0.0
 11
1505.395564002161
 21
698.1867587798333
 31
0.0
  0
LINE
  5
6E9B
330
1E
100
AcDbEntity
  8
躯体と製品
  6
Continuous
 62
     7
100
AcDbLine
 10
1507.545641370975
 20
734.2359688060309
 30
0.0
 11
1504.399369304069
 21
698.2739145225811
 31
0.0
  0
TEXT
  5
6E9C
330
1E
100
AcDbEntity
  8
図枠
 62
     7
100
AcDbText
 10
1541.09184582251
 20
684.3898496108372
 30
0.0
 40
5.0
  1
17
100
AcDbText
  0
LINE
  5
6E9D
330
1E
100
AcDbEntity
  8
躯体と製品
  6
Continuous
 62
     7
100
AcDbLine
 10
1509.497639087769
 20
736.0612494069965
 30
0.0
 11
1538.509470993259
 21
736.0612494069965
 31
0.0
  0
TEXT
  5
6E9E
330
1E
100
AcDbEntity
  8
図枠
 62
     7
100
AcDbText
 10
1489.871972938675
 20
747.1567349793017
 30
0.0
 40
5.0
  1
13
100
AcDbText
  0
ARC
  5
6E9F
330
1E
100
AcDbEntity
  8
躯体と製品
  6
Continuous
 62
     7
100
AcDbCircle
 10
1509.538030767158
 20
734.0616573205358
 30
0.0
 40
2.0
100
AcDbArc
 50
91.1572150532457
 51
175.0000000000005
  0
ARC
  5
6EA0
330
1E
100
AcDbEntity
  8
躯体と製品
  6
Continuous
 62
     7
100
AcDbCircle
 10
1509.538030767158
 20
734.0616573205358
 30
0.0
 40
1.0
100
AcDbArc
 50
91.63657704161829
 51
175.0000000000005
  0
TEXT
  5
6EA1
330
1E
100
AcDbEntity
  8
図枠
 62
     7
100
AcDbText
 10
1536.440465608358
 20
715.3051179325705
 30
0.0
 40
5.0
  1
20
100
AcDbText
  0
CIRCLE
  5
6EA2
330
1E
100
AcDbEntity
  8
図枠
  6
Continuous
 62
     4
100
AcDbCircle
 10
1539.690465608359
 20
718.3051179325705
 30
0.0
 40
6.0
  0
ARC
  5
6EA3
330
1E
100
AcDbEntity
  8
躯体と製品
  6
Continuous
 62
     3
100
AcDbCircle
 10
1543.309470993259
 20
741.2612494069962
 30
0.0
 40
0.2999999999999998
100
AcDbArc
 50
90.0
 51
180.0
  0
LINE
  5
6EA4
330
1E
100
AcDbEntity
  8
躯体と製品
  6
Continuous
 62
     3
100
AcDbLine
 10
1541.509470993259
 20
746.5612494069964
 30
0.0
 11
1541.509470993259
 21
737.0612494069964
 31
0.0
  0
ARC
  5
6EA5
330
1E
100
AcDbEntity
  8
躯体と製品
  6
Continuous
 62
     7
100
AcDbCircle
 10
1538.509470993259
 20
745.3112494069964
 30
0.0
 40
10.25
100
AcDbArc
 50
270.0
 51
288.9246444160544
  0
ARC
  5
6EA6
330
1E
100
AcDbEntity
  8
躯体と製品
  6
Continuous
 62
     7
100
AcDbCircle
 10
1538.509470993259
 20
745.3112494069964
 30
0.0
 40
9.25
100
AcDbArc
 50
270.0
 51
288.9246444160544
  0
ARC
  5
6EA7
330
1E
100
AcDbEntity
  8
躯体と製品
  6
Continuous
 62
     7
100
AcDbCircle
 10
1544.509470993259
 20
727.8112494069964
 30
0.0
 40
8.25
100
AcDbArc
 50
90.0
 51
108.9246444160544
  0
LINE
  5
6EA8
330
1E
100
AcDbEntity
  8
躯体と製品
  6
Continuous
 62
     3
100
AcDbLine
 10
1544.509470993259
 20
736.0612494069965
 30
0.0
 11
1544.509470993259
 21
735.0612494069964
 31
0.0
  0
LINE
  5
6EA9
330
1E
100
AcDbEntity
  8
躯体と製品
  6
Continuous
 62
     3
100
AcDbLine
 10
1541.509470993259
 20
737.0612494069964
 30
0.0
 11
1543.009470993259
 21
737.0612494069964
 31
0.0
  0
LINE
  5
6EAA
330
1E
100
AcDbEntity
  8
躯体と製品
  6
Continuous
 62
     3
100
AcDbLine
 10
1543.009470993259
 20
737.0612494069964
 30
0.0
 11
1543.009470993259
 21
737.5612494069964
 31
0.0
  0
ARC
  5
6EAB
330
1E
100
AcDbEntity
  8
躯体と製品
  6
Continuous
 62
     3
100
AcDbCircle
 10
1543.309470993259
 20
739.8612494069964
 30
0.0
 40
0.2999999999999998
100
AcDbArc
 50
180.0
 51
270.0
  0
LINE
  5
6EAC
330
1E
100
AcDbEntity
  8
躯体と製品
  6
Continuous
 62
     3
100
AcDbLine
 10
1543.009470993259
 20
739.8612494069964
 30
0.0
 11
1543.009470993259
 21
741.2612494069962
 31
0.0
  0
LINE
  5
6EAD
330
1E
100
AcDbEntity
  8
躯体と製品
  6
Continuous
 62
     4
100
AcDbLine
 10
1544.654671082302
 20
735.0612494069964
 30
0.0
 11
1545.654671082301
 21
736.061249406996
 31
0.0
  0
LINE
  5
6EAE
330
1E
100
AcDbEntity
  8
躯体と製品
  6
Continuous
 62
     4
100
AcDbLine
 10
1546.068884644675
 20
735.0612494069962
 30
0.0
 11
1547.068884644675
 21
736.061249406996
 31
0.0
  0
ARC
  5
6EAF
330
1E
100
AcDbEntity
  8
躯体と製品
  6
Continuous
 62
     7
100
AcDbCircle
 10
1544.509470993259
 20
727.8112494069964
 30
0.0
 40
9.25
100
AcDbArc
 50
90.0
 51
108.9246444160544
  0
ARC
  5
6EB0
330
1E
100
AcDbEntity
  8
躯体と製品
  6
Continuous
 62
     3
100
AcDbCircle
 10
1546.259470993259
 20
746.3112494069965
 30
0.0
 40
0.75
100
AcDbArc
 50
270.0
 51
90.0
  0
ARC
  5
6EB1
330
1E
100
AcDbEntity
  8
躯体と製品
  6
Continuous
 62
     3
100
AcDbCircle
 10
1545.259470993259
 20
742.3112494069965
 30
0.0
 40
0.75
100
AcDbArc
 50
270.0
 51
90.0
  0
ARC
  5
6EB2
330
1E
100
AcDbEntity
  8
躯体と製品
  6
Continuous
 62
     3
100
AcDbCircle
 10
1543.309470993259
 20
745.2612494069962
 30
0.0
 40
0.2999999999999998
100
AcDbArc
 50
90.0
 51
180.0
  0
LINE
  5
6EB3
330
1E
100
AcDbEntity
  8
躯体と製品
  6
Continuous
 62
     3
100
AcDbLine
 10
1543.309470993259
 20
745.5612494069964
 30
0.0
 11
1546.259470993259
 21
745.5612494069964
 31
0.0
  0
LINE
  5
6EB4
330
1E
100
AcDbEntity
  8
躯体と製品
  6
Continuous
 62
     3
100
AcDbLine
 10
1543.309470993259
 20
743.0612494069964
 30
0.0
 11
1545.259470993259
 21
743.0612494069964
 31
0.0
  0
ARC
  5
6EB5
330
1E
100
AcDbEntity
  8
躯体と製品
  6
Continuous
 62
     3
100
AcDbCircle
 10
1543.309470993259
 20
743.3612494069964
 30
0.0
 40
0.2999999999999998
100
AcDbArc
 50
180.0
 51
270.0
  0
LINE
  5
6EB6
330
1E
100
AcDbEntity
  8
躯体と製品
  6
Continuous
 62
     3
100
AcDbLine
 10
1543.009470993259
 20
743.3612494069964
 30
0.0
 11
1543.009470993259
 21
745.2612494069962
 31
0.0
  0
LINE
  5
6EB7
330
1E
100
AcDbEntity
  8
躯体と製品
  6
Continuous
 62
     3
100
AcDbLine
 10
1543.309470993259
 20
741.5612494069964
 30
0.0
 11
1545.259470993259
 21
741.5612494069964
 31
0.0
  0
LINE
  5
6EB8
330
1E
100
AcDbEntity
  8
躯体と製品
  6
Continuous
 62
     3
100
AcDbLine
 10
1542.009470993259
 20
747.0612494069964
 30
0.0
 11
1546.259470993259
 21
747.0612494069964
 31
0.0
  0
ARC
  5
6EB9
330
1E
100
AcDbEntity
  8
躯体と製品
  6
Continuous
 62
     3
100
AcDbCircle
 10
1542.009470993259
 20
746.5612494069964
 30
0.0
 40
0.5
100
AcDbArc
 50
90.0
 51
180.0
  0
LINE
  5
6EBA
330
1E
100
AcDbEntity
  8
躯体と製品
  6
Continuous
 62
     3
100
AcDbLine
 10
1543.509470993259
 20
743.9612494069963
 30
0.0
 11
1543.509470993259
 21
745.5612494069964
 31
0.0
  0
LINE
  5
6EBB
330
1E
100
AcDbEntity
  8
躯体と製品
  6
Continuous
 62
     4
100
AcDbLine
 10
1545.509470993259
 20
745.5612494069964
 30
0.0
 11
1545.509470993259
 21
743.9612494069963
 31
0.0
  0
LINE
  5
6EBC
330
1E
100
AcDbEntity
  8
図枠
  6
Continuous
 62
     4
100
AcDbLine
 10
1466.230365241845
 20
796.734365807422
 30
0.0
 11
1490.121972938675
 21
755.3528874020082
 31
0.0
  0
LINE
  5
6EBF
330
1E
100
AcDbEntity
  8
躯体と製品
  6
DASHED1
 62
     7
100
AcDbLine
 10
1465.498507271296
 20
767.4142116303626
 30
0.0
 11
1493.959449011801
 21
765.9226368774386
 31
0.0
  0
LINE
  5
6EC0
330
1E
100
AcDbEntity
  8
躯体と製品
  6
DASHED1
 62
     7
100
AcDbLine
 10
1470.386983032583
 20
765.1552727796386
 30
0.0
 11
1490.359573727674
 21
764.1085536547798
 31
0.0
  0
LINE
  5
6EC1
330
1E
100
AcDbEntity
  8
図枠
  6
Continuous
 62
     4
100
AcDbLine
 10
1441.872474837502
 20
793.2521336848392
 30
0.0
 11
1422.3866519428
 21
812.7379565795422
 31
0.0
  0
LINE
  5
6EC2
330
1E
100
AcDbEntity
  8
躯体と製品
  6
Continuous
 62
     7
100
AcDbLine
 10
1435.509470993259
 20
758.7804915010228
 30
0.0
 11
1435.509470993259
 21
805.3328992803058
 31
0.0
  0
LINE
  5
6EC3
330
1E
100
AcDbEntity
  8
躯体と製品
  6
Continuous
 62
     7
100
AcDbLine
 10
1436.509470993259
 20
758.7804915010228
 30
0.0
 11
1436.509470993259
 21
835.3328992803058
 31
0.0
  0
LINE
  5
6EC4
330
1E
100
AcDbEntity
  8
躯体と製品
  6
Continuous
 62
     7
100
AcDbLine
 10
1440.509470993259
 20
800.332899280306
 30
0.0
 11
1440.509470993259
 21
782.332899280306
 31
0.0
  0
ARC
  5
6EC5
330
1E
100
AcDbEntity
  8
躯体と製品
  6
Continuous
 62
     3
100
AcDbCircle
 10
1459.009470993259
 20
799.832899280306
 30
0.0
 40
0.5
100
AcDbArc
 50
180.0
 51
270.0
  0
ARC
  5
6EC6
330
1E
100
AcDbEntity
  8
躯体と製品
  6
Continuous
 62
     3
100
AcDbCircle
 10
1468.009470993259
 20
800.332899280306
 30
0.0
 40
1.0
100
AcDbArc
 50
270.0
 51
0.0
  0
LINE
  5
6EC7
330
1E
100
AcDbEntity
  8
躯体と製品
  6
Continuous
 62
     3
100
AcDbLine
 10
1437.009470993259
 20
810.3328992803058
 30
0.0
 11
1437.009470993259
 21
796.3328992803058
 31
0.0
  0
LINE
  5
6EC8
330
1E
100
AcDbEntity
  8
躯体と製品
  6
Continuous
 62
     3
100
AcDbLine
 10
1439.009470993259
 20
791.832899280306
 30
0.0
 11
1439.009470993259
 21
809.8328992803057
 31
0.0
  0
ARC
  5
6EC9
330
1E
100
AcDbEntity
  8
躯体と製品
  6
Continuous
 62
     7
100
AcDbCircle
 10
1458.809470993259
 20
799.6328992803062
 30
0.0
 40
0.2999999999999999
100
AcDbArc
 50
180.0
 51
270.0
  0
ARC
  5
6ECA
330
1E
100
AcDbEntity
  8
躯体と製品
  6
Continuous
 62
     7
100
AcDbCircle
 10
1458.509470993259
 20
799.332899280306
 30
0.0
 40
1.0
100
AcDbArc
 50
180.0
 51
270.0
  0
ARC
  5
6ECB
330
1E
100
AcDbEntity
  8
躯体と製品
  6
Continuous
 62
     7
100
AcDbCircle
 10
1467.009470993259
 20
798.832899280306
 30
0.0
 40
0.5
100
AcDbArc
 50
0.0
 51
90.0
  0
LINE
  5
6ECC
330
1E
100
AcDbEntity
  8
躯体と製品
  6
Continuous
 62
     3
100
AcDbLine
 10
1444.509470993259
 20
777.332899280306
 30
0.0
 11
1444.509470993259
 21
807.3328992803061
 31
0.0
  0
LINE
  5
6ECD
330
1E
100
AcDbEntity
  8
躯体と製品
  6
Continuous
 62
     3
100
AcDbLine
 10
1446.509470993259
 20
778.832899280306
 30
0.0
 11
1446.509470993259
 21
806.832899280306
 31
0.0
  0
LINE
  5
6ECE
330
1E
100
AcDbEntity
  8
躯体と製品
  6
Continuous
 62
     3
100
AcDbLine
 10
1448.509470993259
 20
795.3960017665434
 30
0.0
 11
1448.509470993259
 21
806.4470371998281
 31
0.0
  0
LINE
  5
6ECF
330
1E
100
AcDbEntity
  8
躯体と製品
  6
Continuous
 62
     3
100
AcDbLine
 10
1450.509470993259
 20
795.3960017665432
 30
0.0
 11
1450.509470993259
 21
806.4470371998281
 31
0.0
  0
LINE
  5
6ED0
330
1E
100
AcDbEntity
  8
躯体と製品
  6
DASHED1
 62
     7
100
AcDbLine
 10
1443.509470993259
 20
795.6580406629582
 30
0.0
 11
1443.509470993259
 21
807.8111469628133
 31
0.0
  0
LINE
  5
6ED1
330
1E
100
AcDbEntity
  8
躯体と製品
  6
DASHED1
 62
     7
100
AcDbLine
 10
1439.009470993259
 20
795.6580406629575
 30
0.0
 11
1439.009470993259
 21
807.8111469628133
 31
0.0
  0
LINE
  5
6ED2
330
1E
100
AcDbEntity
  8
躯体と製品
  6
DASHED1
 62
     7
100
AcDbLine
 10
1446.116951321437
 20
788.1683191522983
 30
0.0
 11
1466.530117658466
 21
787.0985104364392
 31
0.0
  0
LINE
  5
6ED3
330
1E
100
AcDbEntity
  8
躯体と製品
  6
DASHED1
 62
     7
100
AcDbLine
 10
1446.35246312453
 20
792.6621520586943
 30
0.0
 11
1466.76562946156
 21
791.5923433428354
 31
0.0
  0
LINE
  5
6ED4
330
1E
100
AcDbEntity
  8
躯体と製品
  6
Continuous
 62
     3
100
AcDbLine
 10
1439.509470993259
 20
770.832899280306
 30
0.0
 11
1450.259470993259
 21
770.832899280306
 31
0.0
  0
LINE
  5
6ED5
330
1E
100
AcDbEntity
  8
躯体と製品
  6
Continuous
 62
     3
100
AcDbLine
 10
1439.509470993259
 20
772.3328992803057
 30
0.0
 11
1450.259470993259
 21
772.3328992803057
 31
0.0
  0
LINE
  5
6ED6
330
1E
100
AcDbEntity
  8
躯体と製品
  6
Continuous
 62
     3
100
AcDbLine
 10
1455.509470993259
 20
777.832899280306
 30
0.0
 11
1447.509470993259
 21
777.832899280306
 31
0.0
  0
LINE
  5
6ED7
330
1E
100
AcDbEntity
  8
躯体と製品
  6
Continuous
 62
     3
100
AcDbLine
 10
1454.009470993259
 20
775.332899280306
 30
0.0
 11
1443.509470993259
 21
775.332899280306
 31
0.0
  0
ARC
  5
6ED8
330
1E
100
AcDbEntity
  8
躯体と製品
  6
Continuous
 62
     3
100
AcDbCircle
 10
1451.509470993259
 20
795.3960017665434
 30
0.0
 40
3.0
100
AcDbArc
 50
180.0
 51
266.9999999999944
  0
LINE
  5
6ED9
330
1E
100
AcDbEntity
  8
図枠
  6
Continuous
 62
     4
100
AcDbLine
 10
1439.793273881109
 20
784.7165710521185
 30
0.0
 11
1424.127847612927
 21
769.051144783936
 31
0.0
  0
LINE
  5
6EDA
330
1E
100
AcDbEntity
  8
躯体と製品
  6
Continuous
 62
     3
100
AcDbLine
 10
1437.009470993259
 20
786.332899280306
 30
0.0
 11
1437.009470993259
 21
772.3328992803057
 31
0.0
  0
LINE
  5
6EDB
330
1E
100
AcDbEntity
  8
躯体と製品
  6
Continuous
 62
     3
100
AcDbLine
 10
1439.009470993259
 20
772.8328992803057
 30
0.0
 11
1439.009470993259
 21
790.832899280306
 31
0.0
  0
ARC
  5
6EDC
330
1E
100
AcDbEntity
  8
躯体と製品
  6
Continuous
 62
     3
100
AcDbCircle
 10
1442.509470993259
 20
775.8328992803058
 30
0.0
 40
1.0
100
AcDbArc
 50
90.0
 51
180.0
  0
TEXT
  5
6EDD
330
1E
100
AcDbEntity
  8
図枠
 62
     7
100
AcDbText
 10
1416.635206925807
 20
761.8085040968167
 30
0.0
 40
5.0
  1
21
100
AcDbText
  0
LINE
  5
6EDE
330
1E
100
AcDbEntity
  8
躯体と製品
  6
Continuous
 62
     3
100
AcDbLine
 10
1442.009470993259
 20
764.332899280306
 30
0.0
 11
1443.009470993259
 21
764.832899280306
 31
0.0
  0
LINE
  5
6EDF
330
1E
100
AcDbEntity
  8
躯体と製品
  6
Continuous
 62
     3
100
AcDbLine
 10
1443.009470993259
 20
764.832899280306
 30
0.0
 11
1443.009470993259
 21
764.332899280306
 31
0.0
  0
LINE
  5
6EE0
330
1E
100
AcDbEntity
  8
躯体と製品
  6
Continuous
 62
     3
100
AcDbLine
 10
1443.009470993259
 20
764.332899280306
 30
0.0
 11
1444.009470993259
 21
764.832899280306
 31
0.0
  0
LINE
  5
6EE1
330
1E
100
AcDbEntity
  8
躯体と製品
  6
Continuous
 62
     3
100
AcDbLine
 10
1444.009470993259
 20
764.832899280306
 30
0.0
 11
1444.009470993259
 21
764.332899280306
 31
0.0
  0
ARC
  5
6EE2
330
1E
100
AcDbEntity
  8
躯体と製品
  6
Continuous
 62
     3
100
AcDbCircle
 10
1445.259470993259
 20
765.0828992803058
 30
0.0
 40
0.75
100
AcDbArc
 50
270.0
 51
90.0
  0
LINE
  5
6EE3
330
1E
100
AcDbEntity
  8
躯体と製品
  6
Continuous
 62
     3
100
AcDbLine
 10
1437.509470993259
 20
760.8328992803058
 30
0.0
 11
1437.509470993259
 21
770.332899280306
 31
0.0
  0
LINE
  5
6EE4
330
1E
100
AcDbEntity
  8
躯体と製品
  6
Continuous
 62
     3
100
AcDbLine
 10
1439.509470993259
 20
764.332899280306
 30
0.0
 11
1442.009470993259
 21
764.332899280306
 31
0.0
  0
LINE
  5
6EE5
330
1E
100
AcDbEntity
  8
躯体と製品
  6
Continuous
 62
     3
100
AcDbLine
 10
1439.509470993259
 20
760.332899280306
 30
0.0
 11
1442.009470993259
 21
760.332899280306
 31
0.0
  0
LINE
  5
6EE6
330
1E
100
AcDbEntity
  8
躯体と製品
  6
Continuous
 62
     3
100
AcDbLine
 10
1445.259470993259
 20
758.8328992803058
 30
0.0
 11
1436.509470993259
 21
758.8328992803058
 31
0.0
  0
ARC
  5
6EE7
330
1E
100
AcDbEntity
  8
躯体と製品
  6
Continuous
 62
     3
100
AcDbCircle
 10
1439.509470993259
 20
763.832899280306
 30
0.0
 40
0.5
100
AcDbArc
 50
90.0
 51
180.0
  0
ARC
  5
6EE8
330
1E
100
AcDbEntity
  8
躯体と製品
  6
Continuous
 62
     3
100
AcDbCircle
 10
1439.509470993259
 20
760.8328992803058
 30
0.0
 40
0.5
100
AcDbArc
 50
180.0
 51
270.0
  0
LINE
  5
6EE9
330
1E
100
AcDbEntity
  8
躯体と製品
  6
Continuous
 62
     3
100
AcDbLine
 10
1439.009470993259
 20
760.8328992803058
 30
0.0
 11
1439.009470993259
 21
763.832899280306
 31
0.0
  0
ARC
  5
6EEA
330
1E
100
AcDbEntity
  8
躯体と製品
  6
Continuous
 62
     3
100
AcDbCircle
 10
1437.009470993259
 20
760.8328992803058
 30
0.0
 40
0.5
100
AcDbArc
 50
270.0
 51
0.0
  0
LINE
  5
6EEB
330
1E
100
AcDbEntity
  8
躯体と製品
  6
Continuous
 62
     3
100
AcDbLine
 10
1437.009470993259
 20
760.332899280306
 30
0.0
 11
1436.509470993259
 21
760.332899280306
 31
0.0
  0
LINE
  5
6EEC
330
1E
100
AcDbEntity
  8
躯体と製品
  6
Continuous
 62
     3
100
AcDbLine
 10
1436.509470993259
 20
758.8328992803058
 30
0.0
 11
1436.509470993259
 21
760.332899280306
 31
0.0
  0
ARC
  5
6EED
330
1E
100
AcDbEntity
  8
躯体と製品
  6
Continuous
 62
     3
100
AcDbCircle
 10
1445.259470993259
 20
759.582899280306
 30
0.0
 40
0.75
100
AcDbArc
 50
270.0
 51
90.0
  0
LINE
  5
6EEE
330
1E
100
AcDbEntity
  8
躯体と製品
  6
Continuous
 62
     3
100
AcDbLine
 10
1442.009470993259
 20
760.332899280306
 30
0.0
 11
1443.009470993259
 21
759.832899280306
 31
0.0
  0
LINE
  5
6EEF
330
1E
100
AcDbEntity
  8
躯体と製品
  6
Continuous
 62
     3
100
AcDbLine
 10
1443.009470993259
 20
760.332899280306
 30
0.0
 11
1443.009470993259
 21
759.832899280306
 31
0.0
  0
LINE
  5
6EF0
330
1E
100
AcDbEntity
  8
躯体と製品
  6
Continuous
 62
     3
100
AcDbLine
 10
1443.009470993259
 20
760.332899280306
 30
0.0
 11
1444.009470993259
 21
759.832899280306
 31
0.0
  0
LINE
  5
6EF1
330
1E
100
AcDbEntity
  8
躯体と製品
  6
Continuous
 62
     3
100
AcDbLine
 10
1444.009470993259
 20
760.332899280306
 30
0.0
 11
1444.009470993259
 21
759.832899280306
 31
0.0
  0
LINE
  5
6EF2
330
1E
100
AcDbEntity
  8
躯体と製品
  6
Continuous
 62
     3
100
AcDbLine
 10
1445.259470993259
 20
760.332899280306
 30
0.0
 11
1444.009470993259
 21
760.332899280306
 31
0.0
  0
LINE
  5
6EF3
330
1E
100
AcDbEntity
  8
躯体と製品
  6
Continuous
 62
     3
100
AcDbLine
 10
1445.259470993259
 20
764.332899280306
 30
0.0
 11
1444.009470993259
 21
764.332899280306
 31
0.0
  0
LINE
  5
6EF4
330
1E
100
AcDbEntity
  8
躯体と製品
  6
Continuous
 62
     3
100
AcDbLine
 10
1439.509470993259
 20
765.832899280306
 30
0.0
 11
1445.259470993259
 21
765.832899280306
 31
0.0
  0
LINE
  5
6EF5
330
1E
100
AcDbEntity
  8
躯体と製品
  6
Continuous
 62
     3
100
AcDbLine
 10
1437.009470993259
 20
772.3328992803057
 30
0.0
 11
1436.509470993259
 21
772.3328992803057
 31
0.0
  0
ARC
  5
6EF6
330
1E
100
AcDbEntity
  8
躯体と製品
  6
Continuous
 62
     3
100
AcDbCircle
 10
1439.509470993259
 20
766.332899280306
 30
0.0
 40
0.5
100
AcDbArc
 50
180.0
 51
270.0
  0
LINE
  5
6EF7
330
1E
100
AcDbEntity
  8
躯体と製品
  6
Continuous
 62
     3
100
AcDbLine
 10
1439.009470993259
 20
770.332899280306
 30
0.0
 11
1439.009470993259
 21
766.332899280306
 31
0.0
  0
ARC
  5
6EF8
330
1E
100
AcDbEntity
  8
躯体と製品
  6
Continuous
 62
     3
100
AcDbCircle
 10
1439.509470993259
 20
770.332899280306
 30
0.0
 40
0.5
100
AcDbArc
 50
90.0
 51
180.0
  0
ARC
  5
6EF9
330
1E
100
AcDbEntity
  8
躯体と製品
  6
Continuous
 62
     3
100
AcDbCircle
 10
1439.509470993259
 20
772.8328992803057
 30
0.0
 40
0.5
100
AcDbArc
 50
180.0
 51
270.0
  0
LINE
  5
6EFA
330
1E
100
AcDbEntity
  8
躯体と製品
  6
Continuous
 62
     3
100
AcDbLine
 10
1437.009470993259
 20
770.832899280306
 30
0.0
 11
1436.509470993259
 21
770.832899280306
 31
0.0
  0
ARC
  5
6EFB
330
1E
100
AcDbEntity
  8
躯体と製品
  6
Continuous
 62
     3
100
AcDbCircle
 10
1437.009470993259
 20
770.332899280306
 30
0.0
 40
0.5
100
AcDbArc
 50
0.0
 51
90.0
  0
LINE
  5
6EFC
330
1E
100
AcDbEntity
  8
躯体と製品
  6
Continuous
 62
     3
100
AcDbLine
 10
1436.509470993259
 20
772.3328992803057
 30
0.0
 11
1436.509470993259
 21
770.832899280306
 31
0.0
  0
LINE
  5
6EFD
330
1E
100
AcDbEntity
  8
躯体と製品
  6
Continuous
 62
     3
100
AcDbLine
 10
1441.509470993259
 20
775.8328992803058
 30
0.0
 11
1441.509470993259
 21
773.5828992803058
 31
0.0
  0
ARC
  5
6EFE
330
1E
100
AcDbEntity
  8
躯体と製品
  6
Continuous
 62
     3
100
AcDbCircle
 10
1442.259470993259
 20
773.5828992803058
 30
0.0
 40
0.75
100
AcDbArc
 50
180.0
 51
0.0
  0
LINE
  5
6EFF
330
1E
100
AcDbEntity
  8
躯体と製品
  6
Continuous
 62
     3
100
AcDbLine
 10
1443.009470993259
 20
774.832899280306
 30
0.0
 11
1443.009470993259
 21
773.5828992803058
 31
0.0
  0
ARC
  5
6F00
330
1E
100
AcDbEntity
  8
躯体と製品
  6
Continuous
 62
     3
100
AcDbCircle
 10
1443.509470993259
 20
774.832899280306
 30
0.0
 40
0.5
100
AcDbArc
 50
90.0
 51
180.0
  0
LINE
  5
6F01
330
1E
100
AcDbEntity
  8
躯体と製品
  6
DASHED1
 62
     7
100
AcDbLine
 10
1422.50947099326
 20
795.3328982803061
 30
0.0
 11
1434.509470993259
 21
795.3328982803061
 31
0.0
  0
LINE
  5
6F02
330
1E
100
AcDbEntity
  8
躯体と製品
  6
DASHED1
 62
     7
100
AcDbLine
 10
1434.509470993259
 20
786.3328982803062
 30
0.0
 11
1429.509469993259
 21
787.332897280306
 31
0.0
  0
LINE
  5
6F03
330
1E
100
AcDbEntity
  8
躯体と製品
  6
DASHED1
 62
     7
100
AcDbLine
 10
1429.509469993259
 20
791.332899280306
 30
0.0
 11
1434.509470993259
 21
791.332899280306
 31
0.0
  0
LINE
  5
6F04
330
1E
100
AcDbEntity
  8
躯体と製品
  6
DASHED1
 62
     7
100
AcDbLine
 10
1434.509470993259
 20
790.332897280306
 30
0.0
 11
1429.509469993259
 21
791.332899280306
 31
0.0
  0
LINE
  5
6F05
330
1E
100
AcDbEntity
  8
躯体と製品
  6
DASHED1
 62
     7
100
AcDbLine
 10
1434.509470993259
 20
792.3328982803059
 30
0.0
 11
1429.509469993259
 21
791.332899280306
 31
0.0
  0
LINE
  5
6F06
330
1E
100
AcDbEntity
  8
躯体と製品
  6
DASHED1
 62
     7
100
AcDbLine
 10
1434.509470993259
 20
796.332897280306
 30
0.0
 11
1429.509469993259
 21
795.3328982803061
 31
0.0
  0
LINE
  5
6F07
330
1E
100
AcDbEntity
  8
躯体と製品
  6
DASHED1
 62
     7
100
AcDbLine
 10
1422.50947099326
 20
787.332897280306
 30
0.0
 11
1434.509470993259
 21
787.332897280306
 31
0.0
  0
LINE
  5
6F08
330
1E
100
AcDbEntity
  8
躯体と製品
  6
DASHED1
 62
     7
100
AcDbLine
 10
1417.704979993259
 20
786.8666702803062
 30
0.0
 11
1416.601678993259
 21
788.8115942803058
 31
0.0
  0
LINE
  5
6F09
330
1E
100
AcDbEntity
  8
躯体と製品
  6
DASHED1
 62
     7
100
AcDbLine
 10
1419.597565993259
 20
788.9686022803061
 30
0.0
 11
1419.702238993259
 21
786.971343280306
 31
0.0
  0
LINE
  5
6F0A
330
1E
100
AcDbEntity
  8
躯体と製品
  6
DASHED1
 62
     7
100
AcDbLine
 10
1421.594824993259
 20
789.0732722803059
 30
0.0
 11
1422.50947099326
 21
787.332897280306
 31
0.0
  0
LINE
  5
6F0B
330
1E
100
AcDbEntity
  8
躯体と製品
  6
DASHED1
 62
     7
100
AcDbLine
 10
1426.313110993259
 20
785.0105582803061
 30
0.0
 11
1419.709090993259
 21
785.9539892803058
 31
0.0
  0
LINE
  5
6F0C
330
1E
100
AcDbEntity
  8
躯体と製品
  6
DASHED1
 62
     7
100
AcDbLine
 10
1419.367069993259
 20
785.0142962803061
 30
0.0
 11
1426.170691993259
 21
784.021941280306
 31
0.0
  0
LINE
  5
6F0D
330
1E
100
AcDbEntity
  8
躯体と製品
  6
DASHED1
 62
     7
100
AcDbLine
 10
1419.702238993259
 20
786.971343280306
 30
0.0
 11
1417.704979993259
 21
786.8666702803062
 31
0.0
  0
ARC
  5
6F0E
330
1E
100
AcDbEntity
  8
躯体と製品
  6
DASHED1
 62
     7
100
AcDbCircle
 10
1426.256542993259
 20
784.6145792803058
 30
0.0
 40
0.3999990000000001
100
AcDbArc
 50
351.8698979999985
 51
81.86989800000221
  0
LINE
  5
6F0F
330
1E
100
AcDbEntity
  8
躯体と製品
  6
DASHED1
 62
     7
100
AcDbLine
 10
1426.624405993259
 20
784.361184280306
 30
0.0
 11
1426.652521993259
 21
784.5580112803059
 31
0.0
  0
ARC
  5
6F10
330
1E
100
AcDbEntity
  8
躯体と製品
  6
DASHED1
 62
     7
100
AcDbCircle
 10
1426.228423993259
 20
784.4177522803058
 30
0.0
 40
0.3999990000000001
100
AcDbArc
 50
261.7015340000029
 51
351.8698979999985
  0
LINE
  5
6F11
330
1E
100
AcDbEntity
  8
躯体と製品
  6
DASHED1
 62
     7
100
AcDbLine
 10
1426.313110993259
 20
797.6552372803061
 30
0.0
 11
1419.709090993259
 21
796.7118062803058
 31
0.0
  0
LINE
  5
6F12
330
1E
100
AcDbEntity
  8
躯体と製品
  6
DASHED1
 62
     7
100
AcDbLine
 10
1419.367069993259
 20
797.651499280306
 30
0.0
 11
1426.170691993259
 21
798.6438542803061
 31
0.0
  0
LINE
  5
6F13
330
1E
100
AcDbEntity
  8
躯体と製品
  6
DASHED1
 62
     7
100
AcDbLine
 10
1421.594824993259
 20
789.0732722803059
 30
0.0
 11
1419.597565993259
 21
788.9686022803061
 31
0.0
  0
LINE
  5
6F14
330
1E
100
AcDbEntity
  8
躯体と製品
  6
DASHED1
 62
     7
100
AcDbLine
 10
1417.704979993259
 20
795.799125280306
 30
0.0
 11
1416.601678993259
 21
793.8542012803059
 31
0.0
  0
LINE
  5
6F15
330
1E
100
AcDbEntity
  8
躯体と製品
  6
DASHED1
 62
     7
100
AcDbLine
 10
1419.702238993259
 20
795.6944522803058
 30
0.0
 11
1417.704979993259
 21
795.799125280306
 31
0.0
  0
LINE
  5
6F16
330
1E
100
AcDbEntity
  8
躯体と製品
  6
DASHED1
 62
     7
100
AcDbLine
 10
1419.597565993259
 20
793.6971932803062
 30
0.0
 11
1419.702238993259
 21
795.6944522803058
 31
0.0
  0
LINE
  5
6F17
330
1E
100
AcDbEntity
  8
躯体と製品
  6
DASHED1
 62
     7
100
AcDbLine
 10
1421.594824993259
 20
793.592523280306
 30
0.0
 11
1419.597565993259
 21
793.6971932803062
 31
0.0
  0
LINE
  5
6F18
330
1E
100
AcDbEntity
  8
躯体と製品
  6
DASHED1
 62
     7
100
AcDbLine
 10
1422.50947099326
 20
795.3328982803061
 30
0.0
 11
1421.594824993259
 21
793.592523280306
 31
0.0
  0
LINE
  5
6F19
330
1E
100
AcDbEntity
  8
躯体と製品
  6
DASHED1
 62
     7
100
AcDbLine
 10
1426.509469993259
 20
791.8328972803061
 30
0.0
 11
1426.509469993259
 21
790.8328982803062
 31
0.0
  0
ARC
  5
6F1A
330
1E
100
AcDbEntity
  8
躯体と製品
  6
DASHED1
 62
     7
100
AcDbCircle
 10
1426.256542993259
 20
798.0512162803059
 30
0.0
 40
0.3999990000000001
100
AcDbArc
 50
278.1301019999978
 51
8.130102000001478
  0
LINE
  5
6F1B
330
1E
100
AcDbEntity
  8
躯体と製品
  6
DASHED1
 62
     7
100
AcDbLine
 10
1426.624405993259
 20
798.3046112803061
 30
0.0
 11
1426.652521993259
 21
798.1077872803061
 31
0.0
  0
ARC
  5
6F1C
330
1E
100
AcDbEntity
  8
躯体と製品
  6
DASHED1
 62
     7
100
AcDbCircle
 10
1426.228423993259
 20
798.2480432803058
 30
0.0
 40
0.3999990000000001
100
AcDbArc
 50
8.130102000001478
 51
98.29846599999713
  0
ARC
  5
6F1D
330
1E
100
AcDbEntity
  8
躯体と製品
  6
Continuous
 62
     7
100
AcDbCircle
 10
1440.380761993259
 20
789.8301362803061
 30
0.0
 40
3.0
100
AcDbArc
 50
272.4589259999963
 51
321.3853620000019
  0
LINE
  5
6F1E
330
1E
100
AcDbEntity
  8
躯体と製品
  6
Continuous
 62
     3
100
AcDbLine
 10
1436.509470993259
 20
796.3328992803058
 30
0.0
 11
1436.509470993259
 21
786.332899280306
 31
0.0
  0
ARC
  5
6F1F
330
1E
100
AcDbEntity
  8
躯体と製品
  6
DASHED1
 62
     7
100
AcDbCircle
 10
1446.509470993259
 20
795.6580406629575
 30
0.0
 40
7.5
100
AcDbArc
 50
180.0
 51
266.9999999999944
  0
CIRCLE
  5
6F20
330
1E
100
AcDbEntity
  8
図枠
  6
Continuous
 62
     4
100
AcDbCircle
 10
1439.793273881109
 20
784.7165710521185
 30
0.0
 40
0.9
  0
LINE
  5
6F21
330
1E
100
AcDbEntity
  8
躯体と製品
  6
Continuous
 62
     7
100
AcDbLine
 10
1439.009470993259
 20
782.332899280306
 30
0.0
 11
1440.509470993259
 21
782.332899280306
 31
0.0
  0
LINE
  5
6F22
330
1E
100
AcDbEntity
  8
躯体と製品
  6
Continuous
 62
     3
100
AcDbLine
 10
1436.509470993259
 20
786.332899280306
 30
0.0
 11
1437.009470993259
 21
786.332899280306
 31
0.0
  0
ARC
  5
6F23
330
1E
100
AcDbEntity
  8
躯体と製品
  6
Continuous
 62
     3
100
AcDbCircle
 10
1444.009470993259
 20
777.332899280306
 30
0.0
 40
0.5
100
AcDbArc
 50
270.0
 51
0.0
  0
LINE
  5
6F24
330
1E
100
AcDbEntity
  8
躯体と製品
  6
Continuous
 62
     3
100
AcDbLine
 10
1444.009470993259
 20
776.8328992803057
 30
0.0
 11
1442.509470993259
 21
776.8328992803057
 31
0.0
  0
ARC
  5
6F25
330
1E
100
AcDbEntity
  8
躯体と製品
  6
Continuous
 62
     3
100
AcDbCircle
 10
1447.509470993259
 20
778.832899280306
 30
0.0
 40
1.0
100
AcDbArc
 50
180.0
 51
270.0
  0
CIRCLE
  5
6F26
330
1E
100
AcDbEntity
  8
図枠
  6
Continuous
 62
     4
100
AcDbCircle
 10
1441.872474837502
 20
793.2521336848392
 30
0.0
 40
0.9
  0
ARC
  5
6F27
330
1E
100
AcDbEntity
  8
躯体と製品
  6
Continuous
 62
     7
100
AcDbCircle
 10
1440.380761993259
 20
792.8356592803059
 30
0.0
 40
3.0
100
AcDbArc
 50
38.61463799999811
 51
87.54107400000371
  0
LINE
  5
6F28
330
1E
100
AcDbEntity
  8
躯体と製品
  6
Continuous
 62
     7
100
AcDbLine
 10
1435.509470993259
 20
788.8328992803057
 30
0.0
 11
1434.509470993259
 21
788.8328992803057
 31
0.0
  0
LINE
  5
6F29
330
1E
100
AcDbEntity
  8
躯体と製品
  6
Continuous
 62
     7
100
AcDbLine
 10
1435.509470993259
 20
793.832899280306
 30
0.0
 11
1434.509470993259
 21
793.832899280306
 31
0.0
  0
LINE
  5
6F2A
330
1E
100
AcDbEntity
  8
躯体と製品
  6
Continuous
 62
     3
100
AcDbLine
 10
1436.509470993259
 20
796.3328992803058
 30
0.0
 11
1437.009470993259
 21
796.3328992803058
 31
0.0
  0
LINE
  5
6F2B
330
1E
100
AcDbEntity
  8
躯体と製品
  6
Continuous
 62
     3
100
AcDbLine
 10
1439.009470993259
 20
791.832899280306
 30
0.0
 11
1438.509470993259
 21
791.332899280306
 31
0.0
  0
LINE
  5
6F2C
330
1E
100
AcDbEntity
  8
躯体と製品
  6
Continuous
 62
     3
100
AcDbLine
 10
1439.009470993259
 20
790.832899280306
 30
0.0
 11
1438.509470993259
 21
791.332899280306
 31
0.0
  0
ARC
  5
6F2D
330
1E
100
AcDbEntity
  8
躯体と製品
  6
Continuous
 62
     7
100
AcDbCircle
 10
1438.509472993259
 20
791.332899280306
 30
0.0
 40
5.4
100
AcDbArc
 50
321.3178130000017
 51
0.0
  0
ARC
  5
6F2E
330
1E
100
AcDbEntity
  8
躯体と製品
  6
Continuous
 62
     7
100
AcDbCircle
 10
1438.509472993259
 20
791.332899280306
 30
0.0
 40
5.4
100
AcDbArc
 50
0.0
 51
38.85106200000375
  0
ARC
  5
6F2F
330
1E
100
AcDbEntity
  8
躯体と製品
  6
DASHED1
 62
     7
100
AcDbCircle
 10
1446.509470993259
 20
795.6580406629582
 30
0.0
 40
3.0
100
AcDbArc
 50
180.0
 51
266.9999999999944
  0
ARC
  5
6F30
330
1E
100
AcDbEntity
  8
躯体と製品
  6
Continuous
 62
     3
100
AcDbCircle
 10
1455.509470993259
 20
775.8328992803058
 30
0.0
 40
2.0
100
AcDbArc
 50
0.0
 51
90.0
  0
LINE
  5
6F31
330
1E
100
AcDbEntity
  8
躯体と製品
  6
Continuous
 62
     3
100
AcDbLine
 10
1465.21065951196
 20
761.9217491892127
 30
0.0
 11
1466.676066286762
 21
789.8833761623407
 31
0.0
  0
LINE
  5
6F32
330
1E
100
AcDbEntity
  8
躯体と製品
  6
DASHED1
 62
     7
100
AcDbLine
 10
1465.341499402567
 20
764.4183230260989
 30
0.0
 11
1470.33464707634
 21
764.156643244884
 31
0.0
  0
ARC
  5
6F33
330
1E
100
AcDbEntity
  8
躯体と製品
  6
Continuous
 62
     3
100
AcDbCircle
 10
1463.318072354937
 20
764.0236801712075
 30
0.0
 40
0.5
100
AcDbArc
 50
357.0000000000011
 51
86.99999999999441
  0
ARC
  5
6F34
330
1E
100
AcDbEntity
  8
躯体と製品
  6
Continuous
 62
     3
100
AcDbCircle
 10
1464.763680700826
 20
762.9465467020883
 30
0.0
 40
0.5
100
AcDbArc
 50
266.9999999999944
 51
357.0000000000011
  0
LINE
  5
6F35
330
1E
100
AcDbEntity
  8
躯体と製品
  6
Continuous
 62
     3
100
AcDbLine
 10
1464.238197955326
 20
762.4733999128324
 30
0.0
 11
1464.737512722704
 21
762.447231934711
 31
0.0
  0
ARC
  5
6F36
330
1E
100
AcDbEntity
  8
躯体と製品
  6
Continuous
 62
     3
100
AcDbCircle
 10
1464.264365933448
 20
762.9727146802098
 30
0.0
 40
0.5
100
AcDbArc
 50
177.0000000000011
 51
266.9999999999944
  0
LINE
  5
6F37
330
1E
100
AcDbEntity
  8
躯体と製品
  6
Continuous
 62
     3
100
AcDbLine
 10
1463.817387122314
 20
763.997512193086
 30
0.0
 11
1463.765051166071
 21
762.9988826583314
 31
0.0
  0
ARC
  5
6F38
330
1E
100
AcDbEntity
  8
躯体と製品
  6
Continuous
 62
     3
100
AcDbCircle
 10
1458.509470993259
 20
768.781863847021
 30
0.0
 40
1.0
100
AcDbArc
 50
180.0
 51
266.9999999999944
  0
LINE
  5
6F39
330
1E
100
AcDbEntity
  8
躯体と製品
  6
Continuous
 62
     3
100
AcDbLine
 10
1456.904799080773
 20
764.8604717544404
 30
0.0
 11
1463.344240333058
 21
764.5229949385845
 31
0.0
  0
ARC
  5
6F3A
330
1E
100
AcDbEntity
  8
躯体と製品
  6
Continuous
 62
     3
100
AcDbCircle
 10
1450.259470993259
 20
771.582899280306
 30
0.0
 40
0.75
100
AcDbArc
 50
270.0
 51
90.0
  0
ARC
  5
6F3B
330
1E
100
AcDbEntity
  8
躯体と製品
  6
Continuous
 62
     3
100
AcDbCircle
 10
1454.009470993259
 20
774.332899280306
 30
0.0
 40
1.0
100
AcDbArc
 50
0.0
 51
90.0
  0
LINE
  5
6F3C
330
1E
100
AcDbEntity
  8
躯体と製品
  6
Continuous
 62
     3
100
AcDbLine
 10
1457.509470993259
 20
768.781863847021
 30
0.0
 11
1457.509470993259
 21
775.8328992803058
 31
0.0
  0
LINE
  5
6F3D
330
1E
100
AcDbEntity
  8
躯体と製品
  6
Continuous
 62
     3
100
AcDbLine
 10
1455.009470993259
 20
766.8577308239497
 30
0.0
 11
1455.009470993259
 21
774.332899280306
 31
0.0
  0
ARC
  5
6F3E
330
1E
100
AcDbEntity
  8
躯体と製品
  6
Continuous
 62
     3
100
AcDbCircle
 10
1457.009470993259
 20
766.8577308239497
 30
0.0
 40
2.0
100
AcDbArc
 50
180.0
 51
266.9999999999944
  0
ARC
  5
6F3F
330
1E
100
AcDbEntity
  8
躯体と製品
  6
Continuous
 62
     3
100
AcDbCircle
 10
1465.130032394526
 20
769.9369534453705
 30
0.0
 40
0.5
100
AcDbArc
 50
357.0000000000011
 51
86.99999999999441
  0
LINE
  5
6F40
330
1E
100
AcDbEntity
  8
躯体と製品
  6
Continuous
 62
     3
100
AcDbLine
 10
1464.65688560527
 20
770.4624361908691
 30
0.0
 11
1465.156200372648
 21
770.4362682127477
 31
0.0
  0
ARC
  5
6F41
330
1E
100
AcDbEntity
  8
躯体と製品
  6
Continuous
 62
     3
100
AcDbCircle
 10
1464.630717627149
 20
769.9631214234917
 30
0.0
 40
0.5
100
AcDbArc
 50
86.99999999999441
 51
177.0000000000011
  0
LINE
  5
6F42
330
1E
100
AcDbEntity
  8
躯体と製品
  6
Continuous
 62
     3
100
AcDbLine
 10
1464.026730947285
 20
767.9920303321043
 30
0.0
 11
1464.131402859771
 21
769.9892894016134
 31
0.0
  0
ARC
  5
6F43
330
1E
100
AcDbEntity
  8
躯体と製品
  6
Continuous
 62
     3
100
AcDbCircle
 10
1463.527416179908
 20
768.0181983102254
 30
0.0
 40
0.5
100
AcDbArc
 50
266.9999999999944
 51
357.0000000000011
  0
LINE
  5
6F44
330
1E
100
AcDbEntity
  8
躯体と製品
  6
Continuous
 62
     3
100
AcDbLine
 10
1458.457135037016
 20
767.7832343122664
 30
0.0
 11
1463.501248201787
 21
767.5188835428484
 31
0.0
  0
LINE
  5
6F45
330
1E
100
AcDbEntity
  8
躯体と製品
  6
DASHED1
 62
     7
100
AcDbLine
 10
1470.33464707634
 20
764.156643244884
 30
0.0
 11
1470.386983032583
 21
765.1552727796386
 31
0.0
  0
CIRCLE
  5
6F46
330
1E
100
AcDbEntity
  8
図枠
  6
Continuous
 62
     4
100
AcDbCircle
 10
1466.230365241845
 20
796.734365807422
 30
0.0
 40
0.9
  0
LINE
  5
6F47
330
1E
100
AcDbEntity
  8
躯体と製品
  6
Continuous
 62
     7
100
AcDbLine
 10
1466.622333853211
 20
798.332899280306
 30
0.0
 11
1465.707545991055
 21
796.4242174612405
 31
0.0
  0
ARC
  5
6F48
330
1E
100
AcDbEntity
  8
躯体と製品
  6
Continuous
 62
     7
100
AcDbCircle
 10
1462.821859117591
 20
797.8072616645529
 30
0.0
 40
4.0
100
AcDbArc
 50
218.4034240609339
 51
334.3926576447682
  0
LINE
  5
6F49
330
1E
100
AcDbEntity
  8
躯体と製品
  6
Continuous
 62
     7
100
AcDbLine
 10
1458.509470993259
 20
798.332899280306
 30
0.0
 11
1467.509470993259
 21
798.332899280306
 31
0.0
  0
ARC
  5
6F4A
330
1E
100
AcDbEntity
  8
躯体と製品
  6
Continuous
 62
     3
100
AcDbCircle
 10
1451.509470993259
 20
795.3960017665432
 30
0.0
 40
1.0
100
AcDbArc
 50
180.0
 51
266.9999999999944
  0
ARC
  5
6F4B
330
1E
100
AcDbEntity
  8
躯体と製品
  6
Continuous
 62
     7
100
AcDbCircle
 10
1462.821859117591
 20
797.8072616645529
 30
0.0
 40
3.2
100
AcDbArc
 50
218.4034240609339
 51
334.3926576447682
  0
LINE
  5
6F4C
330
1E
100
AcDbEntity
  8
躯体と製品
  6
Continuous
 62
     7
100
AcDbLine
 10
1458.693322394146
 20
796.5763333469142
 30
0.0
 11
1459.687233775876
 21
795.322483210228
 31
0.0
  0
LINE
  5
6F4D
330
1E
100
AcDbEntity
  8
躯体と製品
  6
Continuous
 62
     7
100
AcDbLine
 10
1459.320247462489
 20
797.0732890377791
 30
0.0
 11
1460.314158844219
 21
795.8194389010929
 31
0.0
  0
ARC
  5
6F4E
330
1E
100
AcDbEntity
  8
躯体と製品
  6
Continuous
 62
     7
100
AcDbCircle
 10
1459.006784928318
 20
796.8248111923465
 30
0.0
 40
0.4
100
AcDbArc
 50
38.4034240609339
 51
218.4034240609339
  0
LINE
  5
6F4F
330
1E
100
AcDbEntity
  8
躯体と製品
  6
Continuous
 62
     7
100
AcDbLine
 10
1481.419997504987
 20
784.6045039123009
 30
0.0
 11
1481.629341329959
 21
788.5990220513193
 31
0.0
  0
LINE
  5
6F50
330
1E
100
AcDbEntity
  8
躯体と製品
  6
Continuous
 62
     4
100
AcDbLine
 10
1469.965379947656
 20
785.2048149810175
 30
0.0
 11
1466.60688456951
 21
788.5633103591634
 31
0.0
  0
LINE
  5
6F51
330
1E
100
AcDbEntity
  8
躯体と製品
  6
Continuous
 62
     4
100
AcDbLine
 10
1471.457808369349
 20
785.126600121697
 30
0.0
 11
1467.230790358416
 21
789.3536181326314
 31
0.0
  0
LINE
  5
6F52
330
1E
100
AcDbEntity
  8
躯体と製品
  6
Continuous
 62
     4
100
AcDbLine
 10
1472.950236791043
 20
785.0483852623776
 30
0.0
 11
1468.723218780108
 21
789.2754032733113
 31
0.0
  0
LINE
  5
6F53
330
1E
100
AcDbEntity
  8
躯体と製品
  6
Continuous
 62
     4
100
AcDbLine
 10
1474.442665212736
 20
784.9701704030579
 30
0.0
 11
1470.215647201802
 21
789.1971884139914
 31
0.0
  0
LINE
  5
6F54
330
1E
100
AcDbEntity
  8
躯体と製品
  6
Continuous
 62
     4
100
AcDbLine
 10
1475.935093634428
 20
784.891955543738
 30
0.0
 11
1471.708075623495
 21
789.1189735546718
 31
0.0
  0
LINE
  5
6F55
330
1E
100
AcDbEntity
  8
躯体と製品
  6
Continuous
 62
     4
100
AcDbLine
 10
1477.427522056122
 20
784.8137406844181
 30
0.0
 11
1473.200504045188
 21
789.0407586953522
 31
0.0
  0
LINE
  5
6F56
330
1E
100
AcDbEntity
  8
躯体と製品
  6
Continuous
 62
     4
100
AcDbLine
 10
1478.919950477815
 20
784.7355258250984
 30
0.0
 11
1474.692932466881
 21
788.9625438360321
 31
0.0
  0
LINE
  5
6F57
330
1E
100
AcDbEntity
  8
躯体と製品
  6
Continuous
 62
     4
100
AcDbLine
 10
1480.412378899506
 20
784.6573109657788
 30
0.0
 11
1476.185360888572
 21
788.8843289767123
 31
0.0
  0
LINE
  5
6F58
330
1E
100
AcDbEntity
  8
躯体と製品
  6
Continuous
 62
     4
100
AcDbLine
 10
1481.442874796125
 20
785.0410286315334
 30
0.0
 11
1477.677789310265
 21
788.8061141173927
 31
0.0
  0
LINE
  5
6F59
330
1E
100
AcDbEntity
  8
躯体と製品
  6
Continuous
 62
     4
100
AcDbLine
 10
1481.51329977178
 20
786.3848172182515
 30
0.0
 11
1479.170217731958
 21
788.7278992580729
 31
0.0
  0
LINE
  5
6F5A
330
1E
100
AcDbEntity
  8
躯体と製品
  6
Continuous
 62
     4
100
AcDbLine
 10
1466.980523104272
 20
785.3612446996572
 30
0.0
 11
1466.466034618198
 21
785.8757331857298
 31
0.0
  0
LINE
  5
6F5B
330
1E
100
AcDbEntity
  8
躯体と製品
  6
Continuous
 62
     4
100
AcDbLine
 10
1468.472951525962
 20
785.2830298403375
 30
0.0
 11
1466.536459593854
 21
787.2195217724461
 31
0.0
  0
LINE
  5
6F5C
330
1E
100
AcDbEntity
  8
躯体と製品
  6
Continuous
 62
     7
100
AcDbLine
 10
1466.649898308641
 20
789.3840613949633
 30
0.0
 11
1481.629341329959
 21
788.5990220513193
 31
0.0
  0
LINE
  5
6F5D
330
1E
100
AcDbEntity
  8
躯体と製品
  6
Continuous
 62
     4
100
AcDbLine
 10
1474.678177015829
 20
789.4640033094533
 30
0.0
 11
1472.869739852536
 21
791.2724404727462
 31
0.0
  0
LINE
  5
6F5E
330
1E
100
AcDbEntity
  8
躯体と製品
  6
Continuous
 62
     7
100
AcDbLine
 10
1467.509470993259
 20
798.332899280306
 30
0.0
 11
1466.428967709421
 21
796.0784564104121
 31
0.0
  0
LINE
  5
6F5F
330
1E
100
AcDbEntity
  8
躯体と製品
  6
Continuous
 62
     7
100
AcDbLine
 10
1467.509470993259
 20
798.832899280306
 30
0.0
 11
1467.509470993259
 21
798.332899280306
 31
0.0
  0
LINE
  5
6F60
330
1E
100
AcDbEntity
  8
躯体と製品
  6
Continuous
 62
     7
100
AcDbLine
 10
1466.676066286762
 20
789.8833761623405
 30
0.0
 11
1466.76562946156
 21
791.5923433428359
 31
0.0
  0
LINE
  5
6F61
330
1E
100
AcDbEntity
  8
躯体と製品
  6
Continuous
 62
     4
100
AcDbLine
 10
1467.216034907365
 20
789.8550776060524
 30
0.0
 11
1466.701546421292
 21
790.3695660921255
 31
0.0
  0
LINE
  5
6F62
330
1E
100
AcDbEntity
  8
躯体と製品
  6
Continuous
 62
     4
100
AcDbLine
 10
1468.708463329056
 20
789.7768627467328
 30
0.0
 11
1466.900026165764
 21
791.5852999100255
 31
0.0
  0
LINE
  5
6F63
330
1E
100
AcDbEntity
  8
躯体と製品
  6
Continuous
 62
     4
100
AcDbLine
 10
1470.20089175075
 20
789.698647887413
 30
0.0
 11
1468.392454587457
 21
791.5070850507056
 31
0.0
  0
LINE
  5
6F64
330
1E
100
AcDbEntity
  8
躯体と製品
  6
Continuous
 62
     4
100
AcDbLine
 10
1471.693320172443
 20
789.6204330280925
 30
0.0
 11
1469.88488300915
 21
791.4288701913858
 31
0.0
  0
LINE
  5
6F65
330
1E
100
AcDbEntity
  8
躯体と製品
  6
Continuous
 62
     4
100
AcDbLine
 10
1473.185748594136
 20
789.5422181687729
 30
0.0
 11
1471.377311430843
 21
791.3506553320659
 31
0.0
  0
LINE
  5
6F66
330
1E
100
AcDbEntity
  8
躯体と製品
  6
Continuous
 62
     7
100
AcDbLine
 10
1481.655509308081
 20
789.0983368186962
 30
0.0
 11
1481.745072482878
 21
790.8073039991915
 31
0.0
  0
LINE
  5
6F67
330
1E
100
AcDbEntity
  8
躯体と製品
  6
Continuous
 62
     4
100
AcDbLine
 10
1481.583724747436
 20
787.728605804969
 30
0.0
 11
1480.662646153652
 21
788.6496843987529
 31
0.0
  0
LINE
  5
6F68
330
1E
100
AcDbEntity
  8
躯体と製品
  6
Continuous
 62
     4
100
AcDbLine
 10
1476.170605437522
 20
789.3857884501335
 30
0.0
 11
1474.362168274229
 21
791.1942256134262
 31
0.0
  0
LINE
  5
6F69
330
1E
100
AcDbEntity
  8
躯体と製品
  6
Continuous
 62
     4
100
AcDbLine
 10
1477.663033859215
 20
789.3075735908134
 30
0.0
 11
1475.854596695922
 21
791.1160107541064
 31
0.0
  0
LINE
  5
6F6A
330
1E
100
AcDbEntity
  8
躯体と製品
  6
Continuous
 62
     4
100
AcDbLine
 10
1479.155462280908
 20
789.2293587314941
 30
0.0
 11
1477.347025117615
 21
791.0377958947865
 31
0.0
  0
LINE
  5
6F6B
330
1E
100
AcDbEntity
  8
躯体と製品
  6
Continuous
 62
     4
100
AcDbLine
 10
1480.647890702599
 20
789.1511438721745
 30
0.0
 11
1478.839453539307
 21
790.9595810354669
 31
0.0
  0
LINE
  5
6F6C
330
1E
100
AcDbEntity
  8
躯体と製品
  6
Continuous
 62
     4
100
AcDbLine
 10
1481.678386599218
 20
789.534861537929
 30
0.0
 11
1480.331881961
 21
790.8813661761469
 31
0.0
  0
LINE
  5
6F6D
330
1E
100
AcDbEntity
  8
躯体と製品
  6
CENTER1
 62
     4
100
AcDbLine
 10
1437.386748310694
 20
841.832899280306
 30
0.0
 11
1454.254781993259
 21
841.832899280306
 31
0.0
  0
ARC
  5
6F6E
330
1E
100
AcDbEntity
  8
躯体と製品
  6
Continuous
 62
     7
100
AcDbCircle
 10
1449.009470993259
 20
840.3543278517346
 30
0.0
 40
2.021428571428568
100
AcDbArc
 50
270.0
 51
317.2587554613163
  0
ARC
  5
6F6F
330
1E
100
AcDbEntity
  8
躯体と製品
  6
Continuous
 62
     7
100
AcDbCircle
 10
1449.009470993259
 20
843.3114707088773
 30
0.0
 40
2.021428571428586
100
AcDbArc
 50
42.74124453868362
 51
90.0
  0
ARC
  5
6F70
330
1E
100
AcDbEntity
  8
躯体と製品
  6
Continuous
 62
     7
100
AcDbCircle
 10
1450.009470993259
 20
836.332899280306
 30
0.0
 40
1.0
100
AcDbArc
 50
180.0
 51
270.0
  0
LINE
  5
6F71
330
1E
100
AcDbEntity
  8
躯体と製品
  6
Continuous
 62
     4
100
AcDbLine
 10
1448.690881272932
 20
832.8328992803061
 30
0.0
 11
1449.490882272932
 21
833.6329002803058
 31
0.0
  0
LINE
  5
6F72
330
1E
100
AcDbEntity
  8
躯体と製品
  6
Continuous
 62
     7
100
AcDbLine
 10
1465.909471993259
 20
832.8328992803058
 30
0.0
 11
1447.509472993259
 21
832.8328992803058
 31
0.0
  0
LINE
  5
6F73
330
1E
100
AcDbEntity
  8
躯体と製品
  6
Continuous
 62
     7
100
AcDbLine
 10
1465.909471993259
 20
833.6329002803058
 30
0.0
 11
1447.509472993259
 21
833.6329002803058
 31
0.0
  0
ARC
  5
6F74
330
1E
100
AcDbEntity
  8
躯体と製品
  6
Continuous
 62
     3
100
AcDbCircle
 10
1449.509470993259
 20
835.8328992803061
 30
0.0
 40
0.5
100
AcDbArc
 50
180.0
 51
270.0
  0
LINE
  5
6F75
330
1E
100
AcDbEntity
  8
躯体と製品
  6
Continuous
 62
     3
100
AcDbLine
 10
1448.509470993259
 20
833.8328992803058
 30
0.0
 11
1467.009470993259
 21
833.8328992803058
 31
0.0
  0
LINE
  5
6F76
330
1E
100
AcDbEntity
  8
躯体と製品
  6
Continuous
 62
     3
100
AcDbLine
 10
1446.509470993259
 20
832.832899280306
 30
0.0
 11
1451.109470993259
 21
832.832899280306
 31
0.0
  0
LINE
  5
6F77
330
1E
100
AcDbEntity
  8
躯体と製品
  6
Continuous
 62
     3
100
AcDbLine
 10
1446.009470993259
 20
831.6328992803061
 30
0.0
 11
1451.109470993259
 21
831.6328992803061
 31
0.0
  0
LINE
  5
6F78
330
1E
100
AcDbEntity
  8
躯体と製品
  6
Continuous
 62
     3
100
AcDbLine
 10
1447.009470993259
 20
807.3328992803061
 30
0.0
 11
1451.009470993259
 21
807.3328992803061
 31
0.0
  0
LINE
  5
6F79
330
1E
100
AcDbEntity
  8
躯体と製品
  6
Continuous
 62
     3
100
AcDbLine
 10
1450.509470993259
 20
808.8328992803058
 30
0.0
 11
1446.009470993259
 21
808.8328992803058
 31
0.0
  0
LINE
  5
6F7A
330
1E
100
AcDbEntity
  8
躯体と製品
  6
Continuous
 62
     3
100
AcDbLine
 10
1452.009470993259
 20
815.3328992803061
 30
0.0
 11
1444.409470993259
 21
815.3328992803061
 31
0.0
  0
LINE
  5
6F7B
330
1E
100
AcDbEntity
  8
躯体と製品
  6
Continuous
 62
     3
100
AcDbLine
 10
1445.509470993259
 20
813.8328992803058
 30
0.0
 11
1451.009470993259
 21
813.8328992803058
 31
0.0
  0
LINE
  5
6F7C
330
1E
100
AcDbEntity
  8
躯体と製品
  6
Continuous
 62
     3
100
AcDbLine
 10
1448.509470993259
 20
806.4470371998281
 30
0.0
 11
1450.509470993259
 21
806.4470371998281
 31
0.0
  0
LINE
  5
6F7D
330
1E
100
AcDbEntity
  8
躯体と製品
  6
Continuous
 62
     3
100
AcDbLine
 10
1434.509470993259
 20
835.3328992803058
 30
0.0
 11
1434.509470993259
 21
805.3328992803058
 31
0.0
  0
LINE
  5
6F7E
330
1E
100
AcDbEntity
  8
躯体と製品
  6
Continuous
 62
     3
100
AcDbLine
 10
1435.509470993259
 20
805.3328992803058
 30
0.0
 11
1435.509470993259
 21
835.3328992803058
 31
0.0
  0
LINE
  5
6F7F
330
1E
100
AcDbEntity
  8
躯体と製品
  6
Continuous
 62
     3
100
AcDbLine
 10
1445.509470993259
 20
818.3328992803058
 30
0.0
 11
1445.509470993259
 21
824.3328992803061
 31
0.0
  0
LINE
  5
6F80
330
1E
100
AcDbEntity
  8
躯体と製品
  6
Continuous
 62
     3
100
AcDbLine
 10
1444.009470993259
 20
822.8328992803058
 30
0.0
 11
1444.009470993259
 21
819.032899280306
 31
0.0
  0
LINE
  5
6F81
330
1E
100
AcDbEntity
  8
躯体と製品
  6
Continuous
 62
     3
100
AcDbLine
 10
1437.009470993259
 20
823.3328992803061
 30
0.0
 11
1437.009470993259
 21
811.8328992803061
 31
0.0
  0
LINE
  5
6F82
330
1E
100
AcDbEntity
  8
躯体と製品
  6
Continuous
 62
     3
100
AcDbLine
 10
1439.009470993259
 20
812.332899280306
 30
0.0
 11
1439.009470993259
 21
822.8328992803058
 31
0.0
  0
LINE
  5
6F83
330
1E
100
AcDbEntity
  8
躯体と製品
  6
Continuous
 62
     4
100
AcDbLine
 10
1434.509470993259
 20
810.9150027662135
 30
0.0
 11
1435.50947099326
 21
809.9150027662133
 31
0.0
  0
LINE
  5
6F84
330
1E
100
AcDbEntity
  8
躯体と製品
  6
Continuous
 62
     3
100
AcDbLine
 10
1449.009470993259
 20
810.8328992803061
 30
0.0
 11
1449.009470993259
 21
811.332899280306
 31
0.0
  0
LINE
  5
6F85
330
1E
100
AcDbEntity
  8
躯体と製品
  6
Continuous
 62
     3
100
AcDbLine
 10
1436.509470993259
 20
811.8328992803061
 30
0.0
 11
1436.509470993259
 21
810.3328992803058
 31
0.0
  0
LINE
  5
6F86
330
1E
100
AcDbEntity
  8
躯体と製品
  6
Continuous
 62
     3
100
AcDbLine
 10
1448.509470993259
 20
810.3328992803058
 30
0.0
 11
1439.509470993259
 21
810.3328992803058
 31
0.0
  0
LINE
  5
6F87
330
1E
100
AcDbEntity
  8
躯体と製品
  6
DASHED1
 62
     7
100
AcDbLine
 10
1443.509470993259
 20
807.8111469628133
 30
0.0
 11
1439.009470993259
 21
807.8111469628133
 31
0.0
  0
LINE
  5
6F88
330
1E
100
AcDbEntity
  8
躯体と製品
  6
Continuous
 62
     4
100
AcDbLine
 10
1434.509470993259
 20
809.5007892038427
 30
0.0
 11
1435.509470993259
 21
808.5007892038428
 31
0.0
  0
LINE
  5
6F89
330
1E
100
AcDbEntity
  8
躯体と製品
  6
Continuous
 62
     4
100
AcDbLine
 10
1434.509470993259
 20
808.0865756414686
 30
0.0
 11
1435.509470993259
 21
807.0865756414688
 31
0.0
  0
LINE
  5
6F8A
330
1E
100
AcDbEntity
  8
躯体と製品
  6
Continuous
 62
     4
100
AcDbLine
 10
1434.509470993259
 20
806.6723620790956
 30
0.0
 11
1435.509470993259
 21
805.6723620790958
 31
0.0
  0
LINE
  5
6F8B
330
1E
100
AcDbEntity
  8
躯体と製品
  6
Continuous
 62
     3
100
AcDbLine
 10
1434.509470993259
 20
805.3328992803058
 30
0.0
 11
1435.509470993259
 21
805.3328992803058
 31
0.0
  0
LINE
  5
6F8C
330
1E
100
AcDbEntity
  8
躯体と製品
  6
Continuous
 62
     7
100
AcDbLine
 10
1439.009470993259
 20
800.332899280306
 30
0.0
 11
1440.509470993259
 21
800.332899280306
 31
0.0
  0
LINE
  5
6F8D
330
1E
100
AcDbEntity
  8
躯体と製品
  6
Continuous
 62
     3
100
AcDbLine
 10
1436.509470993259
 20
810.3328992803058
 30
0.0
 11
1437.009470993259
 21
810.3328992803058
 31
0.0
  0
ARC
  5
6F8E
330
1E
100
AcDbEntity
  8
躯体と製品
  6
Continuous
 62
     3
100
AcDbCircle
 10
1439.509470993259
 20
809.8328992803057
 30
0.0
 40
0.5
100
AcDbArc
 50
90.0
 51
180.0
  0
ARC
  5
6F8F
330
1E
100
AcDbEntity
  8
躯体と製品
  6
Continuous
 62
     3
100
AcDbCircle
 10
1448.509470993259
 20
810.8328992803061
 30
0.0
 40
0.5
100
AcDbArc
 50
270.0
 51
0.0
  0
ARC
  5
6F90
330
1E
100
AcDbEntity
  8
躯体と製品
  6
Continuous
 62
     3
100
AcDbCircle
 10
1446.009470993259
 20
807.3328992803061
 30
0.0
 40
1.5
100
AcDbArc
 50
90.0
 51
180.0
  0
ARC
  5
6F91
330
1E
100
AcDbEntity
  8
躯体と製品
  6
Continuous
 62
     3
100
AcDbCircle
 10
1447.009470993259
 20
806.832899280306
 30
0.0
 40
0.5
100
AcDbArc
 50
90.0
 51
180.0
  0
LINE
  5
6F92
330
1E
100
AcDbEntity
  8
躯体と製品
  6
Continuous
 62
     3
100
AcDbLine
 10
1439.509470993259
 20
811.8328992803061
 30
0.0
 11
1448.509470993259
 21
811.8328992803061
 31
0.0
  0
LINE
  5
6F93
330
1E
100
AcDbEntity
  8
躯体と製品
  6
Continuous
 62
     3
100
AcDbLine
 10
1440.909470993259
 20
817.3328992803059
 30
0.0
 11
1444.409470993259
 21
815.3328992803061
 31
0.0
  0
LINE
  5
6F94
330
1E
100
AcDbEntity
  8
躯体と製品
  6
Continuous
 62
     3
100
AcDbLine
 10
1440.165262585724
 20
816.0305345671195
 30
0.0
 11
1443.80947099326
 21
813.9481297628137
 31
0.0
  0
LINE
  5
6F95
330
1E
100
AcDbEntity
  8
躯体と製品
  6
Continuous
 62
     4
100
AcDbLine
 10
1434.509470993259
 20
822.2287112651986
 30
0.0
 11
1435.509470993259
 21
821.2287112651987
 31
0.0
  0
LINE
  5
6F96
330
1E
100
AcDbEntity
  8
躯体と製品
  6
Continuous
 62
     4
100
AcDbLine
 10
1434.509470993259
 20
820.8144977028254
 30
0.0
 11
1435.509470993259
 21
819.8144977028254
 31
0.0
  0
LINE
  5
6F97
330
1E
100
AcDbEntity
  8
躯体と製品
  6
Continuous
 62
     4
100
AcDbLine
 10
1434.509470993259
 20
819.4002841404538
 30
0.0
 11
1435.509470993259
 21
818.4002841404534
 31
0.0
  0
LINE
  5
6F98
330
1E
100
AcDbEntity
  8
躯体と製品
  6
Continuous
 62
     4
100
AcDbLine
 10
1434.50947099326
 20
817.9860705780798
 30
0.0
 11
1435.50947099326
 21
816.98607057808
 31
0.0
  0
LINE
  5
6F99
330
1E
100
AcDbEntity
  8
躯体と製品
  6
Continuous
 62
     4
100
AcDbLine
 10
1434.50947099326
 20
816.5718570157066
 30
0.0
 11
1435.509470993259
 21
815.5718570157068
 31
0.0
  0
LINE
  5
6F9A
330
1E
100
AcDbEntity
  8
躯体と製品
  6
Continuous
 62
     4
100
AcDbLine
 10
1434.509470993259
 20
815.1576434533332
 30
0.0
 11
1435.509470993259
 21
814.1576434533334
 31
0.0
  0
LINE
  5
6F9B
330
1E
100
AcDbEntity
  8
躯体と製品
  6
Continuous
 62
     4
100
AcDbLine
 10
1434.509470993259
 20
813.7434298909601
 30
0.0
 11
1435.509470993259
 21
812.7434298909603
 31
0.0
  0
LINE
  5
6F9C
330
1E
100
AcDbEntity
  8
躯体と製品
  6
Continuous
 62
     4
100
AcDbLine
 10
1434.509470993259
 20
812.3292163285869
 30
0.0
 11
1435.50947099326
 21
811.3292163285866
 31
0.0
  0
LINE
  5
6F9D
330
1E
100
AcDbEntity
  8
躯体と製品
  6
Continuous
 62
     3
100
AcDbLine
 10
1437.009470993259
 20
811.8328992803061
 30
0.0
 11
1436.509470993259
 21
811.8328992803061
 31
0.0
  0
ARC
  5
6F9E
330
1E
100
AcDbEntity
  8
躯体と製品
  6
Continuous
 62
     3
100
AcDbCircle
 10
1439.509470993259
 20
812.332899280306
 30
0.0
 40
0.5
100
AcDbArc
 50
180.0
 51
270.0
  0
ARC
  5
6F9F
330
1E
100
AcDbEntity
  8
躯体と製品
  6
Continuous
 62
     3
100
AcDbCircle
 10
1440.159470993259
 20
820.5828992803057
 30
0.0
 40
0.75
100
AcDbArc
 50
0.0
 51
180.0
  0
LINE
  5
6FA0
330
1E
100
AcDbEntity
  8
躯体と製品
  6
Continuous
 62
     3
100
AcDbLine
 10
1440.909470993259
 20
820.5828992803057
 30
0.0
 11
1440.909470993259
 21
817.3328992803059
 31
0.0
  0
LINE
  5
6FA1
330
1E
100
AcDbEntity
  8
躯体と製品
  6
Continuous
 62
     3
100
AcDbLine
 10
1439.409470993259
 20
817.3328992803059
 30
0.0
 11
1439.409470993259
 21
820.5828992803057
 31
0.0
  0
ARC
  5
6FA2
330
1E
100
AcDbEntity
  8
躯体と製品
  6
Continuous
 62
     3
100
AcDbCircle
 10
1440.909470993259
 20
817.3328992803059
 30
0.0
 40
1.5
100
AcDbArc
 50
180.0
 51
240.2551187030594
  0
ARC
  5
6FA3
330
1E
100
AcDbEntity
  8
躯体と製品
  6
Continuous
 62
     3
100
AcDbCircle
 10
1444.509470993259
 20
818.3328992803058
 30
0.0
 40
1.0
100
AcDbArc
 50
270.0
 51
0.0
  0
LINE
  5
6FA4
330
1E
100
AcDbEntity
  8
躯体と製品
  6
Continuous
 62
     3
100
AcDbLine
 10
1444.509470993259
 20
817.3328992803059
 30
0.0
 11
1442.609470993259
 21
817.3328992803059
 31
0.0
  0
LINE
  5
6FA5
330
1E
100
AcDbEntity
  8
躯体と製品
  6
Continuous
 62
     3
100
AcDbLine
 10
1443.509470993259
 20
818.5328992803061
 30
0.0
 11
1442.609470993259
 21
818.5328992803061
 31
0.0
  0
ARC
  5
6FA6
330
1E
100
AcDbEntity
  8
躯体と製品
  6
Continuous
 62
     3
100
AcDbCircle
 10
1443.509470993259
 20
819.032899280306
 30
0.0
 40
0.5
100
AcDbArc
 50
270.0
 51
0.0
  0
ARC
  5
6FA7
330
1E
100
AcDbEntity
  8
躯体と製品
  6
Continuous
 62
     3
100
AcDbCircle
 10
1442.609470993259
 20
817.9328992803061
 30
0.0
 40
0.5999999999999999
100
AcDbArc
 50
90.0
 51
270.0
  0
ARC
  5
6FA8
330
1E
100
AcDbEntity
  8
躯体と製品
  6
Continuous
 62
     3
100
AcDbCircle
 10
1448.509470993259
 20
811.332899280306
 30
0.0
 40
0.5
100
AcDbArc
 50
0.0
 51
90.0
  0
ARC
  5
6FA9
330
1E
100
AcDbEntity
  8
躯体と製品
  6
Continuous
 62
     3
100
AcDbCircle
 10
1444.409470993259
 20
812.4328992803059
 30
0.0
 40
0.5999999999999998
100
AcDbArc
 50
180.0
 51
0.0
  0
LINE
  5
6FAA
330
1E
100
AcDbEntity
  8
躯体と製品
  6
Continuous
 62
     3
100
AcDbLine
 10
1445.009470993259
 20
813.3328992803058
 30
0.0
 11
1445.009470993259
 21
812.4328992803059
 31
0.0
  0
ARC
  5
6FAB
330
1E
100
AcDbEntity
  8
躯体と製品
  6
Continuous
 62
     3
100
AcDbCircle
 10
1445.509470993259
 20
813.3328992803058
 30
0.0
 40
0.5
100
AcDbArc
 50
90.0
 51
180.0
  0
LINE
  5
6FAC
330
1E
100
AcDbEntity
  8
躯体と製品
  6
Continuous
 62
     3
100
AcDbLine
 10
1443.80947099326
 20
813.9481297628137
 30
0.0
 11
1443.80947099326
 21
812.4328992803059
 31
0.0
  0
LINE
  5
6FAD
330
1E
100
AcDbEntity
  8
躯体と製品
  6
Continuous
 62
     4
100
AcDbLine
 10
1434.509470993259
 20
834.9566333265567
 30
0.0
 11
1435.509470993259
 21
833.9566333265571
 31
0.0
  0
ARC
  5
6FAE
330
1E
100
AcDbEntity
  8
躯体と製品
  6
Continuous
 62
     7
100
AcDbCircle
 10
1447.509472993259
 20
834.1329012803058
 30
0.0
 40
1.299998999999999
100
AcDbArc
 50
180.0
 51
270.0
  0
ARC
  5
6FAF
330
1E
100
AcDbEntity
  8
躯体と製品
  6
Continuous
 62
     7
100
AcDbCircle
 10
1447.509472993259
 20
834.1329012803058
 30
0.0
 40
0.5000010000000003
100
AcDbArc
 50
180.0
 51
270.0
  0
ARC
  5
6FB0
330
1E
100
AcDbEntity
  8
躯体と製品
  6
Continuous
 62
     3
100
AcDbCircle
 10
1448.509470993259
 20
834.8328992803057
 30
0.0
 40
1.0
100
AcDbArc
 50
180.0
 51
270.0
  0
LINE
  5
6FB1
330
1E
100
AcDbEntity
  8
躯体と製品
  6
Continuous
 62
     3
100
AcDbLine
 10
1437.009470993259
 20
837.832899280306
 30
0.0
 11
1437.009470993259
 21
824.832899280306
 31
0.0
  0
LINE
  5
6FB2
330
1E
100
AcDbEntity
  8
躯体と製品
  6
Continuous
 62
     3
100
AcDbLine
 10
1445.009470993259
 20
832.6328992803063
 30
0.0
 11
1445.009470993259
 21
837.332899280306
 31
0.0
  0
LINE
  5
6FB3
330
1E
100
AcDbEntity
  8
躯体と製品
  6
Continuous
 62
     3
100
AcDbLine
 10
1439.009470993259
 20
837.332899280306
 30
0.0
 11
1439.009470993259
 21
825.332899280306
 31
0.0
  0
LINE
  5
6FB4
330
1E
100
AcDbEntity
  8
躯体と製品
  6
Continuous
 62
     3
100
AcDbLine
 10
1446.209470993259
 20
833.1328992803062
 30
0.0
 11
1446.209470993259
 21
838.6328992803061
 31
0.0
  0
CIRCLE
  5
6FB5
330
1E
100
AcDbEntity
  8
図枠
  6
Continuous
 62
     4
100
AcDbCircle
 10
1441.479883459264
 20
824.0702862524829
 30
0.0
 40
0.9
  0
LINE
  5
6FB6
330
1E
100
AcDbEntity
  8
躯体と製品
  6
Continuous
 62
     3
100
AcDbLine
 10
1445.009470993259
 20
824.832899280306
 30
0.0
 11
1439.509470993259
 21
824.832899280306
 31
0.0
  0
LINE
  5
6FB7
330
1E
100
AcDbEntity
  8
躯体と製品
  6
Continuous
 62
     3
100
AcDbLine
 10
1443.509470993259
 20
823.3328992803061
 30
0.0
 11
1439.509470993259
 21
823.3328992803061
 31
0.0
  0
LINE
  5
6FB8
330
1E
100
AcDbEntity
  8
躯体と製品
  6
Continuous
 62
     4
100
AcDbLine
 10
1434.509470993259
 20
833.5424197641835
 30
0.0
 11
1435.509470993259
 21
832.5424197641829
 31
0.0
  0
LINE
  5
6FB9
330
1E
100
AcDbEntity
  8
躯体と製品
  6
Continuous
 62
     4
100
AcDbLine
 10
1434.509470993259
 20
832.1282062018097
 30
0.0
 11
1435.50947099326
 21
831.1282062018095
 31
0.0
  0
LINE
  5
6FBA
330
1E
100
AcDbEntity
  8
躯体と製品
  6
Continuous
 62
     4
100
AcDbLine
 10
1434.509470993259
 20
830.7139926394389
 30
0.0
 11
1435.509470993259
 21
829.713992639439
 31
0.0
  0
LINE
  5
6FBB
330
1E
100
AcDbEntity
  8
躯体と製品
  6
Continuous
 62
     4
100
AcDbLine
 10
1434.509470993259
 20
829.299779077065
 30
0.0
 11
1435.509470993259
 21
828.2997790770656
 31
0.0
  0
LINE
  5
6FBC
330
1E
100
AcDbEntity
  8
躯体と製品
  6
Continuous
 62
     4
100
AcDbLine
 10
1434.509470993259
 20
827.8855655146921
 30
0.0
 11
1435.509470993259
 21
826.885565514692
 31
0.0
  0
LINE
  5
6FBD
330
1E
100
AcDbEntity
  8
躯体と製品
  6
Continuous
 62
     4
100
AcDbLine
 10
1434.509470993259
 20
826.4713519523189
 30
0.0
 11
1435.509470993259
 21
825.4713519523189
 31
0.0
  0
LINE
  5
6FBE
330
1E
100
AcDbEntity
  8
躯体と製品
  6
Continuous
 62
     4
100
AcDbLine
 10
1434.509470993259
 20
825.0571383899455
 30
0.0
 11
1435.509470993259
 21
824.057138389946
 31
0.0
  0
LINE
  5
6FBF
330
1E
100
AcDbEntity
  8
躯体と製品
  6
Continuous
 62
     4
100
AcDbLine
 10
1434.509470993259
 20
823.6429248275722
 30
0.0
 11
1435.509470993259
 21
822.6429248275717
 31
0.0
  0
LINE
  5
6FC0
330
1E
100
AcDbEntity
  8
躯体と製品
  6
Continuous
 62
     3
100
AcDbLine
 10
1437.009470993259
 20
824.832899280306
 30
0.0
 11
1436.509470993259
 21
824.832899280306
 31
0.0
  0
LINE
  5
6FC1
330
1E
100
AcDbEntity
  8
躯体と製品
  6
Continuous
 62
     3
100
AcDbLine
 10
1436.509470993259
 20
823.3328992803061
 30
0.0
 11
1437.009470993259
 21
823.3328992803061
 31
0.0
  0
ARC
  5
6FC2
330
1E
100
AcDbEntity
  8
躯体と製品
  6
Continuous
 62
     3
100
AcDbCircle
 10
1439.509470993259
 20
822.8328992803058
 30
0.0
 40
0.5
100
AcDbArc
 50
90.0
 51
180.0
  0
ARC
  5
6FC3
330
1E
100
AcDbEntity
  8
躯体と製品
  6
Continuous
 62
     3
100
AcDbCircle
 10
1439.509470993259
 20
825.332899280306
 30
0.0
 40
0.5
100
AcDbArc
 50
180.0
 51
270.0
  0
LINE
  5
6FC4
330
1E
100
AcDbEntity
  8
躯体と製品
  6
Continuous
 62
     3
100
AcDbLine
 10
1436.509470993259
 20
824.832899280306
 30
0.0
 11
1436.509470993259
 21
823.3328992803061
 31
0.0
  0
LINE
  5
6FC5
330
1E
100
AcDbEntity
  8
躯体と製品
  6
Continuous
 62
     4
100
AcDbLine
 10
1446.433250038151
 20
833.4036951702714
 30
0.0
 11
1447.027913718895
 21
833.9983588510158
 31
0.0
  0
LINE
  5
6FC6
330
1E
100
AcDbEntity
  8
躯体と製品
  6
Continuous
 62
     4
100
AcDbLine
 10
1447.294558498543
 20
832.8507900682899
 30
0.0
 11
1448.076668710559
 21
833.6329002803061
 31
0.0
  0
ARC
  5
6FC7
330
1E
100
AcDbEntity
  8
躯体と製品
  6
Continuous
 62
     3
100
AcDbCircle
 10
1446.509470993259
 20
833.1328992803062
 30
0.0
 40
0.2999999999999999
100
AcDbArc
 50
180.0
 51
270.0
  0
ARC
  5
6FC8
330
1E
100
AcDbEntity
  8
躯体と製品
  6
Continuous
 62
     3
100
AcDbCircle
 10
1446.009470993259
 20
832.6328992803063
 30
0.0
 40
1.0
100
AcDbArc
 50
180.0
 51
270.0
  0
ARC
  5
6FC9
330
1E
100
AcDbEntity
  8
躯体と製品
  6
Continuous
 62
     3
100
AcDbCircle
 10
1445.009470993259
 20
824.3328992803061
 30
0.0
 40
0.5
100
AcDbArc
 50
0.0
 51
90.0
  0
ARC
  5
6FCA
330
1E
100
AcDbEntity
  8
躯体と製品
  6
Continuous
 62
     3
100
AcDbCircle
 10
1443.509470993259
 20
822.8328992803058
 30
0.0
 40
0.5
100
AcDbArc
 50
0.0
 51
90.0
  0
LINE
  5
6FCB
330
1E
100
AcDbEntity
  8
躯体と製品
  6
Continuous
 62
     4
100
AcDbLine
 10
1447.509470993259
 20
840.3328992803061
 30
0.0
 11
1439.009470993259
 21
840.3328992803061
 31
0.0
  0
LINE
  5
6FCC
330
1E
100
AcDbEntity
  8
躯体と製品
  6
Continuous
 62
     4
100
AcDbLine
 10
1447.509470993259
 20
843.3328992803058
 30
0.0
 11
1439.009470993259
 21
843.3328992803058
 31
0.0
  0
LINE
  5
6FCD
330
1E
100
AcDbEntity
  8
躯体と製品
  6
Continuous
 62
     3
100
AcDbLine
 10
1444.509470993259
 20
837.832899280306
 30
0.0
 11
1439.509470993259
 21
837.832899280306
 31
0.0
  0
LINE
  5
6FCE
330
1E
100
AcDbEntity
  8
躯体と製品
  6
Continuous
 62
     3
100
AcDbLine
 10
1441.509470993259
 20
843.8328992803061
 30
0.0
 11
1441.009470993259
 21
843.3328992803058
 31
0.0
  0
LINE
  5
6FCF
330
1E
100
AcDbEntity
  8
躯体と製品
  6
Continuous
 62
     3
100
AcDbLine
 10
1441.509470993259
 20
839.832899280306
 30
0.0
 11
1441.009470993259
 21
840.3328992803061
 31
0.0
  0
LINE
  5
6FD0
330
1E
100
AcDbEntity
  8
躯体と製品
  6
Continuous
 62
     7
100
AcDbLine
 10
1435.509470993259
 20
835.3328992803058
 30
0.0
 11
1436.509470993259
 21
835.3328992803058
 31
0.0
  0
LINE
  5
6FD1
330
1E
100
AcDbEntity
  8
躯体と製品
  6
Continuous
 62
     3
100
AcDbLine
 10
1435.509470993259
 20
835.3328992803058
 30
0.0
 11
1434.509470993259
 21
835.3328992803058
 31
0.0
  0
LINE
  5
6FD2
330
1E
100
AcDbEntity
  8
躯体と製品
  6
Continuous
 62
     4
100
AcDbLine
 10
1439.509470993259
 20
843.8328992803061
 30
0.0
 11
1439.509470993259
 21
839.832899280306
 31
0.0
  0
LINE
  5
6FD3
330
1E
100
AcDbEntity
  8
躯体と製品
  6
Continuous
 62
     7
100
AcDbLine
 10
1439.009470993259
 20
843.3328992803058
 30
0.0
 11
1439.009470993259
 21
840.3328992803061
 31
0.0
  0
LINE
  5
6FD4
330
1E
100
AcDbEntity
  8
躯体と製品
  6
Continuous
 62
     7
100
AcDbLine
 10
1439.009470993259
 20
843.3328992803058
 30
0.0
 11
1439.509470993259
 21
843.8328992803061
 31
0.0
  0
LINE
  5
6FD5
330
1E
100
AcDbEntity
  8
躯体と製品
  6
Continuous
 62
     7
100
AcDbLine
 10
1439.009470993259
 20
840.3328992803061
 30
0.0
 11
1439.509470993259
 21
839.832899280306
 31
0.0
  0
LINE
  5
6FD6
330
1E
100
AcDbEntity
  8
躯体と製品
  6
Continuous
 62
     3
100
AcDbLine
 10
1436.509470993259
 20
837.832899280306
 30
0.0
 11
1437.009470993259
 21
837.832899280306
 31
0.0
  0
ARC
  5
6FD7
330
1E
100
AcDbEntity
  8
躯体と製品
  6
Continuous
 62
     3
100
AcDbCircle
 10
1439.509470993259
 20
837.332899280306
 30
0.0
 40
0.5
100
AcDbArc
 50
90.0
 51
180.0
  0
LINE
  5
6FD8
330
1E
100
AcDbEntity
  8
躯体と製品
  6
Continuous
 62
     3
100
AcDbLine
 10
1438.009470993259
 20
840.1328992803062
 30
0.0
 11
1438.009470993259
 21
843.5328992803061
 31
0.0
  0
ARC
  5
6FD9
330
1E
100
AcDbEntity
  8
躯体と製品
  6
Continuous
 62
     3
100
AcDbCircle
 10
1438.309470993259
 20
840.1328992803062
 30
0.0
 40
0.2999999999999999
100
AcDbArc
 50
180.0
 51
270.0
  0
LINE
  5
6FDA
330
1E
100
AcDbEntity
  8
躯体と製品
  6
Continuous
 62
     3
100
AcDbLine
 10
1438.309470993259
 20
839.832899280306
 30
0.0
 11
1439.509470993259
 21
839.832899280306
 31
0.0
  0
LINE
  5
6FDB
330
1E
100
AcDbEntity
  8
躯体と製品
  6
Continuous
 62
     3
100
AcDbLine
 10
1438.309470993259
 20
843.8328992803061
 30
0.0
 11
1439.509470993259
 21
843.8328992803061
 31
0.0
  0
ARC
  5
6FDC
330
1E
100
AcDbEntity
  8
躯体と製品
  6
Continuous
 62
     3
100
AcDbCircle
 10
1438.309470993259
 20
843.5328992803061
 30
0.0
 40
0.2999999999999999
100
AcDbArc
 50
90.0
 51
180.0
  0
LINE
  5
6FDD
330
1E
100
AcDbEntity
  8
躯体と製品
  6
Continuous
 62
     3
100
AcDbLine
 10
1441.009470993259
 20
843.3328992803058
 30
0.0
 11
1440.509470993259
 21
843.8328992803061
 31
0.0
  0
LINE
  5
6FDE
330
1E
100
AcDbEntity
  8
躯体と製品
  6
Continuous
 62
     3
100
AcDbLine
 10
1440.509470993259
 20
843.8328992803061
 30
0.0
 11
1440.009470993259
 21
843.3328992803058
 31
0.0
  0
LINE
  5
6FDF
330
1E
100
AcDbEntity
  8
躯体と製品
  6
Continuous
 62
     3
100
AcDbLine
 10
1440.009470993259
 20
843.3328992803058
 30
0.0
 11
1439.509470993259
 21
843.8328992803061
 31
0.0
  0
LINE
  5
6FE0
330
1E
100
AcDbEntity
  8
躯体と製品
  6
Continuous
 62
     3
100
AcDbLine
 10
1441.009470993259
 20
840.3328992803061
 30
0.0
 11
1440.509470993259
 21
839.832899280306
 31
0.0
  0
LINE
  5
6FE1
330
1E
100
AcDbEntity
  8
躯体と製品
  6
Continuous
 62
     3
100
AcDbLine
 10
1440.509470993259
 20
839.832899280306
 30
0.0
 11
1440.009470993259
 21
840.3328992803061
 31
0.0
  0
LINE
  5
6FE2
330
1E
100
AcDbEntity
  8
躯体と製品
  6
Continuous
 62
     3
100
AcDbLine
 10
1440.009470993259
 20
840.3328992803061
 30
0.0
 11
1439.509470993259
 21
839.832899280306
 31
0.0
  0
LINE
  5
6FE3
330
1E
100
AcDbEntity
  8
躯体と製品
  6
Continuous
 62
     3
100
AcDbLine
 10
1436.509470993259
 20
845.332899280306
 30
0.0
 11
1436.509470993259
 21
837.832899280306
 31
0.0
  0
CIRCLE
  5
6FE4
330
1E
100
AcDbEntity
  8
図枠
  6
Continuous
 62
     4
100
AcDbCircle
 10
1445.651380766666
 20
842.5891286703746
 30
0.0
 40
0.9
  0
LINE
  5
6FE5
330
1E
100
AcDbEntity
  8
躯体と製品
  6
Continuous
 62
     7
100
AcDbLine
 10
1447.509470993259
 20
839.832899280306
 30
0.0
 11
1444.509470993259
 21
839.832899280306
 31
0.0
  0
LINE
  5
6FE6
330
1E
100
AcDbEntity
  8
躯体と製品
  6
Continuous
 62
     7
100
AcDbLine
 10
1447.509470993259
 20
843.8328992803061
 30
0.0
 11
1444.509470993259
 21
843.8328992803061
 31
0.0
  0
LINE
  5
6FE7
330
1E
100
AcDbEntity
  8
躯体と製品
  6
Continuous
 62
     4
100
AcDbLine
 10
1446.209471173553
 20
837.4225569927935
 30
0.0
 11
1446.419813461065
 21
837.6328992803054
 31
0.0
  0
LINE
  5
6FE8
330
1E
100
AcDbEntity
  8
躯体と製品
  6
Continuous
 62
     4
100
AcDbLine
 10
1446.209472385736
 20
836.0083446426028
 30
0.0
 11
1447.009471993259
 21
836.808344250126
 31
0.0
  0
LINE
  5
6FE9
330
1E
100
AcDbEntity
  8
躯体と製品
  6
Continuous
 62
     4
100
AcDbLine
 10
1446.209473597918
 20
834.5941322924117
 30
0.0
 11
1447.009471993259
 21
835.3941306877525
 31
0.0
  0
LINE
  5
6FEA
330
1E
100
AcDbEntity
  8
躯体と製品
  6
Continuous
 62
     7
100
AcDbLine
 10
1446.209470993259
 20
837.6328992803054
 30
0.0
 11
1446.209473993259
 21
834.1329012803058
 31
0.0
  0
LINE
  5
6FEB
330
1E
100
AcDbEntity
  8
躯体と製品
  6
Continuous
 62
     7
100
AcDbLine
 10
1446.209470993259
 20
837.6328992803054
 30
0.0
 11
1447.009471993259
 21
837.6328992803054
 31
0.0
  0
LINE
  5
6FEC
330
1E
100
AcDbEntity
  8
躯体と製品
  6
Continuous
 62
     7
100
AcDbLine
 10
1447.009471993259
 20
834.1329012803058
 30
0.0
 11
1447.009471993259
 21
837.6328992803054
 31
0.0
  0
LINE
  5
6FED
330
1E
100
AcDbEntity
  8
躯体と製品
  6
Continuous
 62
     3
100
AcDbLine
 10
1447.509470993259
 20
834.8328992803057
 30
0.0
 11
1447.509470993259
 21
845.332899280306
 31
0.0
  0
LINE
  5
6FEE
330
1E
100
AcDbEntity
  8
躯体と製品
  6
Continuous
 62
     3
100
AcDbLine
 10
1449.009470993259
 20
841.5328992803058
 30
0.0
 11
1449.009470993259
 21
835.8328992803061
 31
0.0
  0
LINE
  5
6FEF
330
1E
100
AcDbEntity
  8
躯体と製品
  6
Continuous
 62
     3
100
AcDbLine
 10
1448.709470993259
 20
841.832899280306
 30
0.0
 11
1449.009470993259
 21
841.5328992803058
 31
0.0
  0
LINE
  5
6FF0
330
1E
100
AcDbEntity
  8
躯体と製品
  6
Continuous
 62
     3
100
AcDbLine
 10
1448.709470993259
 20
841.832899280306
 30
0.0
 11
1449.009470993259
 21
842.1328992803061
 31
0.0
  0
ARC
  5
6FF1
330
1E
100
AcDbEntity
  8
躯体と製品
  6
Continuous
 62
     3
100
AcDbCircle
 10
1444.509470993259
 20
837.332899280306
 30
0.0
 40
0.5
100
AcDbArc
 50
0.0
 51
90.0
  0
LINE
  5
6FF2
330
1E
100
AcDbEntity
  8
躯体と製品
  6
Continuous
 62
     3
100
AcDbLine
 10
1444.509470993259
 20
843.8328992803061
 30
0.0
 11
1447.009470993259
 21
843.8328992803061
 31
0.0
  0
LINE
  5
6FF3
330
1E
100
AcDbEntity
  8
躯体と製品
  6
Continuous
 62
     3
100
AcDbLine
 10
1444.509470993259
 20
839.832899280306
 30
0.0
 11
1447.009470993259
 21
839.832899280306
 31
0.0
  0
LINE
  5
6FF4
330
1E
100
AcDbEntity
  8
躯体と製品
  6
Continuous
 62
     3
100
AcDbLine
 10
1444.509470993259
 20
843.8328992803061
 30
0.0
 11
1444.009470993259
 21
843.3328992803058
 31
0.0
  0
LINE
  5
6FF5
330
1E
100
AcDbEntity
  8
躯体と製品
  6
Continuous
 62
     3
100
AcDbLine
 10
1444.009470993259
 20
843.3328992803058
 30
0.0
 11
1443.509470993259
 21
843.8328992803061
 31
0.0
  0
LINE
  5
6FF6
330
1E
100
AcDbEntity
  8
躯体と製品
  6
Continuous
 62
     3
100
AcDbLine
 10
1443.509470993259
 20
843.8328992803061
 30
0.0
 11
1443.009470993259
 21
843.3328992803058
 31
0.0
  0
LINE
  5
6FF7
330
1E
100
AcDbEntity
  8
躯体と製品
  6
Continuous
 62
     3
100
AcDbLine
 10
1443.009470993259
 20
843.3328992803058
 30
0.0
 11
1442.509470993259
 21
843.8328992803061
 31
0.0
  0
LINE
  5
6FF8
330
1E
100
AcDbEntity
  8
躯体と製品
  6
Continuous
 62
     3
100
AcDbLine
 10
1442.509470993259
 20
843.8328992803061
 30
0.0
 11
1442.009470993259
 21
843.3328992803058
 31
0.0
  0
LINE
  5
6FF9
330
1E
100
AcDbEntity
  8
躯体と製品
  6
Continuous
 62
     3
100
AcDbLine
 10
1442.009470993259
 20
843.3328992803058
 30
0.0
 11
1441.509470993259
 21
843.8328992803061
 31
0.0
  0
LINE
  5
6FFA
330
1E
100
AcDbEntity
  8
躯体と製品
  6
Continuous
 62
     3
100
AcDbLine
 10
1444.509470993259
 20
839.832899280306
 30
0.0
 11
1444.009470993259
 21
840.3328992803061
 31
0.0
  0
LINE
  5
6FFB
330
1E
100
AcDbEntity
  8
躯体と製品
  6
Continuous
 62
     3
100
AcDbLine
 10
1444.009470993259
 20
840.3328992803061
 30
0.0
 11
1443.509470993259
 21
839.832899280306
 31
0.0
  0
LINE
  5
6FFC
330
1E
100
AcDbEntity
  8
躯体と製品
  6
Continuous
 62
     3
100
AcDbLine
 10
1443.509470993259
 20
839.832899280306
 30
0.0
 11
1443.009470993259
 21
840.3328992803061
 31
0.0
  0
LINE
  5
6FFD
330
1E
100
AcDbEntity
  8
躯体と製品
  6
Continuous
 62
     3
100
AcDbLine
 10
1443.009470993259
 20
840.3328992803061
 30
0.0
 11
1442.509470993259
 21
839.832899280306
 31
0.0
  0
LINE
  5
6FFE
330
1E
100
AcDbEntity
  8
躯体と製品
  6
Continuous
 62
     3
100
AcDbLine
 10
1442.509470993259
 20
839.832899280306
 30
0.0
 11
1442.009470993259
 21
840.3328992803061
 31
0.0
  0
LINE
  5
6FFF
330
1E
100
AcDbEntity
  8
躯体と製品
  6
Continuous
 62
     3
100
AcDbLine
 10
1442.009470993259
 20
840.3328992803061
 30
0.0
 11
1441.509470993259
 21
839.832899280306
 31
0.0
  0
LINE
  5
7000
330
1E
100
AcDbEntity
  8
躯体と製品
  6
Continuous
 62
     3
100
AcDbLine
 10
1446.209470993259
 20
838.6328992803061
 30
0.0
 11
1446.909470993259
 21
838.6328992803061
 31
0.0
  0
LINE
  5
7001
330
1E
100
AcDbEntity
  8
躯体と製品
  6
Continuous
 62
     3
100
AcDbLine
 10
1445.509470993259
 20
845.0328992803061
 30
0.0
 11
1446.909470993259
 21
845.0328992803061
 31
0.0
  0
ARC
  5
7002
330
1E
100
AcDbEntity
  8
躯体と製品
  6
Continuous
 62
     3
100
AcDbCircle
 10
1446.909470993259
 20
839.2328992803061
 30
0.0
 40
0.5999999999999999
100
AcDbArc
 50
270.0
 51
90.0
  0
ARC
  5
7003
330
1E
100
AcDbEntity
  8
躯体と製品
  6
Continuous
 62
     3
100
AcDbCircle
 10
1446.909470993259
 20
844.4328992803058
 30
0.0
 40
0.5999999999999999
100
AcDbArc
 50
270.0
 51
90.0
  0
LINE
  5
7005
330
1E
100
AcDbEntity
  8
躯体と製品
  6
Continuous
 62
     4
100
AcDbLine
 10
1466.409472993259
 20
822.2672197531732
 30
0.0
 11
1467.209470993259
 21
823.0672177531737
 31
0.0
  0
LINE
  5
7006
330
1E
100
AcDbEntity
  8
躯体と製品
  6
Continuous
 62
     7
100
AcDbLine
 10
1467.209470993259
 20
832.3329012803057
 30
0.0
 11
1467.209470993259
 21
803.6329002803055
 31
0.0
  0
LINE
  5
7007
330
1E
100
AcDbEntity
  8
躯体と製品
  6
Continuous
 62
     7
100
AcDbLine
 10
1466.409472993259
 20
832.3329012803057
 30
0.0
 11
1466.409472993259
 21
803.6329002803055
 31
0.0
  0
LINE
  5
7008
330
1E
100
AcDbEntity
  8
躯体と製品
  6
Continuous
 62
     3
100
AcDbLine
 10
1469.009470993259
 20
834.3328992803058
 30
0.0
 11
1469.009470993259
 21
800.332899280306
 31
0.0
  0
LINE
  5
7009
330
1E
100
AcDbEntity
  8
躯体と製品
  6
Continuous
 62
     3
100
AcDbLine
 10
1467.509470993259
 20
833.332899280306
 30
0.0
 11
1467.509470993259
 21
801.3328992803058
 31
0.0
  0
CIRCLE
  5
700A
330
1E
100
AcDbEntity
  8
図枠
  6
Continuous
 62
     4
100
AcDbCircle
 10
1466.727170131399
 20
815.7925920164673
 30
0.0
 40
0.9
  0
LINE
  5
700B
330
1E
100
AcDbEntity
  8
躯体と製品
  6
Continuous
 62
     3
100
AcDbLine
 10
1468.009470993259
 20
799.332899280306
 30
0.0
 11
1459.009470993259
 21
799.332899280306
 31
0.0
  0
LINE
  5
700C
330
1E
100
AcDbEntity
  8
躯体と製品
  6
Continuous
 62
     3
100
AcDbLine
 10
1467.009470993259
 20
800.8328992803058
 30
0.0
 11
1459.009470993259
 21
800.8328992803058
 31
0.0
  0
LINE
  5
700D
330
1E
100
AcDbEntity
  8
躯体と製品
  6
Continuous
 62
     7
100
AcDbLine
 10
1458.809470993259
 20
799.332899280306
 30
0.0
 11
1467.009470993259
 21
799.332899280306
 31
0.0
  0
LINE
  5
700E
330
1E
100
AcDbEntity
  8
躯体と製品
  6
Continuous
 62
     3
100
AcDbLine
 10
1451.509470993259
 20
809.8328992803057
 30
0.0
 11
1451.509470993259
 21
813.3328992803058
 31
0.0
  0
LINE
  5
700F
330
1E
100
AcDbEntity
  8
躯体と製品
  6
Continuous
 62
     3
100
AcDbLine
 10
1453.009470993259
 20
800.8328992803058
 30
0.0
 11
1453.009470993259
 21
814.3328992803057
 31
0.0
  0
ARC
  5
7010
330
1E
100
AcDbEntity
  8
躯体と製品
  6
Continuous
 62
     7
100
AcDbCircle
 10
1458.509470993259
 20
801.0328992803058
 30
0.0
 40
1.0
100
AcDbArc
 50
88.09506709944431
 51
180.0
  0
LINE
  5
7011
330
1E
100
AcDbEntity
  8
躯体と製品
  6
Continuous
 62
     7
100
AcDbLine
 10
1457.509470993259
 20
801.0328992803058
 30
0.0
 11
1457.509470993259
 21
799.332899280306
 31
0.0
  0
ARC
  5
7012
330
1E
100
AcDbEntity
  8
躯体と製品
  6
Continuous
 62
     3
100
AcDbCircle
 10
1451.509470993259
 20
801.3328992803058
 30
0.0
 40
1.0
100
AcDbArc
 50
90.0
 51
270.0
  0
ARC
  5
7013
330
1E
100
AcDbEntity
  8
躯体と製品
  6
Continuous
 62
     3
100
AcDbCircle
 10
1451.009470993259
 20
806.832899280306
 30
0.0
 40
0.5
100
AcDbArc
 50
0.0
 51
90.0
  0
LINE
  5
7014
330
1E
100
AcDbEntity
  8
躯体と製品
  6
Continuous
 62
     3
100
AcDbLine
 10
1451.509470993259
 20
806.832899280306
 30
0.0
 11
1451.509470993259
 21
802.332899280306
 31
0.0
  0
ARC
  5
7015
330
1E
100
AcDbEntity
  8
躯体と製品
  6
Continuous
 62
     3
100
AcDbCircle
 10
1452.509470993259
 20
800.8328992803058
 30
0.0
 40
0.5
100
AcDbArc
 50
270.0
 51
0.0
  0
LINE
  5
7016
330
1E
100
AcDbEntity
  8
躯体と製品
  6
Continuous
 62
     3
100
AcDbLine
 10
1452.509470993259
 20
800.332899280306
 30
0.0
 11
1451.509470993259
 21
800.332899280306
 31
0.0
  0
ARC
  5
7017
330
1E
100
AcDbEntity
  8
躯体と製品
  6
Continuous
 62
     3
100
AcDbCircle
 10
1450.509470993259
 20
809.8328992803057
 30
0.0
 40
1.0
100
AcDbArc
 50
270.0
 51
0.0
  0
LINE
  5
7018
330
1E
100
AcDbEntity
  8
躯体と製品
  6
Continuous
 62
     7
100
AcDbLine
 10
1458.509470993259
 20
800.7227555138648
 30
0.0
 11
1458.509470993259
 21
799.6328992803062
 31
0.0
  0
ARC
  5
7019
330
1E
100
AcDbEntity
  8
躯体と製品
  6
Continuous
 62
     7
100
AcDbCircle
 10
1458.809470993259
 20
800.7227555138648
 30
0.0
 40
0.2999999999999999
100
AcDbArc
 50
88.09506709944431
 51
180.0
  0
LINE
  5
701A
330
1E
100
AcDbEntity
  8
躯体と製品
  6
Continuous
 62
     7
100
AcDbLine
 10
1458.819443361146
 20
801.022589721184
 30
0.0
 11
1464.506155139708
 21
800.8334519225751
 31
0.0
  0
LINE
  5
701B
330
1E
100
AcDbEntity
  8
躯体と製品
  6
Continuous
 62
     7
100
AcDbLine
 10
1458.542712219547
 20
802.0323466380368
 30
0.0
 11
1464.039672687163
 21
801.8495198934489
 31
0.0
  0
LINE
  5
701C
330
1E
100
AcDbEntity
  8
躯体と製品
  6
Continuous
 62
     7
100
AcDbLine
 10
1464.556016979171
 20
802.3326229591381
 30
0.0
 11
1464.572637592349
 21
802.8323466380344
 31
0.0
  0
ARC
  5
701D
330
1E
100
AcDbEntity
  8
躯体と製品
  6
Continuous
 62
     7
100
AcDbCircle
 10
1464.539396365996
 20
801.8328992803057
 30
0.0
 40
1.0
100
AcDbArc
 50
268.0950670994443
 51
358.0950670957424
  0
LINE
  5
701E
330
1E
100
AcDbEntity
  8
躯体と製品
  6
Continuous
 62
     7
100
AcDbLine
 10
1465.538843723724
 20
801.7996580539534
 30
0.0
 11
1465.572084950079
 21
802.7991054117466
 31
0.0
  0
ARC
  5
701F
330
1E
100
AcDbEntity
  8
躯体と製品
  6
Continuous
 62
     7
100
AcDbCircle
 10
1465.072361271149
 20
802.8157260248928
 30
0.0
 40
0.4999999999354556
100
AcDbArc
 50
358.0950670994413
 51
178.0950670994412
  0
ARC
  5
7020
330
1E
100
AcDbEntity
  8
躯体と製品
  6
Continuous
 62
     7
100
AcDbCircle
 10
1464.056293300307
 20
802.3492435723143
 30
0.0
 40
0.5
100
AcDbArc
 50
268.0950670994443
 51
358.0950670957424
  0
ARC
  5
7021
330
1E
100
AcDbEntity
  8
躯体と製品
  6
Continuous
 62
     3
100
AcDbCircle
 10
1459.009470993259
 20
800.332899280306
 30
0.0
 40
0.5
100
AcDbArc
 50
90.0
 51
180.0
  0
LINE
  5
7022
330
1E
100
AcDbEntity
  8
躯体と製品
  6
Continuous
 62
     3
100
AcDbLine
 10
1458.509470993259
 20
799.832899280306
 30
0.0
 11
1458.509470993259
 21
800.332899280306
 31
0.0
  0
ARC
  5
7023
330
1E
100
AcDbEntity
  8
躯体と製品
  6
Continuous
 62
     3
100
AcDbCircle
 10
1451.009470993259
 20
813.3328992803058
 30
0.0
 40
0.5
100
AcDbArc
 50
0.0
 51
90.0
  0
ARC
  5
7024
330
1E
100
AcDbEntity
  8
躯体と製品
  6
Continuous
 62
     3
100
AcDbCircle
 10
1452.009470993259
 20
814.3328992803057
 30
0.0
 40
1.0
100
AcDbArc
 50
0.0
 51
90.0
  0
POINT
  5
7025
330
1E
100
AcDbEntity
  8
躯体と製品
 62
     4
100
AcDbPoint
 10
1469.009470993259
 20
799.332899280306
 30
0.0
  0
LINE
  5
7026
330
1E
100
AcDbEntity
  8
躯体と製品
  6
Continuous
 62
     4
100
AcDbLine
 10
1466.40947299326
 20
809.5392976918137
 30
0.0
 11
1467.209470993259
 21
810.3392956918135
 31
0.0
  0
LINE
  5
7027
330
1E
100
AcDbEntity
  8
躯体と製品
  6
Continuous
 62
     4
100
AcDbLine
 10
1466.40947299326
 20
808.1250841294407
 30
0.0
 11
1467.209470993259
 21
808.9250821294404
 31
0.0
  0
LINE
  5
7028
330
1E
100
AcDbEntity
  8
躯体と製品
  6
Continuous
 62
     4
100
AcDbLine
 10
1466.40947299326
 20
806.7108705670673
 30
0.0
 11
1467.20947099326
 21
807.5108685670668
 31
0.0
  0
LINE
  5
7029
330
1E
100
AcDbEntity
  8
躯体と製品
  6
Continuous
 62
     4
100
AcDbLine
 10
1466.409472993259
 20
805.296657004693
 30
0.0
 11
1467.209470993259
 21
806.0966550046938
 31
0.0
  0
LINE
  5
702A
330
1E
100
AcDbEntity
  8
躯体と製品
  6
Continuous
 62
     4
100
AcDbLine
 10
1466.409472993259
 20
803.8824434423197
 30
0.0
 11
1467.20947099326
 21
804.6824414423205
 31
0.0
  0
LINE
  5
702B
330
1E
100
AcDbEntity
  8
躯体と製品
  6
Continuous
 62
     7
100
AcDbLine
 10
1466.409472993259
 20
803.6329002803055
 30
0.0
 11
1467.209470993259
 21
803.6329002803055
 31
0.0
  0
ARC
  5
702C
330
1E
100
AcDbEntity
  8
躯体と製品
  6
Continuous
 62
     3
100
AcDbCircle
 10
1467.009470993259
 20
801.3328992803058
 30
0.0
 40
0.5
100
AcDbArc
 50
270.0
 51
0.0
  0
LINE
  5
702D
330
1E
100
AcDbEntity
  8
躯体と製品
  6
Continuous
 62
     4
100
AcDbLine
 10
1466.409472993259
 20
820.8530061907994
 30
0.0
 11
1467.20947099326
 21
821.6530041908001
 31
0.0
  0
LINE
  5
702E
330
1E
100
AcDbEntity
  8
躯体と製品
  6
Continuous
 62
     4
100
AcDbLine
 10
1466.409472993259
 20
819.4387926284266
 30
0.0
 11
1467.20947099326
 21
820.2387906284272
 31
0.0
  0
LINE
  5
702F
330
1E
100
AcDbEntity
  8
躯体と製品
  6
Continuous
 62
     4
100
AcDbLine
 10
1466.409472993259
 20
818.0245790660531
 30
0.0
 11
1467.20947099326
 21
818.824577066054
 31
0.0
  0
LINE
  5
7030
330
1E
100
AcDbEntity
  8
躯体と製品
  6
Continuous
 62
     4
100
AcDbLine
 10
1466.409472993259
 20
816.6103655036803
 30
0.0
 11
1467.209470993259
 21
817.4103635036797
 31
0.0
  0
LINE
  5
7031
330
1E
100
AcDbEntity
  8
躯体と製品
  6
Continuous
 62
     4
100
AcDbLine
 10
1466.409472993259
 20
815.1961519413067
 30
0.0
 11
1467.209470993259
 21
815.9961499413064
 31
0.0
  0
LINE
  5
7032
330
1E
100
AcDbEntity
  8
躯体と製品
  6
Continuous
 62
     4
100
AcDbLine
 10
1466.40947299326
 20
813.7819383789338
 30
0.0
 11
1467.209470993259
 21
814.5819363789332
 31
0.0
  0
LINE
  5
7033
330
1E
100
AcDbEntity
  8
躯体と製品
  6
Continuous
 62
     4
100
AcDbLine
 10
1466.40947299326
 20
812.3677248165602
 30
0.0
 11
1467.209470993259
 21
813.1677228165601
 31
0.0
  0
LINE
  5
7034
330
1E
100
AcDbEntity
  8
躯体と製品
  6
Continuous
 62
     4
100
AcDbLine
 10
1466.40947299326
 20
810.9535112541868
 30
0.0
 11
1467.209470993259
 21
811.7535092541867
 31
0.0
  0
LINE
  5
7035
330
1E
100
AcDbEntity
  8
躯体と製品
  6
Continuous
 62
     4
100
AcDbLine
 10
1465.661444021409
 20
832.8328992803065
 30
0.0
 11
1466.375169068222
 21
833.5466243271195
 31
0.0
  0
LINE
  5
7036
330
1E
100
AcDbEntity
  8
躯体と製品
  6
Continuous
 62
     3
100
AcDbLine
 10
1449.509470993259
 20
835.3328992803058
 30
0.0
 11
1468.009470993259
 21
835.3328992803058
 31
0.0
  0
CIRCLE
  5
7037
330
1E
100
AcDbEntity
  8
図枠
  6
Continuous
 62
     4
100
AcDbCircle
 10
1462.030613872528
 20
834.589703872316
 30
0.0
 40
0.9
  0
LINE
  5
7038
330
1E
100
AcDbEntity
  8
躯体と製品
  6
Continuous
 62
     4
100
AcDbLine
 10
1457.176162647168
 20
832.8328992803056
 30
0.0
 11
1457.976163647169
 21
833.6329002803061
 31
0.0
  0
LINE
  5
703B
330
1E
100
AcDbEntity
  8
躯体と製品
  6
Continuous
 62
     4
100
AcDbLine
 10
1450.105094835306
 20
832.832899280306
 30
0.0
 11
1450.905095835306
 21
833.6329002803058
 31
0.0
  0
LINE
  5
703C
330
1E
100
AcDbEntity
  8
躯体と製品
  6
Continuous
 62
     4
100
AcDbLine
 10
1451.519308397675
 20
832.8328992803056
 30
0.0
 11
1452.319309397675
 21
833.6329002803054
 31
0.0
  0
LINE
  5
703D
330
1E
100
AcDbEntity
  8
躯体と製品
  6
Continuous
 62
     4
100
AcDbLine
 10
1452.933521960048
 20
832.8328992803054
 30
0.0
 11
1453.733522960048
 21
833.6329002803049
 31
0.0
  0
LINE
  5
703E
330
1E
100
AcDbEntity
  8
躯体と製品
  6
Continuous
 62
     4
100
AcDbLine
 10
1454.347735522421
 20
832.8328992803054
 30
0.0
 11
1455.147736522421
 21
833.6329002803049
 31
0.0
  0
LINE
  5
703F
330
1E
100
AcDbEntity
  8
躯体と製品
  6
Continuous
 62
     4
100
AcDbLine
 10
1455.761949084794
 20
832.8328992803053
 30
0.0
 11
1456.561950084795
 21
833.6329002803058
 31
0.0
  0
ARC
  5
7040
330
1E
100
AcDbEntity
  8
躯体と製品
  6
Continuous
 62
     3
100
AcDbCircle
 10
1451.109470993259
 20
832.2328992803059
 30
0.0
 40
0.5999999999999999
100
AcDbArc
 50
270.0
 51
90.0
  0
LINE
  5
7041
330
1E
100
AcDbEntity
  8
躯体と製品
  6
Continuous
 62
     4
100
AcDbLine
 10
1458.590376209541
 20
832.8328992803054
 30
0.0
 11
1459.390377209542
 21
833.6329002803061
 31
0.0
  0
LINE
  5
7042
330
1E
100
AcDbEntity
  8
躯体と製品
  6
Continuous
 62
     4
100
AcDbLine
 10
1460.004589771916
 20
832.8328992803061
 30
0.0
 11
1460.804590771916
 21
833.6329002803058
 31
0.0
  0
LINE
  5
7043
330
1E
100
AcDbEntity
  8
躯体と製品
  6
Continuous
 62
     4
100
AcDbLine
 10
1461.418803334289
 20
832.832899280306
 30
0.0
 11
1462.218804334288
 21
833.6329002803058
 31
0.0
  0
LINE
  5
7044
330
1E
100
AcDbEntity
  8
躯体と製品
  6
Continuous
 62
     4
100
AcDbLine
 10
1462.833016896662
 20
832.8328992803058
 30
0.0
 11
1463.633017896661
 21
833.6329002803054
 31
0.0
  0
LINE
  5
7045
330
1E
100
AcDbEntity
  8
躯体と製品
  6
Continuous
 62
     4
100
AcDbLine
 10
1464.247230459035
 20
832.8328992803056
 30
0.0
 11
1465.047231459035
 21
833.6329002803054
 31
0.0
  0
LINE
  5
7046
330
1E
100
AcDbEntity
  8
躯体と製品
  6
Continuous
 62
     4
100
AcDbLine
 10
1456.371080038832
 20
835.3328992803065
 30
0.0
 11
1458.937783127718
 21
837.8996023691923
 31
0.0
  0
LINE
  5
7047
330
1E
100
AcDbEntity
  8
躯体と製品
  6
Continuous
 62
     4
100
AcDbLine
 10
1453.542652914084
 20
835.3328992803058
 30
0.0
 11
1458.612788311272
 21
840.4030346774932
 31
0.0
  0
LINE
  5
7048
330
1E
100
AcDbEntity
  8
躯体と製品
  6
Continuous
 62
     4
100
AcDbLine
 10
1453.009470993259
 20
837.6281444842275
 30
0.0
 11
1458.511009560491
 21
843.1296830514591
 31
0.0
  0
LINE
  5
7049
330
1E
100
AcDbEntity
  8
躯体と製品
  6
Continuous
 62
     4
100
AcDbLine
 10
1451.133963862536
 20
842.3370271220312
 30
0.0
 11
1452.867668146555
 21
835.8195790624353
 31
0.0
  0
ARC
  5
704A
330
1E
100
AcDbEntity
  8
躯体と製品
  6
Continuous
 62
     7
100
AcDbCircle
 10
1447.409470993259
 20
841.832899280306
 30
0.0
 40
4.2
100
AcDbArc
 50
14.0957892441728
 51
42.74124453868362
  0
ARC
  5
704B
330
1E
100
AcDbEntity
  8
躯体と製品
  6
Continuous
 62
     7
100
AcDbCircle
 10
1447.409470993259
 20
841.832899280306
 30
0.0
 40
4.2
100
AcDbArc
 50
317.2587554613163
 51
345.9042107558272
  0
LINE
  5
704C
330
1E
100
AcDbEntity
  8
躯体と製品
  6
Continuous
 62
     7
100
AcDbLine
 10
1451.075190567913
 20
842.3328992803059
 30
0.0
 11
1451.075190567913
 21
841.3328992803061
 31
0.0
  0
ARC
  5
704D
330
1E
100
AcDbEntity
  8
躯体と製品
  6
Continuous
 62
     7
100
AcDbCircle
 10
1451.075190567913
 20
842.7533780037101
 30
0.0
 40
0.4204787234042585
100
AcDbArc
 50
270.0
 51
14.0957892441728
  0
ARC
  5
704E
330
1E
100
AcDbEntity
  8
躯体と製品
  6
Continuous
 62
     7
100
AcDbCircle
 10
1451.075190567913
 20
840.9124205569018
 30
0.0
 40
0.4204787234042585
100
AcDbArc
 50
345.9042107558272
 51
90.0
  0
LINE
  5
704F
330
1E
100
AcDbEntity
  8
躯体と製品
  6
Continuous
 62
     7
100
AcDbLine
 10
1450.009470993259
 20
835.3328992803058
 30
0.0
 11
1452.009470993259
 21
835.3328992803058
 31
0.0
  0
ARC
  5
7050
330
1E
100
AcDbEntity
  8
躯体と製品
  6
Continuous
 62
     7
100
AcDbCircle
 10
1452.009470993259
 20
836.332899280306
 30
0.0
 40
1.0
100
AcDbArc
 50
270.0
 51
0.0
  0
LINE
  5
7051
330
1E
100
AcDbEntity
  8
躯体と製品
  6
Continuous
 62
     4
100
AcDbLine
 10
1466.40947299326
 20
832.1667146897837
 30
0.0
 11
1467.099331347794
 21
832.8565730443179
 31
0.0
  0
LINE
  5
7052
330
1E
100
AcDbEntity
  8
躯体と製品
  6
Continuous
 62
     4
100
AcDbLine
 10
1466.40947299326
 20
830.7525011274108
 30
0.0
 11
1467.20947099326
 21
831.5524991274102
 31
0.0
  0
LINE
  5
7053
330
1E
100
AcDbEntity
  8
躯体と製品
  6
Continuous
 62
     4
100
AcDbLine
 10
1466.40947299326
 20
829.3382875650372
 30
0.0
 11
1467.20947099326
 21
830.1382855650372
 31
0.0
  0
LINE
  5
7054
330
1E
100
AcDbEntity
  8
躯体と製品
  6
Continuous
 62
     4
100
AcDbLine
 10
1466.40947299326
 20
827.924074002664
 30
0.0
 11
1467.20947099326
 21
828.7240720026636
 31
0.0
  0
LINE
  5
7055
330
1E
100
AcDbEntity
  8
躯体と製品
  6
Continuous
 62
     4
100
AcDbLine
 10
1466.409472993258
 20
826.509860440289
 30
0.0
 11
1467.209470993259
 21
827.3098584402898
 31
0.0
  0
LINE
  5
7056
330
1E
100
AcDbEntity
  8
躯体と製品
  6
Continuous
 62
     4
100
AcDbLine
 10
1466.409472993258
 20
825.0956468779156
 30
0.0
 11
1467.209470993259
 21
825.8956448779164
 31
0.0
  0
LINE
  5
7057
330
1E
100
AcDbEntity
  8
躯体と製品
  6
Continuous
 62
     4
100
AcDbLine
 10
1466.409472993259
 20
823.6814333155464
 30
0.0
 11
1467.209470993259
 21
824.4814313155471
 31
0.0
  0
ARC
  5
7058
330
1E
100
AcDbEntity
  8
躯体と製品
  6
Continuous
 62
     7
100
AcDbCircle
 10
1465.909471993259
 20
832.3329012803057
 30
0.0
 40
0.5000010000000003
100
AcDbArc
 50
0.0
 51
90.0
  0
ARC
  5
7059
330
1E
100
AcDbEntity
  8
躯体と製品
  6
Continuous
 62
     7
100
AcDbCircle
 10
1465.909471993259
 20
832.3329012803057
 30
0.0
 40
1.299998999999999
100
AcDbArc
 50
0.0
 51
90.0
  0
ARC
  5
705A
330
1E
100
AcDbEntity
  8
躯体と製品
  6
Continuous
 62
     3
100
AcDbCircle
 10
1467.009470993259
 20
833.332899280306
 30
0.0
 40
0.5
100
AcDbArc
 50
0.0
 51
90.0
  0
POINT
  5
705B
330
1E
100
AcDbEntity
  8
躯体と製品
 62
     4
100
AcDbPoint
 10
1469.009470993259
 20
835.3328992803058
 30
0.0
  0
ARC
  5
705C
330
1E
100
AcDbEntity
  8
躯体と製品
  6
Continuous
 62
     3
100
AcDbCircle
 10
1468.009470993259
 20
834.3328992803058
 30
0.0
 40
1.0
100
AcDbArc
 50
0.0
 51
90.0
  0
ARC
  5
705D
330
1E
100
AcDbEntity
  8
躯体と製品
  6
DASHED1
 62
     7
100
AcDbCircle
 10
1493.880945077437
 20
764.4246925753066
 30
0.0
 40
1.5
100
AcDbArc
 50
266.9999999999944
 51
86.99999999999441
  0
LINE
  5
705E
330
1E
100
AcDbEntity
  8
躯体と製品
  6
DASHED1
 62
     7
100
AcDbLine
 10
1490.307237771431
 20
763.1099241200254
 30
0.0
 11
1493.802441143072
 21
762.9267482731749
 31
0.0
  0
LINE
  5
705F
330
1E
100
AcDbEntity
  8
躯体と製品
  6
DASHED1
 62
     7
100
AcDbLine
 10
1490.307237771431
 20
763.1099241200254
 30
0.0
 11
1490.359573727674
 21
764.1085536547798
 31
0.0
  0
LINE
  5
7060
330
1E
100
AcDbEntity
  8
躯体と製品
  6
DASHED1
 62
     4
100
AcDbLine
 10
1525.442447334692
 20
764.7733690231632
 30
0.0
 11
1525.536652055929
 21
766.5709021857215
 31
0.0
  0
LINE
  5
7061
330
1E
100
AcDbEntity
  8
躯体と製品
  6
DASHED1
 62
     7
100
AcDbLine
 10
1532.526871946274
 20
769.6350305662824
 30
0.0
 11
1534.358420992661
 21
767.2590195742116
 31
0.0
  0
ARC
  5
7062
330
1E
100
AcDbEntity
  8
躯体と製品
  6
DASHED1
 62
     7
100
AcDbCircle
 10
1535.150424635755
 20
767.8695359370768
 30
0.0
 40
1.8
100
AcDbArc
 50
217.6268481237226
 51
316.3731526377176
  0
ARC
  5
7063
330
1E
100
AcDbEntity
  8
躯体と製品
  6
DASHED1
 62
     7
100
AcDbCircle
 10
1535.150424635755
 20
767.8695359370768
 30
0.0
 40
1.0
100
AcDbArc
 50
217.6268487328632
 51
316.3731526377176
  0
LINE
  5
7064
330
1E
100
AcDbEntity
  8
躯体と製品
  6
DASHED1
 62
     7
100
AcDbLine
 10
1531.893269020096
 20
769.146617491172
 30
0.0
 11
1533.724818066503
 21
766.7706064990757
 31
0.0
  0
LINE
  5
7065
330
1E
100
AcDbEntity
  8
躯体と製品
  6
DASHED1
 62
     7
100
AcDbLine
 10
1531.893269020096
 20
769.146617491172
 30
0.0
 11
1532.526871946274
 21
769.6350305662824
 31
0.0
  0
CIRCLE
  5
706B
330
1E
100
AcDbEntity
  8
図枠
  6
Continuous
 62
     4
100
AcDbCircle
 10
1420.360768216591
 20
860.6496668636948
 30
0.0
 40
6.0
  0
TEXT
  5
706F
330
1E
100
AcDbEntity
  8
図枠
 62
     7
100
AcDbText
 10
1480.267435377358
 20
868.372957709953
 30
0.0
 40
5.0
  1
２
100
AcDbText
  0
CIRCLE
  5
7070
330
1E
100
AcDbEntity
  8
図枠
  6
Continuous
 62
     4
100
AcDbCircle
 10
1483.267435377358
 20
871.3729577099529
 30
0.0
 40
6.0
  0
LINE
  5
7072
330
1E
100
AcDbEntity
  8
躯体と製品
  6
Continuous
 62
     7
100
AcDbLine
 10
1459.509470993259
 20
930.3328992803059
 30
0.0
 11
1459.509470993259
 21
850.332899280306
 31
0.0
  0
ARC
  5
7076
330
1E
100
AcDbEntity
  8
躯体と製品
  6
Continuous
 62
     7
100
AcDbCircle
 10
1450.009470993259
 20
849.3328992803061
 30
0.0
 40
1.0
100
AcDbArc
 50
90.0
 51
180.0
  0
LINE
  5
7077
330
1E
100
AcDbEntity
  8
躯体と製品
  6
Continuous
 62
     7
100
AcDbLine
 10
1434.509470993259
 20
850.332899280306
 30
0.0
 11
1459.509470993259
 21
850.332899280306
 31
0.0
  0
TEXT
  5
7079
330
1E
100
AcDbEntity
  8
図枠
 62
     7
100
AcDbText
 10
1417.360768216591
 20
857.649666863695
 30
0.0
 40
5.0
  1
４
100
AcDbText
  0
LINE
  5
707A
330
1E
100
AcDbEntity
  8
躯体と製品
  6
Continuous
 62
     3
100
AcDbLine
 10
1440.009470993259
 20
845.832899280306
 30
0.0
 11
1447.009470993259
 21
845.832899280306
 31
0.0
  0
LINE
  5
707B
330
1E
100
AcDbEntity
  8
躯体と製品
  6
Continuous
 62
     3
100
AcDbLine
 10
1448.009470993259
 20
847.3328992803057
 30
0.0
 11
1440.009470993259
 21
847.3328992803057
 31
0.0
  0
LINE
  5
707C
330
1E
100
AcDbEntity
  8
躯体と製品
  6
Continuous
 62
     3
100
AcDbLine
 10
1437.009470993259
 20
845.832899280306
 30
0.0
 11
1445.509470993259
 21
845.832899280306
 31
0.0
  0
ARC
  5
707D
330
1E
100
AcDbEntity
  8
躯体と製品
  6
Continuous
 62
     3
100
AcDbCircle
 10
1440.009470993259
 20
846.3328992803058
 30
0.0
 40
0.5
100
AcDbArc
 50
180.0
 51
270.0
  0
LINE
  5
707E
330
1E
100
AcDbEntity
  8
躯体と製品
  6
Continuous
 62
     3
100
AcDbLine
 10
1439.509470993259
 20
846.8328992803058
 30
0.0
 11
1439.509470993259
 21
846.3328992803058
 31
0.0
  0
ARC
  5
707F
330
1E
100
AcDbEntity
  8
躯体と製品
  6
Continuous
 62
     3
100
AcDbCircle
 10
1440.009470993259
 20
846.8328992803058
 30
0.0
 40
0.5
100
AcDbArc
 50
90.0
 51
180.0
  0
LINE
  5
7080
330
1E
100
AcDbEntity
  8
躯体と製品
  6
Continuous
 62
     7
100
AcDbLine
 10
1449.009470993259
 20
846.3328992803058
 30
0.0
 11
1449.009470993259
 21
849.3328992803061
 31
0.0
  0
ARC
  5
7081
330
1E
100
AcDbEntity
  8
躯体と製品
  6
Continuous
 62
     3
100
AcDbCircle
 10
1448.009470993259
 20
846.3328992803058
 30
0.0
 40
1.0
100
AcDbArc
 50
0.0
 51
90.0
  0
TEXT
  5
7082
330
1E
100
AcDbEntity
  8
図枠
 62
     7
100
AcDbText
 10
1419.591364548914
 20
879.0972356809904
 30
0.0
 40
5.0
  1
15
100
AcDbText
  0
CIRCLE
  5
7083
330
1E
100
AcDbEntity
  8
図枠
  6
Continuous
 62
     4
100
AcDbCircle
 10
1422.841364548914
 20
882.0972356809905
 30
0.0
 40
6.0
  0
LINE
  5
7084
330
1E
100
AcDbEntity
  8
躯体と製品
  6
Continuous
 62
     4
100
AcDbLine
 10
1453.009470993259
 20
846.1134258584674
 30
0.0
 11
1457.228944415098
 21
850.332899280306
 31
0.0
  0
LINE
  5
7085
330
1E
100
AcDbEntity
  8
躯体と製品
  6
Continuous
 62
     4
100
AcDbLine
 10
1453.009470993259
 20
848.9418529832141
 30
0.0
 11
1454.400517290351
 21
850.332899280306
 31
0.0
  0
ARC
  5
7086
330
1E
100
AcDbEntity
  8
躯体と製品
  6
Continuous
 62
     7
100
AcDbCircle
 10
1452.009470993259
 20
849.3328992803061
 30
0.0
 40
1.0
100
AcDbArc
 50
0.0
 51
90.0
  0
LINE
  5
7087
330
1E
100
AcDbEntity
  8
躯体と製品
  6
Continuous
 62
     7
100
AcDbLine
 10
1452.009470993259
 20
850.332899280306
 30
0.0
 11
1450.009470993259
 21
850.332899280306
 31
0.0
  0
CIRCLE
  5
7093
330
1E
100
AcDbEntity
  8
図枠
  6
Continuous
 62
     4
100
AcDbCircle
 10
1491.196026517676
 20
858.1738944806051
 30
0.0
 40
6.0
  0
TEXT
  5
7094
330
1E
100
AcDbEntity
  8
図枠
 62
     7
100
AcDbText
 10
1487.946026517676
 20
855.1738944806052
 30
0.0
 40
5.0
  1
10
100
AcDbText
  0
LINE
  5
7098
330
1E
100
AcDbEntity
  8
躯体と製品
  6
Continuous
 62
     7
100
AcDbLine
 10
1609.509470993259
 20
735.0612494069964
 30
0.0
 11
1609.509470993259
 21
615.0612494069965
 31
0.0
  0
LINE
  5
7099
330
1E
100
AcDbEntity
  8
図枠
  6
Continuous
 62
     7
100
AcDbLine
 10
1960.009470993259
 20
372.0612494069964
 30
0.0
 11
1960.009470993259
 21
948.0612494069964
 31
0.0
  0
TEXT
  5
709A
330
1E
100
AcDbEntity
  8
図枠
 62
     7
100
AcDbText
 10
1802.00947099326
 20
600.7311498059054
 30
0.0
 40
5.0
  1
（単位：mm）
100
AcDbText
  0
LINE
  5
709B
330
1E
100
AcDbEntity
  8
図枠
  6
Continuous
 62
     7
100
AcDbLine
 10
1843.00947099326
 20
483.0612494069963
 30
0.0
 11
1618.00947099326
 21
483.0612494069963
 31
0.0
  0
LINE
  5
709C
330
1E
100
AcDbEntity
  8
図枠
  6
Continuous
 62
     7
100
AcDbLine
 10
1843.00947099326
 20
492.0612494069962
 30
0.0
 11
1618.00947099326
 21
492.0612494069962
 31
0.0
  0
LINE
  5
709D
330
1E
100
AcDbEntity
  8
図枠
  6
Continuous
 62
     7
100
AcDbLine
 10
1843.00947099326
 20
501.0612494069962
 30
0.0
 11
1618.00947099326
 21
501.0612494069962
 31
0.0
  0
LINE
  5
709E
330
1E
100
AcDbEntity
  8
図枠
  6
Continuous
 62
     7
100
AcDbLine
 10
1843.00947099326
 20
510.0612494069962
 30
0.0
 11
1618.00947099326
 21
510.0612494069962
 31
0.0
  0
LINE
  5
709F
330
1E
100
AcDbEntity
  8
図枠
  6
Continuous
 62
     7
100
AcDbLine
 10
1843.00947099326
 20
519.0612494069962
 30
0.0
 11
1618.00947099326
 21
519.0612494069962
 31
0.0
  0
LINE
  5
70A0
330
1E
100
AcDbEntity
  8
図枠
  6
Continuous
 62
     7
100
AcDbLine
 10
1843.00947099326
 20
528.0612494069962
 30
0.0
 11
1618.00947099326
 21
528.0612494069962
 31
0.0
  0
LINE
  5
70A1
330
1E
100
AcDbEntity
  8
図枠
  6
Continuous
 62
     7
100
AcDbLine
 10
1843.00947099326
 20
537.0612494069963
 30
0.0
 11
1618.00947099326
 21
537.0612494069963
 31
0.0
  0
LINE
  5
70A2
330
1E
100
AcDbEntity
  8
図枠
  6
Continuous
 62
     7
100
AcDbLine
 10
1843.00947099326
 20
546.0612494069964
 30
0.0
 11
1618.00947099326
 21
546.0612494069964
 31
0.0
  0
LINE
  5
70A3
330
1E
100
AcDbEntity
  8
図枠
  6
Continuous
 62
     7
100
AcDbLine
 10
1843.00947099326
 20
555.0612494069964
 30
0.0
 11
1618.00947099326
 21
555.0612494069964
 31
0.0
  0
LINE
  5
70A4
330
1E
100
AcDbEntity
  8
図枠
  6
Continuous
 62
     7
100
AcDbLine
 10
1843.00947099326
 20
564.0612494069964
 30
0.0
 11
1618.00947099326
 21
564.0612494069964
 31
0.0
  0
LINE
  5
70A5
330
1E
100
AcDbEntity
  8
図枠
  6
Continuous
 62
     7
100
AcDbLine
 10
1843.00947099326
 20
573.0612494069965
 30
0.0
 11
1618.00947099326
 21
573.0612494069965
 31
0.0
  0
LINE
  5
70A6
330
1E
100
AcDbEntity
  8
図枠
  6
Continuous
 62
     7
100
AcDbLine
 10
1843.00947099326
 20
582.0612494069965
 30
0.0
 11
1618.00947099326
 21
582.0612494069965
 31
0.0
  0
LINE
  5
70A7
330
1E
100
AcDbEntity
  8
図枠
  6
Continuous
 62
     7
100
AcDbLine
 10
1843.00947099326
 20
591.0612494069964
 30
0.0
 11
1618.00947099326
 21
591.0612494069964
 31
0.0
  0
LINE
  5
70A8
330
1E
100
AcDbEntity
  8
図枠
  6
Continuous
 62
     7
100
AcDbLine
 10
1843.00947099326
 20
600.0612494069964
 30
0.0
 11
1618.00947099326
 21
600.0612494069964
 31
0.0
  0
LINE
  5
70A9
330
1E
100
AcDbEntity
  8
図枠
  6
Continuous
 62
     7
100
AcDbLine
 10
1598.009470993259
 20
393.0612494069963
 30
0.0
 11
1598.009470993259
 21
600.0612494069964
 31
0.0
  0
LINE
  5
70AA
330
1E
100
AcDbEntity
  8
図枠
  6
Continuous
 62
     7
100
AcDbLine
 10
1584.00947099326
 20
393.0612494069963
 30
0.0
 11
1584.00947099326
 21
600.0612494069964
 31
0.0
  0
LINE
  5
70AB
330
1E
100
AcDbEntity
  8
図枠
  6
Continuous
 62
     7
100
AcDbLine
 10
1566.009470993259
 20
393.0612494069963
 30
0.0
 11
1566.009470993259
 21
600.0612494069964
 31
0.0
  0
TEXT
  5
70AC
330
1E
100
AcDbEntity
  8
図枠
 62
     7
100
AcDbText
 10
1571.759470993259
 20
403.5612494069964
 30
0.0
 40
5.0
  1
 5
100
AcDbText
  0
TEXT
  5
70AD
330
1E
100
AcDbEntity
  8
図枠
 62
     7
100
AcDbText
 10
1571.759470993259
 20
394.5612494069964
 30
0.0
 40
5.0
  1
 1
100
AcDbText
  0
TEXT
  5
70AE
330
1E
100
AcDbEntity
  8
図枠
 62
     7
100
AcDbText
 10
1571.759470993259
 20
412.5612494069963
 30
0.0
 40
5.0
  1
 5
100
AcDbText
  0
TEXT
  5
70AF
330
1E
100
AcDbEntity
  8
図枠
 62
     7
100
AcDbText
 10
1571.759470993259
 20
421.5612494069963
 30
0.0
 40
5.0
  1
 5
100
AcDbText
  0
TEXT
  5
70B0
330
1E
100
AcDbEntity
  8
図枠
 62
     7
100
AcDbText
 10
1588.00947099326
 20
394.5612494069964
 30
0.0
 40
5.0
  1
巻
100
AcDbText
  0
TEXT
  5
70B1
330
1E
100
AcDbEntity
  8
図枠
 62
     7
100
AcDbText
 10
1588.00947099326
 20
412.5612494069963
 30
0.0
 40
5.0
  1
枚
100
AcDbText
  0
TEXT
  5
70B2
330
1E
100
AcDbEntity
  8
図枠
 62
     7
100
AcDbText
 10
1588.00947099326
 20
403.5612494069964
 30
0.0
 40
5.0
  1
〃
100
AcDbText
  0
TEXT
  5
70B3
330
1E
100
AcDbEntity
  8
図枠
 62
     7
100
AcDbText
 10
1588.00947099326
 20
421.5612494069963
 30
0.0
 40
5.0
  1
〃
100
AcDbText
  0
TEXT
  5
70B4
330
1E
100
AcDbEntity
  8
図枠
 62
     7
100
AcDbText
 10
1571.759470993259
 20
448.5612494069963
 30
0.0
 40
5.0
  1
 5
100
AcDbText
  0
TEXT
  5
70B5
330
1E
100
AcDbEntity
  8
図枠
 62
     7
100
AcDbText
 10
1571.759470993259
 20
439.5612494069964
 30
0.0
 40
5.0
  1
 5
100
AcDbText
  0
TEXT
  5
70B6
330
1E
100
AcDbEntity
  8
図枠
 62
     7
100
AcDbText
 10
1571.759470993259
 20
430.5612494069964
 30
0.0
 40
5.0
  1
 5
100
AcDbText
  0
TEXT
  5
70B7
330
1E
100
AcDbEntity
  8
図枠
 62
     7
100
AcDbText
 10
1571.759470993259
 20
457.5612494069964
 30
0.0
 40
5.0
  1
 5
100
AcDbText
  0
TEXT
  5
70B8
330
1E
100
AcDbEntity
  8
図枠
 62
     7
100
AcDbText
 10
1571.759470993259
 20
466.5612494069963
 30
0.0
 40
5.0
  1
 4
100
AcDbText
  0
TEXT
  5
70B9
330
1E
100
AcDbEntity
  8
図枠
 62
     7
100
AcDbText
 10
1588.00947099326
 20
448.5612494069963
 30
0.0
 40
5.0
  1
〃
100
AcDbText
  0
TEXT
  5
70BA
330
1E
100
AcDbEntity
  8
図枠
 62
     7
100
AcDbText
 10
1588.00947099326
 20
430.5612494069964
 30
0.0
 40
5.0
  1
〃
100
AcDbText
  0
TEXT
  5
70BB
330
1E
100
AcDbEntity
  8
図枠
 62
     7
100
AcDbText
 10
1588.00947099326
 20
439.5612494069964
 30
0.0
 40
5.0
  1
〃
100
AcDbText
  0
TEXT
  5
70BC
330
1E
100
AcDbEntity
  8
図枠
 62
     7
100
AcDbText
 10
1588.00947099326
 20
457.5612494069964
 30
0.0
 40
5.0
  1
〃
100
AcDbText
  0
TEXT
  5
70BD
330
1E
100
AcDbEntity
  8
図枠
 62
     7
100
AcDbText
 10
1588.00947099326
 20
466.5612494069963
 30
0.0
 40
5.0
  1
〃
100
AcDbText
  0
TEXT
  5
70BE
330
1E
100
AcDbEntity
  8
図枠
 62
     7
100
AcDbText
 10
1629.509470993259
 20
583.5612494069962
 30
0.0
 40
5.0
  1
50ＦＹＫ－Ａ225
100
AcDbText
  0
TEXT
  5
70BF
330
1E
100
AcDbEntity
  8
図枠
 62
     7
100
AcDbText
 10
1588.00947099326
 20
565.5612494069965
 30
0.0
 40
5.0
  1
〃
100
AcDbText
  0
TEXT
  5
70C0
330
1E
100
AcDbEntity
  8
図枠
 62
     7
100
AcDbText
 10
1571.759470993259
 20
565.5612494069965
 30
0.0
 40
5.0
  1
 1
100
AcDbText
  0
LINE
  5
70C1
330
1E
100
AcDbEntity
  8
図枠
  6
Continuous
 62
     7
100
AcDbLine
 10
1618.00947099326
 20
600.0612494069964
 30
0.0
 11
1618.00947099326
 21
483.0612494069963
 31
0.0
  0
TEXT
  5
70C2
330
1E
100
AcDbEntity
  8
図枠
 62
     7
100
AcDbText
 10
1629.50947099326
 20
565.5612494069965
 30
0.0
 40
5.0
  1
　　 〃　 　275
100
AcDbText
  0
TEXT
  5
70C3
330
1E
100
AcDbEntity
  8
図枠
 62
     7
100
AcDbText
 10
1571.759470993259
 20
520.5612494069962
 30
0.0
 40
5.0
  1
 4
100
AcDbText
  0
TEXT
  5
70C4
330
1E
100
AcDbEntity
  8
図枠
 62
     7
100
AcDbText
 10
1571.759470993259
 20
493.5612494069964
 30
0.0
 40
5.0
  1
 1
100
AcDbText
  0
TEXT
  5
70C5
330
1E
100
AcDbEntity
  8
図枠
 62
     7
100
AcDbText
 10
1571.759470993259
 20
484.5612494069962
 30
0.0
 40
5.0
  1
 1
100
AcDbText
  0
TEXT
  5
70C6
330
1E
100
AcDbEntity
  8
図枠
 62
     7
100
AcDbText
 10
1571.759470993259
 20
475.5612494069962
 30
0.0
 40
5.0
  1
 1
100
AcDbText
  0
TEXT
  5
70C7
330
1E
100
AcDbEntity
  8
図枠
 62
     7
100
AcDbText
 10
1571.759470993259
 20
502.5612494069963
 30
0.0
 40
5.0
  1
 1
100
AcDbText
  0
TEXT
  5
70C8
330
1E
100
AcDbEntity
  8
図枠
 62
     7
100
AcDbText
 10
1571.759470993259
 20
511.5612494069963
 30
0.0
 40
5.0
  1
 1
100
AcDbText
  0
TEXT
  5
70C9
330
1E
100
AcDbEntity
  8
図枠
 62
     7
100
AcDbText
 10
1588.00947099326
 20
493.5612494069964
 30
0.0
 40
5.0
  1
枚
100
AcDbText
  0
TEXT
  5
70CA
330
1E
100
AcDbEntity
  8
図枠
 62
     7
100
AcDbText
 10
1588.00947099326
 20
484.5612494069962
 30
0.0
 40
5.0
  1
〃
100
AcDbText
  0
TEXT
  5
70CB
330
1E
100
AcDbEntity
  8
図枠
 62
     7
100
AcDbText
 10
1588.00947099326
 20
475.5612494069962
 30
0.0
 40
5.0
  1
本
100
AcDbText
  0
TEXT
  5
70CC
330
1E
100
AcDbEntity
  8
図枠
 62
     7
100
AcDbText
 10
1588.00947099326
 20
502.5612494069963
 30
0.0
 40
5.0
  1
〃
100
AcDbText
  0
TEXT
  5
70CD
330
1E
100
AcDbEntity
  8
図枠
 62
     7
100
AcDbText
 10
1588.00947099326
 20
511.5612494069963
 30
0.0
 40
5.0
  1
〃
100
AcDbText
  0
TEXT
  5
70CE
330
1E
100
AcDbEntity
  8
図枠
 62
     7
100
AcDbText
 10
1571.759470993259
 20
529.5612494069962
 30
0.0
 40
5.0
  1
 4
100
AcDbText
  0
TEXT
  5
70CF
330
1E
100
AcDbEntity
  8
図枠
 62
     7
100
AcDbText
 10
1571.759470993259
 20
538.5612494069964
 30
0.0
 40
5.0
  1
 4
100
AcDbText
  0
TEXT
  5
70D0
330
1E
100
AcDbEntity
  8
図枠
 62
     7
100
AcDbText
 10
1571.759470993259
 20
547.5612494069964
 30
0.0
 40
5.0
  1
 1
100
AcDbText
  0
TEXT
  5
70D1
330
1E
100
AcDbEntity
  8
図枠
 62
     7
100
AcDbText
 10
1571.759470993259
 20
556.5612494069965
 30
0.0
 40
5.0
  1
 1
100
AcDbText
  0
TEXT
  5
70D2
330
1E
100
AcDbEntity
  8
図枠
 62
     7
100
AcDbText
 10
1588.00947099326
 20
529.5612494069962
 30
0.0
 40
5.0
  1
〃
100
AcDbText
  0
TEXT
  5
70D3
330
1E
100
AcDbEntity
  8
図枠
 62
     7
100
AcDbText
 10
1588.00947099326
 20
520.5612494069962
 30
0.0
 40
5.0
  1
〃
100
AcDbText
  0
TEXT
  5
70D4
330
1E
100
AcDbEntity
  8
図枠
 62
     7
100
AcDbText
 10
1588.00947099326
 20
538.5612494069964
 30
0.0
 40
5.0
  1
〃
100
AcDbText
  0
TEXT
  5
70D5
330
1E
100
AcDbEntity
  8
図枠
 62
     7
100
AcDbText
 10
1588.00947099326
 20
547.5612494069964
 30
0.0
 40
5.0
  1
〃
100
AcDbText
  0
TEXT
  5
70D6
330
1E
100
AcDbEntity
  8
図枠
 62
     7
100
AcDbText
 10
1588.00947099326
 20
556.5612494069965
 30
0.0
 40
5.0
  1
〃
100
AcDbText
  0
TEXT
  5
70D7
330
1E
100
AcDbEntity
  8
図枠
 62
     7
100
AcDbText
 10
1629.50947099326
 20
520.5612494069962
 30
0.0
 40
5.0
  1
　　 〃　 　400
100
AcDbText
  0
TEXT
  5
70D8
330
1E
100
AcDbEntity
  8
図枠
 62
     7
100
AcDbText
 10
1629.50947099326
 20
484.5612494069962
 30
0.0
 40
5.0
  1
　　 〃　 　500
100
AcDbText
  0
TEXT
  5
70D9
330
1E
100
AcDbEntity
  8
図枠
 62
     7
100
AcDbText
 10
1629.50947099326
 20
493.5612494069964
 30
0.0
 40
5.0
  1
　　 〃　 　475
100
AcDbText
  0
TEXT
  5
70DA
330
1E
100
AcDbEntity
  8
図枠
 62
     7
100
AcDbText
 10
1629.50947099326
 20
502.5612494069963
 30
0.0
 40
5.0
  1
　　 〃　 　450
100
AcDbText
  0
TEXT
  5
70DB
330
1E
100
AcDbEntity
  8
図枠
 62
     7
100
AcDbText
 10
1629.50947099326
 20
511.5612494069963
 30
0.0
 40
5.0
  1
　　 〃　 　425
100
AcDbText
  0
TEXT
  5
70DC
330
1E
100
AcDbEntity
  8
図枠
 62
     7
100
AcDbText
 10
1629.50947099326
 20
529.5612494069962
 30
0.0
 40
5.0
  1
　　 〃　 　375
100
AcDbText
  0
TEXT
  5
70DD
330
1E
100
AcDbEntity
  8
図枠
 62
     7
100
AcDbText
 10
1629.50947099326
 20
538.5612494069964
 30
0.0
 40
5.0
  1
　　 〃　 　350
100
AcDbText
  0
TEXT
  5
70DE
330
1E
100
AcDbEntity
  8
図枠
 62
     7
100
AcDbText
 10
1629.50947099326
 20
547.5612494069964
 30
0.0
 40
5.0
  1
　　 〃　 　325
100
AcDbText
  0
TEXT
  5
70DF
330
1E
100
AcDbEntity
  8
図枠
 62
     7
100
AcDbText
 10
1629.50947099326
 20
556.5612494069965
 30
0.0
 40
5.0
  1
　　 〃　 　300
100
AcDbText
  0
TEXT
  5
70E0
330
1E
100
AcDbEntity
  8
図枠
 62
     7
100
AcDbText
 10
1571.759470993259
 20
574.5612494069964
 30
0.0
 40
5.0
  1
 1
100
AcDbText
  0
TEXT
  5
70E1
330
1E
100
AcDbEntity
  8
図枠
 62
     7
100
AcDbText
 10
1571.759470993259
 20
583.5612494069962
 30
0.0
 40
5.0
  1
 1
100
AcDbText
  0
TEXT
  5
70E2
330
1E
100
AcDbEntity
  8
図枠
 62
     7
100
AcDbText
 10
1568.509470993259
 20
592.5612494069964
 30
0.0
 40
5.0
  1
入数
100
AcDbText
  0
TEXT
  5
70E3
330
1E
100
AcDbEntity
  8
図枠
 62
     7
100
AcDbText
 10
1588.00947099326
 20
574.5612494069964
 30
0.0
 40
5.0
  1
〃
100
AcDbText
  0
TEXT
  5
70E4
330
1E
100
AcDbEntity
  8
図枠
 62
     7
100
AcDbText
 10
1588.00947099326
 20
583.5612494069962
 30
0.0
 40
5.0
  1
本
100
AcDbText
  0
TEXT
  5
70E5
330
1E
100
AcDbEntity
  8
図枠
 62
     7
100
AcDbText
 10
1584.50947099326
 20
592.5612494069964
 30
0.0
 40
5.0
  1
単位
100
AcDbText
  0
TEXT
  5
70E9
330
1E
100
AcDbEntity
  8
図枠
 62
     7
100
AcDbText
 10
1629.50947099326
 20
574.5612494069964
 30
0.0
 40
5.0
  1
　　 〃　 　250
100
AcDbText
  0
TEXT
  5
70EA
330
1E
100
AcDbEntity
  8
図枠
 62
     7
100
AcDbText
 10
1638.50947099326
 20
592.5612494069964
 30
0.0
 40
5.0
  1
タ　イ　プ
100
AcDbText
  0
LINE
  5
70EE
330
1E
100
AcDbEntity
  8
図枠
  6
Continuous
 62
     7
100
AcDbLine
 10
1783.009470993259
 20
600.0612494069964
 30
0.0
 11
1783.009470993259
 21
483.0612494069963
 31
0.0
  0
LINE
  5
70EF
330
1E
100
AcDbEntity
  8
図枠
  6
Continuous
 62
     7
100
AcDbLine
 10
1753.009470993259
 20
600.0612494069964
 30
0.0
 11
1753.009470993259
 21
483.0612494069963
 31
0.0
  0
TEXT
  5
70F0
330
1E
100
AcDbEntity
  8
図枠
 62
     7
100
AcDbText
 10
1794.759470993259
 20
565.5612494069965
 30
0.0
 40
5.0
  1
58
100
AcDbText
  0
TEXT
  5
70F1
330
1E
100
AcDbEntity
  8
図枠
 62
     7
100
AcDbText
 10
1763.009470993259
 20
565.5612494069965
 30
0.0
 40
5.0
  1
150
100
AcDbText
  0
LINE
  5
70F2
330
1E
100
AcDbEntity
  8
図枠
  6
Continuous
 62
     7
100
AcDbLine
 10
1693.009470993259
 20
600.0612494069964
 30
0.0
 11
1693.009470993259
 21
483.0612494069963
 31
0.0
  0
LINE
  5
70F3
330
1E
100
AcDbEntity
  8
図枠
  6
Continuous
 62
     7
100
AcDbLine
 10
1723.009470993259
 20
600.0612494069964
 30
0.0
 11
1723.009470993259
 21
483.0612494069963
 31
0.0
  0
TEXT
  5
70F4
330
1E
100
AcDbEntity
  8
図枠
 62
     7
100
AcDbText
 10
1733.009470993259
 20
565.5612494069965
 30
0.0
 40
5.0
  1
260
100
AcDbText
  0
TEXT
  5
70F5
330
1E
100
AcDbEntity
  8
図枠
 62
     7
100
AcDbText
 10
1703.009470993259
 20
565.5612494069965
 30
0.0
 40
5.0
  1
275
100
AcDbText
  0
TEXT
  5
70F6
330
1E
100
AcDbEntity
  8
図枠
 62
     7
100
AcDbText
 10
1733.009470993259
 20
484.5612494069962
 30
0.0
 40
5.0
  1
485
100
AcDbText
  0
TEXT
  5
70F7
330
1E
100
AcDbEntity
  8
図枠
 62
     7
100
AcDbText
 10
1733.009470993259
 20
493.5612494069964
 30
0.0
 40
5.0
  1
460
100
AcDbText
  0
TEXT
  5
70F8
330
1E
100
AcDbEntity
  8
図枠
 62
     7
100
AcDbText
 10
1733.009470993259
 20
502.5612494069963
 30
0.0
 40
5.0
  1
435
100
AcDbText
  0
TEXT
  5
70F9
330
1E
100
AcDbEntity
  8
図枠
 62
     7
100
AcDbText
 10
1733.009470993259
 20
520.5612494069962
 30
0.0
 40
5.0
  1
385
100
AcDbText
  0
TEXT
  5
70FA
330
1E
100
AcDbEntity
  8
図枠
 62
     7
100
AcDbText
 10
1733.009470993259
 20
529.5612494069962
 30
0.0
 40
5.0
  1
360
100
AcDbText
  0
TEXT
  5
70FB
330
1E
100
AcDbEntity
  8
図枠
 62
     7
100
AcDbText
 10
1733.009470993259
 20
538.5612494069964
 30
0.0
 40
5.0
  1
335
100
AcDbText
  0
TEXT
  5
70FC
330
1E
100
AcDbEntity
  8
図枠
 62
     7
100
AcDbText
 10
1733.009470993259
 20
556.5612494069965
 30
0.0
 40
5.0
  1
285
100
AcDbText
  0
TEXT
  5
70FD
330
1E
100
AcDbEntity
  8
図枠
 62
     7
100
AcDbText
 10
1703.009470993259
 20
520.5612494069962
 30
0.0
 40
5.0
  1
400
100
AcDbText
  0
TEXT
  5
70FE
330
1E
100
AcDbEntity
  8
図枠
 62
     7
100
AcDbText
 10
1703.009470993259
 20
484.5612494069962
 30
0.0
 40
5.0
  1
500
100
AcDbText
  0
TEXT
  5
70FF
330
1E
100
AcDbEntity
  8
図枠
 62
     7
100
AcDbText
 10
1703.009470993259
 20
493.5612494069964
 30
0.0
 40
5.0
  1
475
100
AcDbText
  0
TEXT
  5
7100
330
1E
100
AcDbEntity
  8
図枠
 62
     7
100
AcDbText
 10
1703.009470993259
 20
502.5612494069963
 30
0.0
 40
5.0
  1
450
100
AcDbText
  0
TEXT
  5
7101
330
1E
100
AcDbEntity
  8
図枠
 62
     7
100
AcDbText
 10
1703.009470993259
 20
511.5612494069963
 30
0.0
 40
5.0
  1
425
100
AcDbText
  0
TEXT
  5
7102
330
1E
100
AcDbEntity
  8
図枠
 62
     7
100
AcDbText
 10
1733.009470993259
 20
511.5612494069963
 30
0.0
 40
5.0
  1
410
100
AcDbText
  0
TEXT
  5
7103
330
1E
100
AcDbEntity
  8
図枠
 62
     7
100
AcDbText
 10
1703.009470993259
 20
529.5612494069962
 30
0.0
 40
5.0
  1
375
100
AcDbText
  0
TEXT
  5
7104
330
1E
100
AcDbEntity
  8
図枠
 62
     7
100
AcDbText
 10
1703.009470993259
 20
538.5612494069964
 30
0.0
 40
5.0
  1
350
100
AcDbText
  0
TEXT
  5
7105
330
1E
100
AcDbEntity
  8
図枠
 62
     7
100
AcDbText
 10
1703.009470993259
 20
547.5612494069964
 30
0.0
 40
5.0
  1
325
100
AcDbText
  0
TEXT
  5
7106
330
1E
100
AcDbEntity
  8
図枠
 62
     7
100
AcDbText
 10
1703.009470993259
 20
556.5612494069965
 30
0.0
 40
5.0
  1
300
100
AcDbText
  0
TEXT
  5
7107
330
1E
100
AcDbEntity
  8
図枠
 62
     7
100
AcDbText
 10
1733.009470993259
 20
547.5612494069964
 30
0.0
 40
5.0
  1
310
100
AcDbText
  0
TEXT
  5
7108
330
1E
100
AcDbEntity
  8
図枠
 62
     7
100
AcDbText
 10
1794.759470993259
 20
520.5612494069962
 30
0.0
 40
5.0
  1
64
100
AcDbText
  0
TEXT
  5
7109
330
1E
100
AcDbEntity
  8
図枠
 62
     7
100
AcDbText
 10
1763.009470993259
 20
520.5612494069962
 30
0.0
 40
5.0
  1
275
100
AcDbText
  0
TEXT
  5
710A
330
1E
100
AcDbEntity
  8
図枠
 62
     7
100
AcDbText
 10
1763.009470993259
 20
493.5612494069964
 30
0.0
 40
5.0
  1
350
100
AcDbText
  0
TEXT
  5
710B
330
1E
100
AcDbEntity
  8
図枠
 62
     7
100
AcDbText
 10
1763.009470993259
 20
484.5612494069962
 30
0.0
 40
5.0
  1
375
100
AcDbText
  0
TEXT
  5
710C
330
1E
100
AcDbEntity
  8
図枠
 62
     7
100
AcDbText
 10
1763.009470993259
 20
502.5612494069963
 30
0.0
 40
5.0
  1
325
100
AcDbText
  0
TEXT
  5
710D
330
1E
100
AcDbEntity
  8
図枠
 62
     7
100
AcDbText
 10
1763.009470993259
 20
511.5612494069963
 30
0.0
 40
5.0
  1
300
100
AcDbText
  0
TEXT
  5
710E
330
1E
100
AcDbEntity
  8
図枠
 62
     7
100
AcDbText
 10
1794.759470993259
 20
493.5612494069964
 30
0.0
 40
5.0
  1
68
100
AcDbText
  0
TEXT
  5
710F
330
1E
100
AcDbEntity
  8
図枠
 62
     7
100
AcDbText
 10
1794.759470993259
 20
484.5612494069962
 30
0.0
 40
5.0
  1
70
100
AcDbText
  0
TEXT
  5
7110
330
1E
100
AcDbEntity
  8
図枠
 62
     7
100
AcDbText
 10
1794.759470993259
 20
502.5612494069963
 30
0.0
 40
5.0
  1
67
100
AcDbText
  0
TEXT
  5
7111
330
1E
100
AcDbEntity
  8
図枠
 62
     7
100
AcDbText
 10
1794.759470993259
 20
511.5612494069963
 30
0.0
 40
5.0
  1
66
100
AcDbText
  0
TEXT
  5
7112
330
1E
100
AcDbEntity
  8
図枠
 62
     7
100
AcDbText
 10
1763.009470993259
 20
529.5612494069962
 30
0.0
 40
5.0
  1
250
100
AcDbText
  0
TEXT
  5
7113
330
1E
100
AcDbEntity
  8
図枠
 62
     7
100
AcDbText
 10
1763.009470993259
 20
538.5612494069964
 30
0.0
 40
5.0
  1
225
100
AcDbText
  0
TEXT
  5
7114
330
1E
100
AcDbEntity
  8
図枠
 62
     7
100
AcDbText
 10
1763.009470993259
 20
547.5612494069964
 30
0.0
 40
5.0
  1
200
100
AcDbText
  0
TEXT
  5
7115
330
1E
100
AcDbEntity
  8
図枠
 62
     7
100
AcDbText
 10
1763.009470993259
 20
556.5612494069965
 30
0.0
 40
5.0
  1
175
100
AcDbText
  0
TEXT
  5
7116
330
1E
100
AcDbEntity
  8
図枠
 62
     7
100
AcDbText
 10
1794.759470993259
 20
529.5612494069962
 30
0.0
 40
5.0
  1
63
100
AcDbText
  0
TEXT
  5
7117
330
1E
100
AcDbEntity
  8
図枠
 62
     7
100
AcDbText
 10
1794.759470993259
 20
538.5612494069964
 30
0.0
 40
5.0
  1
62
100
AcDbText
  0
TEXT
  5
7118
330
1E
100
AcDbEntity
  8
図枠
 62
     7
100
AcDbText
 10
1794.759470993259
 20
547.5612494069964
 30
0.0
 40
5.0
  1
61
100
AcDbText
  0
TEXT
  5
7119
330
1E
100
AcDbEntity
  8
図枠
 62
     7
100
AcDbText
 10
1794.759470993259
 20
556.5612494069965
 30
0.0
 40
5.0
  1
59
100
AcDbText
  0
TEXT
  5
711A
330
1E
100
AcDbEntity
  8
図枠
 62
     7
100
AcDbText
 10
1733.009470993259
 20
574.5612494069964
 30
0.0
 40
5.0
  1
235
100
AcDbText
  0
TEXT
  5
711B
330
1E
100
AcDbEntity
  8
図枠
 62
     7
100
AcDbText
 10
1703.009470993259
 20
574.5612494069964
 30
0.0
 40
5.0
  1
250
100
AcDbText
  0
TEXT
  5
711C
330
1E
100
AcDbEntity
  8
図枠
 62
     7
100
AcDbText
 10
1703.009470993259
 20
583.5612494069962
 30
0.0
 40
5.0
  1
225
100
AcDbText
  0
TEXT
  5
711D
330
1E
100
AcDbEntity
  8
図枠
 62
     7
100
AcDbText
 10
1705.00947099326
 20
592.5612494069964
 30
0.0
 40
5.0
  1
Ｗ
100
AcDbText
  0
TEXT
  5
711E
330
1E
100
AcDbEntity
  8
図枠
 62
     7
100
AcDbText
 10
1733.009470993259
 20
583.5612494069962
 30
0.0
 40
5.0
  1
210
100
AcDbText
  0
TEXT
  5
711F
330
1E
100
AcDbEntity
  8
図枠
 62
     7
100
AcDbText
 10
1735.009470993259
 20
592.5612494069964
 30
0.0
 40
5.0
  1
Ａ
100
AcDbText
  0
TEXT
  5
7120
330
1E
100
AcDbEntity
  8
図枠
 62
     7
100
AcDbText
 10
1763.009470993259
 20
574.5612494069964
 30
0.0
 40
5.0
  1
125
100
AcDbText
  0
TEXT
  5
7121
330
1E
100
AcDbEntity
  8
図枠
 62
     7
100
AcDbText
 10
1763.009470993259
 20
583.5612494069962
 30
0.0
 40
5.0
  1
100
100
AcDbText
  0
TEXT
  5
7122
330
1E
100
AcDbEntity
  8
図枠
 62
     7
100
AcDbText
 10
1765.009470993259
 20
592.5612494069964
 30
0.0
 40
5.0
  1
Ｃ
100
AcDbText
  0
TEXT
  5
7123
330
1E
100
AcDbEntity
  8
図枠
 62
     7
100
AcDbText
 10
1794.759470993259
 20
574.5612494069964
 30
0.0
 40
5.0
  1
57
100
AcDbText
  0
TEXT
  5
7124
330
1E
100
AcDbEntity
  8
図枠
 62
     7
100
AcDbText
 10
1794.759470993259
 20
583.5612494069962
 30
0.0
 40
5.0
  1
55
100
AcDbText
  0
TEXT
  5
7125
330
1E
100
AcDbEntity
  8
図枠
 62
     7
100
AcDbText
 10
1795.009470993259
 20
592.5612494069964
 30
0.0
 40
5.0
  1
Ｄ
100
AcDbText
  0
LINE
  5
7126
330
1E
100
AcDbEntity
  8
図枠
  6
Continuous
 62
     7
100
AcDbLine
 10
1813.009470993259
 20
600.0612494069964
 30
0.0
 11
1813.009470993259
 21
483.0612494069963
 31
0.0
  0
LINE
  5
7127
330
1E
100
AcDbEntity
  8
図枠
  6
Continuous
 62
     7
100
AcDbLine
 10
1843.00947099326
 20
600.0612494069964
 30
0.0
 11
1843.00947099326
 21
483.0612494069963
 31
0.0
  0
TEXT
  5
7128
330
1E
100
AcDbEntity
  8
図枠
 62
     7
100
AcDbText
 10
1823.00947099326
 20
565.5612494069965
 30
0.0
 40
5.0
  1
117
100
AcDbText
  0
TEXT
  5
7129
330
1E
100
AcDbEntity
  8
図枠
 62
     7
100
AcDbText
 10
1823.00947099326
 20
520.5612494069962
 30
0.0
 40
5.0
  1
123
100
AcDbText
  0
TEXT
  5
712A
330
1E
100
AcDbEntity
  8
図枠
 62
     7
100
AcDbText
 10
1823.00947099326
 20
493.5612494069964
 30
0.0
 40
5.0
  1
127
100
AcDbText
  0
TEXT
  5
712B
330
1E
100
AcDbEntity
  8
図枠
 62
     7
100
AcDbText
 10
1823.00947099326
 20
484.5612494069962
 30
0.0
 40
5.0
  1
128
100
AcDbText
  0
TEXT
  5
712C
330
1E
100
AcDbEntity
  8
図枠
 62
     7
100
AcDbText
 10
1823.00947099326
 20
502.5612494069963
 30
0.0
 40
5.0
  1
126
100
AcDbText
  0
TEXT
  5
712D
330
1E
100
AcDbEntity
  8
図枠
 62
     7
100
AcDbText
 10
1823.00947099326
 20
511.5612494069963
 30
0.0
 40
5.0
  1
124
100
AcDbText
  0
TEXT
  5
712E
330
1E
100
AcDbEntity
  8
図枠
 62
     7
100
AcDbText
 10
1823.00947099326
 20
529.5612494069962
 30
0.0
 40
5.0
  1
122
100
AcDbText
  0
TEXT
  5
712F
330
1E
100
AcDbEntity
  8
図枠
 62
     7
100
AcDbText
 10
1823.00947099326
 20
538.5612494069964
 30
0.0
 40
5.0
  1
121
100
AcDbText
  0
TEXT
  5
7130
330
1E
100
AcDbEntity
  8
図枠
 62
     7
100
AcDbText
 10
1823.00947099326
 20
547.5612494069964
 30
0.0
 40
5.0
  1
119
100
AcDbText
  0
TEXT
  5
7131
330
1E
100
AcDbEntity
  8
図枠
 62
     7
100
AcDbText
 10
1823.00947099326
 20
556.5612494069965
 30
0.0
 40
5.0
  1
118
100
AcDbText
  0
TEXT
  5
7132
330
1E
100
AcDbEntity
  8
図枠
 62
     7
100
AcDbText
 10
1823.00947099326
 20
574.5612494069964
 30
0.0
 40
5.0
  1
115
100
AcDbText
  0
TEXT
  5
7133
330
1E
100
AcDbEntity
  8
図枠
 62
     7
100
AcDbText
 10
1823.00947099326
 20
583.5612494069962
 30
0.0
 40
5.0
  1
114
100
AcDbText
  0
TEXT
  5
7134
330
1E
100
AcDbEntity
  8
図枠
 62
     7
100
AcDbText
 10
1825.00947099326
 20
592.5612494069964
 30
0.0
 40
5.0
  1
Ｅ
100
AcDbText
  0
LINE
  5
7139
330
1E
100
AcDbEntity
  8
図枠
  6
Continuous
 62
     4
100
AcDbLine
 10
1642.678387989491
 20
718.3127461377562
 30
0.0
 11
1667.646401805848
 21
761.5586146317671
 31
0.0
  0
LINE
  5
713A
330
1E
100
AcDbEntity
  8
図枠
  6
Continuous
 62
     4
100
AcDbLine
 10
1577.031162577438
 20
748.812586392952
 30
0.0
 11
1601.844216832888
 21
791.7900570543545
 31
0.0
  0
LINE
  5
713B
330
1E
100
AcDbEntity
  8
躯体と製品
  6
CENTER1
 62
     4
100
AcDbLine
 10
1559.509470993259
 20
759.9847638348828
 30
0.0
 11
1559.509470993259
 21
671.0612494069962
 31
0.0
  0
LINE
  5
713C
330
1E
100
AcDbEntity
  8
躯体と製品
  6
CENTER1
 62
     4
100
AcDbLine
 10
1561.234110854997
 20
787.8928527737977
 30
0.0
 11
1558.881439518344
 21
743.001209417828
 31
0.0
  0
LINE
  5
713D
330
1E
100
AcDbEntity
  8
躯体と製品
  6
Continuous
 62
     3
100
AcDbLine
 10
1641.917537641615
 20
747.6414035503901
 30
0.0
 11
1641.917537641615
 21
754.1914035503898
 31
0.0
  0
LINE
  5
713E
330
1E
100
AcDbEntity
  8
躯体と製品
  6
Continuous
 62
     3
100
AcDbLine
 10
1643.417537641615
 20
754.1914035503898
 30
0.0
 11
1643.417537641615
 21
709.9414035503898
 31
0.0
  0
LINE
  5
713F
330
1E
100
AcDbEntity
  8
躯体と製品
  6
Continuous
 62
     3
100
AcDbLine
 10
1640.248727167157
 20
754.6641942238802
 30
0.0
 11
1639.665534624239
 21
752.138109794162
 31
0.0
  0
LINE
  5
7140
330
1E
100
AcDbEntity
  8
躯体と製品
  6
Continuous
 62
     3
100
AcDbLine
 10
1641.54298538273
 20
754.9357486806218
 30
0.0
 11
1640.834778701981
 21
751.8681685289494
 31
0.0
  0
LINE
  5
7141
330
1E
100
AcDbEntity
  8
躯体と製品
  6
Continuous
 62
     3
100
AcDbLine
 10
1643.954155265596
 20
754.3154322688569
 30
0.0
 11
1653.789162863714
 21
708.0453593957988
 31
0.0
  0
LINE
  5
7142
330
1E
100
AcDbEntity
  8
躯体と製品
  6
Continuous
 62
     3
100
AcDbLine
 10
1646.729061816316
 20
755.68972639358
 30
0.0
 11
1658.68501191957
 21
699.4414035503897
 31
0.0
  0
LINE
  5
7143
330
1E
100
AcDbEntity
  8
躯体と製品
  6
Continuous
 62
     3
100
AcDbLine
 10
1658.50947099326
 20
696.4414035503899
 30
0.0
 11
1658.50947099326
 21
780.5945098502452
 31
0.0
  0
LINE
  5
7144
330
1E
100
AcDbEntity
  8
躯体と製品
  6
Continuous
 62
     3
100
AcDbLine
 10
1660.509470993259
 20
780.5945098502452
 30
0.0
 11
1660.509470993259
 21
696.4414035503899
 31
0.0
  0
LINE
  5
7145
330
1E
100
AcDbEntity
  8
躯体と製品
  6
DASHED1
 62
     7
100
AcDbLine
 10
1640.125933354056
 20
775.6787691097558
 30
0.0
 11
1654.079546903471
 21
697.5385332330293
 31
0.0
  0
LINE
  5
7146
330
1E
100
AcDbEntity
  8
躯体と製品
  6
DASHED1
 62
     7
100
AcDbLine
 10
1644.555857443844
 20
776.469826982932
 30
0.0
 11
1658.50947099326
 21
698.3295911062057
 31
0.0
  0
LINE
  5
7147
330
1E
100
AcDbEntity
  8
躯体と製品
  6
Continuous
 62
     3
100
AcDbLine
 10
1578.009470993259
 20
740.0612494069965
 30
0.0
 11
1578.009470993259
 21
755.0612494069964
 31
0.0
  0
LINE
  5
7148
330
1E
100
AcDbEntity
  8
躯体と製品
  6
Continuous
 62
     3
100
AcDbLine
 10
1576.009470993259
 20
747.5612494069964
 30
0.0
 11
1576.009470993259
 21
755.0612494069964
 31
0.0
  0
LINE
  5
7149
330
1E
100
AcDbEntity
  8
躯体と製品
  6
Continuous
 62
     3
100
AcDbLine
 10
1548.509470993259
 20
753.3483111439064
 30
0.0
 11
1548.509470993259
 21
746.0612494069964
 31
0.0
  0
LINE
  5
714A
330
1E
100
AcDbEntity
  8
躯体と製品
  6
Continuous
 62
     3
100
AcDbLine
 10
1550.109470993259
 20
753.3483111439064
 30
0.0
 11
1550.109470993259
 21
746.0612494069964
 31
0.0
  0
ARC
  5
714B
330
1E
100
AcDbEntity
  8
躯体と製品
  6
Continuous
 62
     3
100
AcDbCircle
 10
1568.409470993259
 20
752.4154526726682
 30
0.0
 40
0.5
100
AcDbArc
 50
0.0
 51
86.99999999999441
  0
ARC
  5
714C
330
1E
100
AcDbEntity
  8
躯体と製品
  6
Continuous
 62
     3
100
AcDbCircle
 10
1568.409470993259
 20
752.4154526726682
 30
0.0
 40
2.1
100
AcDbArc
 50
0.0
 51
86.99999999999441
  0
ARC
  5
714D
330
1E
100
AcDbEntity
  8
躯体と製品
  6
Continuous
 62
     3
100
AcDbCircle
 10
1553.781072112402
 20
752.6814083994813
 30
0.0
 40
1.0
100
AcDbArc
 50
357.0000000000011
 51
86.99999999999441
  0
ARC
  5
714E
330
1E
100
AcDbEntity
  8
躯体と製品
  6
Continuous
 62
     3
100
AcDbCircle
 10
1564.965722901653
 20
752.0952456895603
 30
0.0
 40
1.0
100
AcDbArc
 50
86.99999999999441
 51
177.0000000000011
  0
LINE
  5
714F
330
1E
100
AcDbEntity
  8
躯体と製品
  6
DASHED1
 62
     7
100
AcDbLine
 10
1562.505359597523
 20
754.8277559661539
 30
0.0
 11
1562.316950155049
 21
751.2326896410377
 31
0.0
  0
LINE
  5
7150
330
1E
100
AcDbEntity
  8
躯体と製品
  6
DASHED1
 62
     7
100
AcDbLine
 10
1556.513582388995
 20
755.1417717036117
 30
0.0
 11
1556.325172946521
 21
751.5467053784952
 31
0.0
  0
ARC
  5
7151
330
1E
100
AcDbEntity
  8
躯体と製品
  6
Continuous
 62
     7
100
AcDbCircle
 10
1623.098303212675
 20
705.5193513821782
 30
0.0
 40
10.0779478317885
100
AcDbArc
 50
184.9999999999994
 51
355.0000000000006
  0
LINE
  5
7152
330
1E
100
AcDbEntity
  8
躯体と製品
  6
Continuous
 62
     7
100
AcDbLine
 10
1611.473300615544
 20
734.2359688060309
 30
0.0
 11
1614.054899713094
 21
704.7281560962744
 31
0.0
  0
CIRCLE
  5
7153
330
1E
100
AcDbEntity
  8
図枠
  6
Continuous
 62
     4
100
AcDbCircle
 10
1583.269267486811
 20
709.5212627785256
 30
0.0
 40
6.0
  0
LINE
  5
7154
330
1E
100
AcDbEntity
  8
躯体と製品
  6
Continuous
 62
     7
100
AcDbLine
 10
1610.477105917452
 20
734.1488130632833
 30
0.0
 11
1613.058705015002
 21
704.6410003535267
 31
0.0
  0
LINE
  5
7155
330
1E
100
AcDbEntity
  8
躯体と製品
  6
DASHED1
 62
     7
100
AcDbLine
 10
1566.134500993259
 20
697.7992534069962
 30
0.0
 11
1564.259470993259
 21
708.4330754069964
 31
0.0
  0
LINE
  5
7156
330
1E
100
AcDbEntity
  8
躯体と製品
  6
DASHED1
 62
     7
100
AcDbLine
 10
1560.009470993259
 20
708.0612494069964
 30
0.0
 11
1561.949067993259
 21
697.0612494069964
 31
0.0
  0
LINE
  5
7157
330
1E
100
AcDbEntity
  8
躯体と製品
  6
DASHED1
 62
     7
100
AcDbLine
 10
1559.009470993259
 20
708.0612494069964
 30
0.0
 11
1557.069873993259
 21
697.0612494069964
 31
0.0
  0
LINE
  5
7158
330
1E
100
AcDbEntity
  8
躯体と製品
  6
DASHED1
 62
     7
100
AcDbLine
 10
1552.884440993259
 20
697.7992534069962
 30
0.0
 11
1554.759470993259
 21
708.4330754069964
 31
0.0
  0
LINE
  5
715C
330
1E
100
AcDbEntity
  8
躯体と製品
  6
DASHED1
 62
     7
100
AcDbLine
 10
1566.134500993259
 20
697.7992534069962
 30
0.0
 11
1561.949067993259
 21
697.0612494069964
 31
0.0
  0
LINE
  5
715D
330
1E
100
AcDbEntity
  8
躯体と製品
  6
DASHED1
 62
     7
100
AcDbLine
 10
1552.884440993259
 20
697.7992534069962
 30
0.0
 11
1557.069873993259
 21
697.0612494069964
 31
0.0
  0
LINE
  5
715E
330
1E
100
AcDbEntity
  8
躯体と製品
  6
DASHED1
 62
     7
100
AcDbLine
 10
1563.009470993259
 20
695.5612494069964
 30
0.0
 11
1556.009470993259
 21
695.5612494069964
 31
0.0
  0
ARC
  5
715F
330
1E
100
AcDbEntity
  8
躯体と製品
  6
DASHED1
 62
     7
100
AcDbCircle
 10
1556.009470993259
 20
696.5612494069964
 30
0.0
 40
1.0
100
AcDbArc
 50
180.0
 51
270.0
  0
LINE
  5
7160
330
1E
100
AcDbEntity
  8
躯体と製品
  6
DASHED1
 62
     7
100
AcDbLine
 10
1555.009470993259
 20
696.5612494069964
 30
0.0
 11
1555.009470993259
 21
697.4245534069962
 31
0.0
  0
LINE
  5
7161
330
1E
100
AcDbEntity
  8
躯体と製品
  6
DASHED1
 62
     7
100
AcDbLine
 10
1564.009470993259
 20
696.5612494069964
 30
0.0
 11
1564.009470993259
 21
697.4245534069962
 31
0.0
  0
ARC
  5
7162
330
1E
100
AcDbEntity
  8
躯体と製品
  6
DASHED1
 62
     7
100
AcDbCircle
 10
1563.009470993259
 20
696.5612494069964
 30
0.0
 40
1.0
100
AcDbArc
 50
270.0
 51
0.0
  0
TEXT
  5
7166
330
1E
100
AcDbEntity
  8
図枠
 62
     7
100
AcDbText
 10
1580.019267486811
 20
706.5212627785257
 30
0.0
 40
5.0
  1
16
100
AcDbText
  0
LINE
  5
7167
330
1E
100
AcDbEntity
  8
図枠
  6
Continuous
 62
     4
100
AcDbLine
 10
1569.686953721403
 20
750.5498643186168
 30
0.0
 11
1581.468639853172
 21
730.1433853395643
 31
0.0
  0
CIRCLE
  5
7168
330
1E
100
AcDbEntity
  8
図枠
  6
Continuous
 62
     4
100
AcDbCircle
 10
1584.468639853171
 20
724.9472329168577
 30
0.0
 40
6.0
  0
LINE
  5
7169
330
1E
100
AcDbEntity
  8
躯体と製品
  6
Continuous
 62
     7
100
AcDbLine
 10
1609.521302898747
 20
736.0612494069965
 30
0.0
 11
1580.509470993259
 21
736.0612494069965
 31
0.0
  0
LINE
  5
716A
330
1E
100
AcDbEntity
  8
躯体と製品
  6
Continuous
 62
     3
100
AcDbLine
 10
1582.48193489447
 20
739.5612494069965
 30
0.0
 11
1578.509470993259
 21
739.5612494069965
 31
0.0
  0
LINE
  5
716B
330
1E
100
AcDbEntity
  8
躯体と製品
  6
Continuous
 62
     3
100
AcDbLine
 10
1578.009470993259
 20
738.0612494069964
 30
0.0
 11
1588.509470993259
 21
738.0612494069964
 31
0.0
  0
LINE
  5
716C
330
1E
100
AcDbEntity
  8
図枠
  6
Continuous
 62
     4
100
AcDbLine
 10
1563.846881821955
 20
743.1618215542546
 30
0.0
 11
1580.269267486811
 21
714.7174152012322
 31
0.0
  0
LINE
  5
716D
330
1E
100
AcDbEntity
  8
躯体と製品
  6
DASHED1
 62
     7
100
AcDbLine
 10
1563.559470993259
 20
737.0612494069964
 30
0.0
 11
1563.559470993259
 21
727.7612494069963
 31
0.0
  0
LINE
  5
716E
330
1E
100
AcDbEntity
  8
躯体と製品
  6
DASHED1
 62
     7
100
AcDbLine
 10
1555.459470993259
 20
737.0612494069964
 30
0.0
 11
1555.459470993259
 21
727.7612494069963
 31
0.0
  0
LINE
  5
716F
330
1E
100
AcDbEntity
  8
躯体と製品
  6
DASHED1
 62
     7
100
AcDbLine
 10
1564.259470993259
 20
708.4330754069964
 30
0.0
 11
1564.259470993259
 21
727.0612494069965
 31
0.0
  0
LINE
  5
7170
330
1E
100
AcDbEntity
  8
躯体と製品
  6
DASHED1
 62
     7
100
AcDbLine
 10
1554.759470993259
 20
708.4330754069964
 30
0.0
 11
1554.759470993259
 21
727.0612494069965
 31
0.0
  0
CIRCLE
  5
7171
330
1E
100
AcDbEntity
  8
図枠
  6
Continuous
 62
     4
100
AcDbCircle
 10
1557.383460017257
 20
709.9785880088497
 30
0.0
 40
0.9
  0
LINE
  5
7172
330
1E
100
AcDbEntity
  8
躯体と製品
  6
DASHED1
 62
     7
100
AcDbLine
 10
1559.009470993259
 20
708.0612494069964
 30
0.0
 11
1560.009470993259
 21
708.0612494069964
 31
0.0
  0
LINE
  5
7173
330
1E
100
AcDbEntity
  8
躯体と製品
  6
DASHED1
 62
     7
100
AcDbLine
 10
1555.459470993259
 20
727.7612494069963
 30
0.0
 11
1563.559470993259
 21
727.7612494069963
 31
0.0
  0
LINE
  5
7174
330
1E
100
AcDbEntity
  8
躯体と製品
  6
DASHED1
 62
     7
100
AcDbLine
 10
1554.759470993259
 20
727.0612494069965
 30
0.0
 11
1564.259470993259
 21
727.0612494069965
 31
0.0
  0
LINE
  5
7175
330
1E
100
AcDbEntity
  8
躯体と製品
  6
DASHED1
 62
     7
100
AcDbLine
 10
1554.759470993259
 20
727.0612494069965
 30
0.0
 11
1555.459470993259
 21
727.7612494069963
 31
0.0
  0
LINE
  5
7176
330
1E
100
AcDbEntity
  8
躯体と製品
  6
DASHED1
 62
     7
100
AcDbLine
 10
1564.259470993259
 20
727.0612494069965
 30
0.0
 11
1563.559470993259
 21
727.7612494069963
 31
0.0
  0
CIRCLE
  5
7177
330
1E
100
AcDbEntity
  8
図枠
  6
Continuous
 62
     4
100
AcDbCircle
 10
1563.846881821955
 20
743.1618215542546
 30
0.0
 40
0.9
  0
LINE
  5
7178
330
1E
100
AcDbEntity
  8
躯体と製品
  6
Continuous
 62
     7
100
AcDbLine
 10
1564.409470993259
 20
746.0612494069964
 30
0.0
 11
1565.282973685156
 21
745.5569323926921
 31
0.0
  0
ARC
  5
7179
330
1E
100
AcDbEntity
  8
躯体と製品
  6
Continuous
 62
     7
100
AcDbCircle
 10
1563.839598012181
 20
743.4476916316481
 30
0.0
 40
2.555822748428199
100
AcDbArc
 50
55.61575253203897
 51
124.384247467961
  0
LINE
  5
717A
330
1E
100
AcDbEntity
  8
躯体と製品
  6
Continuous
 62
     7
100
AcDbLine
 10
1550.509470993259
 20
741.0612494069964
 30
0.0
 11
1568.509470993259
 21
741.0612494069964
 31
0.0
  0
LINE
  5
717B
330
1E
100
AcDbEntity
  8
躯体と製品
  6
Continuous
 62
     3
100
AcDbLine
 10
1554.509470993259
 20
737.0612494069964
 30
0.0
 11
1564.509470993259
 21
737.0612494069964
 31
0.0
  0
LINE
  5
717C
330
1E
100
AcDbEntity
  8
躯体と製品
  6
Continuous
 62
     3
100
AcDbLine
 10
1560.009470993259
 20
739.5612494069965
 30
0.0
 11
1575.709470993259
 21
739.5612494069965
 31
0.0
  0
LINE
  5
717D
330
1E
100
AcDbEntity
  8
躯体と製品
  6
Continuous
 62
     7
100
AcDbLine
 10
1562.396222339208
 20
745.5569323926921
 30
0.0
 11
1562.396222339208
 21
741.0612494069964
 31
0.0
  0
LINE
  5
717E
330
1E
100
AcDbEntity
  8
躯体と製品
  6
Continuous
 62
     7
100
AcDbLine
 10
1556.622719647311
 20
745.5569323926921
 30
0.0
 11
1556.622719647311
 21
741.0612494069964
 31
0.0
  0
LINE
  5
717F
330
1E
100
AcDbEntity
  8
躯体と製品
  6
Continuous
 62
     7
100
AcDbLine
 10
1553.735968301363
 20
745.5569323926921
 30
0.0
 11
1553.735968301363
 21
741.0612494069964
 31
0.0
  0
LINE
  5
7180
330
1E
100
AcDbEntity
  8
躯体と製品
  6
Continuous
 62
     4
100
AcDbLine
 10
1555.968379581287
 20
735.0612494069969
 30
0.0
 11
1556.968379581286
 21
736.0612494069966
 31
0.0
  0
CIRCLE
  5
7181
330
1E
100
AcDbEntity
  8
図枠
  6
Continuous
 62
     4
100
AcDbCircle
 10
1552.387719240238
 20
740.2974063395738
 30
0.0
 40
0.9
  0
LINE
  5
7182
330
1E
100
AcDbEntity
  8
躯体と製品
  6
Continuous
 62
     7
100
AcDbLine
 10
1550.509470993259
 20
741.0612494069964
 30
0.0
 11
1550.509470993259
 21
739.5612494069965
 31
0.0
  0
LINE
  5
7183
330
1E
100
AcDbEntity
  8
躯体と製品
  6
Continuous
 62
     3
100
AcDbLine
 10
1554.509470993259
 20
737.5612494069964
 30
0.0
 11
1554.509470993259
 21
737.0612494069964
 31
0.0
  0
LINE
  5
7184
330
1E
100
AcDbEntity
  8
躯体と製品
  6
Continuous
 62
     4
100
AcDbLine
 10
1548.897311769422
 20
735.0612494069964
 30
0.0
 11
1549.897311769422
 21
736.0612494069966
 31
0.0
  0
LINE
  5
7185
330
1E
100
AcDbEntity
  8
躯体と製品
  6
Continuous
 62
     4
100
AcDbLine
 10
1550.311525331795
 20
735.0612494069964
 30
0.0
 11
1551.311525331795
 21
736.0612494069966
 31
0.0
  0
LINE
  5
7186
330
1E
100
AcDbEntity
  8
躯体と製品
  6
Continuous
 62
     4
100
AcDbLine
 10
1551.725738894166
 20
735.0612494069967
 30
0.0
 11
1552.725738894167
 21
736.0612494069969
 31
0.0
  0
LINE
  5
7187
330
1E
100
AcDbEntity
  8
躯体と製品
  6
Continuous
 62
     4
100
AcDbLine
 10
1553.139952456541
 20
735.0612494069972
 30
0.0
 11
1554.13995245654
 21
736.0612494069969
 31
0.0
  0
LINE
  5
7188
330
1E
100
AcDbEntity
  8
躯体と製品
  6
Continuous
 62
     4
100
AcDbLine
 10
1554.554166018914
 20
735.061249406997
 30
0.0
 11
1555.554166018914
 21
736.0612494069969
 31
0.0
  0
LINE
  5
7189
330
1E
100
AcDbEntity
  8
躯体と製品
  6
Continuous
 62
     3
100
AcDbLine
 10
1559.509470993259
 20
739.0612494069964
 30
0.0
 11
1560.009470993259
 21
739.5612494069965
 31
0.0
  0
LINE
  5
718A
330
1E
100
AcDbEntity
  8
躯体と製品
  6
Continuous
 62
     3
100
AcDbLine
 10
1559.509470993259
 20
739.0612494069964
 30
0.0
 11
1559.009470993259
 21
739.5612494069965
 31
0.0
  0
LINE
  5
718B
330
1E
100
AcDbEntity
  8
躯体と製品
  6
Continuous
 62
     7
100
AcDbLine
 10
1559.509470993259
 20
737.0612494069964
 30
0.0
 11
1559.509470993259
 21
736.0612494069965
 31
0.0
  0
LINE
  5
718C
330
1E
100
AcDbEntity
  8
躯体と製品
  6
Continuous
 62
     4
100
AcDbLine
 10
1557.38259314366
 20
735.0612494069969
 30
0.0
 11
1558.38259314366
 21
736.0612494069966
 31
0.0
  0
LINE
  5
718D
330
1E
100
AcDbEntity
  8
躯体と製品
  6
Continuous
 62
     4
100
AcDbLine
 10
1558.796806706033
 20
735.0612494069967
 30
0.0
 11
1559.796806706033
 21
736.0612494069965
 31
0.0
  0
LINE
  5
718E
330
1E
100
AcDbEntity
  8
躯体と製品
  6
Continuous
 62
     4
100
AcDbLine
 10
1560.211020268407
 20
735.0612494069969
 30
0.0
 11
1561.211020268407
 21
736.0612494069973
 31
0.0
  0
LINE
  5
718F
330
1E
100
AcDbEntity
  8
躯体と製品
  6
Continuous
 62
     4
100
AcDbLine
 10
1561.62523383078
 20
735.0612494069967
 30
0.0
 11
1562.62523383078
 21
736.0612494069969
 31
0.0
  0
LINE
  5
7190
330
1E
100
AcDbEntity
  8
躯体と製品
  6
Continuous
 62
     4
100
AcDbLine
 10
1563.039447393151
 20
735.0612494069964
 30
0.0
 11
1564.039447393151
 21
736.061249406996
 31
0.0
  0
LINE
  5
7191
330
1E
100
AcDbEntity
  8
躯体と製品
  6
Continuous
 62
     7
100
AcDbLine
 10
1556.469432437325
 20
746.0612494069964
 30
0.0
 11
1556.061439501627
 21
746.5143714673449
 31
0.0
  0
LINE
  5
7192
330
1E
100
AcDbEntity
  8
躯体と製品
  6
Continuous
 62
     7
100
AcDbLine
 10
1554.609470993259
 20
746.0612494069964
 30
0.0
 11
1564.409470993259
 21
746.0612494069964
 31
0.0
  0
ARC
  5
7193
330
1E
100
AcDbEntity
  8
躯体と製品
  6
Continuous
 62
     7
100
AcDbCircle
 10
1555.179343974337
 20
743.4476916316481
 30
0.0
 40
2.555822748428199
100
AcDbArc
 50
55.61575253203897
 51
124.384247467961
  0
LINE
  5
7194
330
1E
100
AcDbEntity
  8
躯体と製品
  6
Continuous
 62
     7
100
AcDbLine
 10
1556.325172946521
 20
751.5467053784952
 30
0.0
 11
1556.061439501627
 21
746.5143714673449
 31
0.0
  0
LINE
  5
7195
330
1E
100
AcDbEntity
  8
躯体と製品
  6
Continuous
 62
     4
100
AcDbLine
 10
1562.053216710154
 20
746.2003557298873
 30
0.0
 11
1556.061439501627
 21
746.5143714673449
 31
0.0
  0
LINE
  5
7196
330
1E
100
AcDbEntity
  8
躯体と製品
  6
Continuous
 62
     3
100
AcDbLine
 10
1563.914757410655
 20
751.1489521110489
 30
0.0
 11
1554.727365690914
 21
751.6304429084841
 31
0.0
  0
LINE
  5
7197
330
1E
100
AcDbEntity
  8
躯体と製品
  6
Continuous
 62
     7
100
AcDbLine
 10
1554.609470993259
 20
746.0612494069964
 30
0.0
 11
1553.735968301363
 21
745.5569323926921
 31
0.0
  0
ARC
  5
7198
330
1E
100
AcDbEntity
  8
躯体と製品
  6
Continuous
 62
     3
100
AcDbCircle
 10
1548.009470993259
 20
746.0612494069964
 30
0.0
 40
2.1
100
AcDbArc
 50
270.0
 51
0.0
  0
ARC
  5
7199
330
1E
100
AcDbEntity
  8
躯体と製品
  6
Continuous
 62
     3
100
AcDbCircle
 10
1548.009470993259
 20
746.0612494069964
 30
0.0
 40
0.5
100
AcDbArc
 50
270.0
 51
0.0
  0
LINE
  5
719A
330
1E
100
AcDbEntity
  8
躯体と製品
  6
Continuous
 62
     3
100
AcDbLine
 10
1554.779701647157
 20
752.6290724432385
 30
0.0
 11
1554.727365690914
 21
751.6304429084841
 31
0.0
  0
LINE
  5
719B
330
1E
100
AcDbEntity
  8
躯体と製品
  6
Continuous
 62
     7
100
AcDbLine
 10
1562.053216710154
 20
746.2003557298873
 30
0.0
 11
1561.89872348706
 21
746.0612494069964
 31
0.0
  0
LINE
  5
719C
330
1E
100
AcDbEntity
  8
躯体と製品
  6
Continuous
 62
     4
100
AcDbLine
 10
1561.74922926454
 20
751.2624426321617
 30
0.0
 11
1561.476646277987
 21
746.0612494069964
 31
0.0
  0
LINE
  5
719D
330
1E
100
AcDbEntity
  8
躯体と製品
  6
Continuous
 62
     4
100
AcDbLine
 10
1556.892893837029
 20
751.5169523873712
 30
0.0
 11
1556.6069725594
 21
746.0612494069964
 31
0.0
  0
ARC
  5
719E
330
1E
100
AcDbEntity
  8
躯体と製品
  6
Continuous
 62
     7
100
AcDbCircle
 10
1559.509470993259
 20
736.4500963674406
 30
0.0
 40
9.553418012635715
100
AcDbArc
 50
72.41204622604974
 51
107.5879537739502
  0
LINE
  5
719F
330
1E
100
AcDbEntity
  8
躯体と製品
  6
Continuous
 62
     7
100
AcDbLine
 10
1562.316950155048
 20
751.2326896410377
 30
0.0
 11
1562.053216710154
 21
746.2003557298873
 31
0.0
  0
LINE
  5
71A0
330
1E
100
AcDbEntity
  8
躯体と製品
  6
Continuous
 62
     3
100
AcDbLine
 10
1563.967093366899
 20
752.1475816458035
 30
0.0
 11
1563.914757410655
 21
751.1489521110489
 31
0.0
  0
LINE
  5
71A1
330
1E
100
AcDbEntity
  8
躯体と製品
  6
Continuous
 62
     7
100
AcDbLine
 10
1565.282973685156
 20
745.5569323926921
 30
0.0
 11
1565.282973685156
 21
741.0612494069964
 31
0.0
  0
ARC
  5
71A2
330
1E
100
AcDbEntity
  8
躯体と製品
  6
Continuous
 62
     3
100
AcDbCircle
 10
1575.709470993259
 20
741.2612494069962
 30
0.0
 40
0.2999999999999998
100
AcDbArc
 50
0.0
 51
90.0
  0
LINE
  5
71A3
330
1E
100
AcDbEntity
  8
躯体と製品
  6
Continuous
 62
     3
100
AcDbLine
 10
1564.509470993259
 20
737.5612494069964
 30
0.0
 11
1576.009470993259
 21
737.5612494069964
 31
0.0
  0
LINE
  5
71A4
330
1E
100
AcDbEntity
  8
躯体と製品
  6
Continuous
 62
     7
100
AcDbLine
 10
1568.509470993259
 20
741.0612494069964
 30
0.0
 11
1568.509470993259
 21
739.5612494069965
 31
0.0
  0
LINE
  5
71A5
330
1E
100
AcDbEntity
  8
躯体と製品
  6
Continuous
 62
     3
100
AcDbLine
 10
1564.509470993259
 20
737.0612494069964
 30
0.0
 11
1564.509470993259
 21
737.5612494069964
 31
0.0
  0
LINE
  5
71A6
330
1E
100
AcDbEntity
  8
躯体と製品
  6
Continuous
 62
     4
100
AcDbLine
 10
1564.453660955525
 20
735.0612494069967
 30
0.0
 11
1565.453660955524
 21
736.0612494069965
 31
0.0
  0
LINE
  5
71A7
330
1E
100
AcDbEntity
  8
躯体と製品
  6
Continuous
 62
     4
100
AcDbLine
 10
1565.867874517898
 20
735.0612494069967
 30
0.0
 11
1566.867874517898
 21
736.0612494069965
 31
0.0
  0
LINE
  5
71A8
330
1E
100
AcDbEntity
  8
躯体と製品
  6
Continuous
 62
     4
100
AcDbLine
 10
1567.282088080272
 20
735.0612494069964
 30
0.0
 11
1568.282088080271
 21
736.061249406996
 31
0.0
  0
LINE
  5
71A9
330
1E
100
AcDbEntity
  8
躯体と製品
  6
Continuous
 62
     4
100
AcDbLine
 10
1568.696301642644
 20
735.0612494069964
 30
0.0
 11
1569.696301642645
 21
736.0612494069966
 31
0.0
  0
LINE
  5
71AA
330
1E
100
AcDbEntity
  8
躯体と製品
  6
Continuous
 62
     4
100
AcDbLine
 10
1570.110515205018
 20
735.0612494069964
 30
0.0
 11
1571.110515205018
 21
736.0612494069966
 31
0.0
  0
LINE
  5
71AB
330
1E
100
AcDbEntity
  8
躯体と製品
  6
Continuous
 62
     4
100
AcDbLine
 10
1571.524728767391
 20
735.0612494069959
 30
0.0
 11
1572.524728767391
 21
736.0612494069965
 31
0.0
  0
ARC
  5
71AC
330
1E
100
AcDbEntity
  8
躯体と製品
  6
Continuous
 62
     7
100
AcDbCircle
 10
1574.509470993259
 20
727.8112494069964
 30
0.0
 40
9.25
100
AcDbArc
 50
71.07535558394559
 51
90.0
  0
ARC
  5
71AD
330
1E
100
AcDbEntity
  8
躯体と製品
  6
Continuous
 62
     7
100
AcDbCircle
 10
1580.509470993259
 20
745.3112494069964
 30
0.0
 40
10.25
100
AcDbArc
 50
251.0753555839456
 51
270.0
  0
ARC
  5
71AE
330
1E
100
AcDbEntity
  8
躯体と製品
  6
Continuous
 62
     7
100
AcDbCircle
 10
1574.509470993259
 20
727.8112494069964
 30
0.0
 40
8.25
100
AcDbArc
 50
71.07535558394559
 51
90.0
  0
ARC
  5
71AF
330
1E
100
AcDbEntity
  8
躯体と製品
  6
Continuous
 62
     7
100
AcDbCircle
 10
1580.509470993259
 20
745.3112494069964
 30
0.0
 40
9.25
100
AcDbArc
 50
251.0753555839456
 51
270.0
  0
LINE
  5
71B0
330
1E
100
AcDbEntity
  8
躯体と製品
  6
Continuous
 62
     3
100
AcDbLine
 10
1574.509470993259
 20
735.0612494069964
 30
0.0
 11
1574.509470993259
 21
736.0612494069965
 31
0.0
  0
LINE
  5
71B1
330
1E
100
AcDbEntity
  8
躯体と製品
  6
Continuous
 62
     3
100
AcDbLine
 10
1576.009470993259
 20
737.5612494069964
 30
0.0
 11
1576.009470993259
 21
737.0612494069964
 31
0.0
  0
LINE
  5
71B2
330
1E
100
AcDbEntity
  8
躯体と製品
  6
Continuous
 62
     3
100
AcDbLine
 10
1576.009470993259
 20
737.0612494069964
 30
0.0
 11
1578.009470993259
 21
737.0612494069964
 31
0.0
  0
LINE
  5
71B3
330
1E
100
AcDbEntity
  8
躯体と製品
  6
Continuous
 62
     3
100
AcDbLine
 10
1578.009470993259
 20
737.0612494069964
 30
0.0
 11
1578.009470993259
 21
738.0612494069964
 31
0.0
  0
ARC
  5
71B4
330
1E
100
AcDbEntity
  8
躯体と製品
  6
Continuous
 62
     3
100
AcDbCircle
 10
1578.509470993259
 20
740.0612494069965
 30
0.0
 40
0.5
100
AcDbArc
 50
180.0
 51
270.0
  0
ARC
  5
71B5
330
1E
100
AcDbEntity
  8
躯体と製品
  6
Continuous
 62
     3
100
AcDbCircle
 10
1575.709470993259
 20
739.8612494069964
 30
0.0
 40
0.2999999999999998
100
AcDbArc
 50
270.0
 51
0.0
  0
LINE
  5
71B6
330
1E
100
AcDbEntity
  8
躯体と製品
  6
Continuous
 62
     3
100
AcDbLine
 10
1576.009470993259
 20
741.2612494069962
 30
0.0
 11
1576.009470993259
 21
739.8612494069964
 31
0.0
  0
LINE
  5
71B7
330
1E
100
AcDbEntity
  8
躯体と製品
  6
Continuous
 62
     4
100
AcDbLine
 10
1572.938942329765
 20
735.0612494069959
 30
0.0
 11
1573.938942329765
 21
736.0612494069962
 31
0.0
  0
LINE
  5
71B8
330
1E
100
AcDbEntity
  8
躯体と製品
  6
Continuous
 62
     4
100
AcDbLine
 10
1574.353155892136
 20
735.0612494069969
 30
0.0
 11
1574.509470993259
 21
735.2175645081192
 31
0.0
  0
ARC
  5
71B9
330
1E
100
AcDbEntity
  8
躯体と製品
  6
Continuous
 62
     3
100
AcDbCircle
 10
1572.759470993259
 20
746.3112494069965
 30
0.0
 40
0.75
100
AcDbArc
 50
90.0
 51
270.0
  0
LINE
  5
71BA
330
1E
100
AcDbEntity
  8
躯体と製品
  6
Continuous
 62
     3
100
AcDbLine
 10
1575.509470993259
 20
743.9612494069963
 30
0.0
 11
1571.009470993259
 21
743.9612494069963
 31
0.0
  0
LINE
  5
71BB
330
1E
100
AcDbEntity
  8
躯体と製品
  6
Continuous
 62
     3
100
AcDbLine
 10
1571.009470993259
 20
745.5612494069964
 30
0.0
 11
1575.509470993259
 21
745.5612494069964
 31
0.0
  0
CIRCLE
  5
71BC
330
1E
100
AcDbEntity
  8
図枠
  6
Continuous
 62
     4
100
AcDbCircle
 10
1569.686953721403
 20
750.5498643186168
 30
0.0
 40
0.9
  0
ARC
  5
71BD
330
1E
100
AcDbEntity
  8
躯体と製品
  6
Continuous
 62
     3
100
AcDbCircle
 10
1571.009470993259
 20
746.0612494069964
 30
0.0
 40
2.1
100
AcDbArc
 50
180.0
 51
270.0
  0
ARC
  5
71BE
330
1E
100
AcDbEntity
  8
躯体と製品
  6
Continuous
 62
     3
100
AcDbCircle
 10
1571.009470993259
 20
746.0612494069964
 30
0.0
 40
0.5
100
AcDbArc
 50
180.0
 51
270.0
  0
LINE
  5
71BF
330
1E
100
AcDbEntity
  8
躯体と製品
  6
Continuous
 62
     3
100
AcDbLine
 10
1568.909470993259
 20
752.4154526726682
 30
0.0
 11
1568.909470993259
 21
746.0612494069964
 31
0.0
  0
LINE
  5
71C0
330
1E
100
AcDbEntity
  8
躯体と製品
  6
Continuous
 62
     3
100
AcDbLine
 10
1570.509470993259
 20
752.4154526726682
 30
0.0
 11
1570.509470993259
 21
746.0612494069964
 31
0.0
  0
CIRCLE
  5
71C1
330
1E
100
AcDbEntity
  8
図枠
  6
Continuous
 62
     4
100
AcDbCircle
 10
1577.031162577438
 20
748.812586392952
 30
0.0
 40
0.9
  0
LINE
  5
71C2
330
1E
100
AcDbEntity
  8
躯体と製品
  6
Continuous
 62
     3
100
AcDbLine
 10
1575.509470993259
 20
747.0612494069964
 30
0.0
 11
1572.759470993259
 21
747.0612494069964
 31
0.0
  0
ARC
  5
71C3
330
1E
100
AcDbEntity
  8
躯体と製品
  6
Continuous
 62
     3
100
AcDbCircle
 10
1575.509470993259
 20
747.5612494069964
 30
0.0
 40
0.5
100
AcDbArc
 50
270.0
 51
0.0
  0
ARC
  5
71C4
330
1E
100
AcDbEntity
  8
躯体と製品
  6
Continuous
 62
     3
100
AcDbCircle
 10
1573.759470993259
 20
742.3112494069965
 30
0.0
 40
0.75
100
AcDbArc
 50
90.0
 51
270.0
  0
LINE
  5
71C5
330
1E
100
AcDbEntity
  8
躯体と製品
  6
Continuous
 62
     3
100
AcDbLine
 10
1575.709470993259
 20
741.5612494069964
 30
0.0
 11
1573.759470993259
 21
741.5612494069964
 31
0.0
  0
LINE
  5
71C6
330
1E
100
AcDbEntity
  8
躯体と製品
  6
Continuous
 62
     3
100
AcDbLine
 10
1575.709470993259
 20
743.0612494069964
 30
0.0
 11
1573.759470993259
 21
743.0612494069964
 31
0.0
  0
ARC
  5
71C7
330
1E
100
AcDbEntity
  8
躯体と製品
  6
Continuous
 62
     3
100
AcDbCircle
 10
1575.709470993259
 20
743.3612494069964
 30
0.0
 40
0.2999999999999998
100
AcDbArc
 50
270.0
 51
0.0
  0
LINE
  5
71C8
330
1E
100
AcDbEntity
  8
躯体と製品
  6
Continuous
 62
     3
100
AcDbLine
 10
1576.009470993259
 20
745.2612494069962
 30
0.0
 11
1576.009470993259
 21
743.3612494069964
 31
0.0
  0
ARC
  5
71C9
330
1E
100
AcDbEntity
  8
躯体と製品
  6
Continuous
 62
     3
100
AcDbCircle
 10
1575.709470993259
 20
745.2612494069962
 30
0.0
 40
0.2999999999999998
100
AcDbArc
 50
0.0
 51
90.0
  0
LINE
  5
71CA
330
1E
100
AcDbEntity
  8
躯体と製品
  6
Continuous
 62
     3
100
AcDbLine
 10
1575.709470993259
 20
745.5612494069964
 30
0.0
 11
1572.759470993259
 21
745.5612494069964
 31
0.0
  0
LINE
  5
71CB
330
1E
100
AcDbEntity
  8
躯体と製品
  6
Continuous
 62
     3
100
AcDbLine
 10
1575.509470993259
 20
745.5612494069964
 30
0.0
 11
1575.509470993259
 21
743.9612494069963
 31
0.0
  0
LINE
  5
71CC
330
1E
100
AcDbEntity
  8
躯体と製品
  6
Continuous
 62
     4
100
AcDbLine
 10
1573.509470993259
 20
745.5612494069964
 30
0.0
 11
1573.509470993259
 21
743.9612494069963
 31
0.0
  0
TEXT
  5
71CD
330
1E
100
AcDbEntity
  8
図枠
 62
     7
100
AcDbText
 10
1581.468639853172
 20
721.9472329168577
 30
0.0
 40
5.0
  1
８
100
AcDbText
  0
LINE
  5
71CE
330
1E
100
AcDbEntity
  8
躯体と製品
  6
Continuous
 62
     3
100
AcDbLine
 10
1588.559185136348
 20
739.9744253181629
 30
0.0
 11
1588.966379807908
 21
742.2837410560272
 31
0.0
  0
LINE
  5
71CF
330
1E
100
AcDbEntity
  8
躯体と製品
  6
Continuous
 62
     3
100
AcDbLine
 10
1584.528097547679
 20
740.1480734958298
 30
0.0
 11
1585.02714879586
 21
742.9783337666949
 31
0.0
  0
LINE
  5
71D0
330
1E
100
AcDbEntity
  8
躯体と製品
  6
Continuous
 62
     3
100
AcDbLine
 10
1582.974338770977
 20
739.9744253181629
 30
0.0
 11
1584.114293743759
 21
746.439431230485
 31
0.0
  0
LINE
  5
71D1
330
1E
100
AcDbEntity
  8
躯体と製品
  6
Continuous
 62
     3
100
AcDbLine
 10
1590.009470993259
 20
739.5612494069965
 30
0.0
 11
1591.007948014844
 21
745.2238939868164
 31
0.0
  0
LINE
  5
71D2
330
1E
100
AcDbEntity
  8
躯体と製品
  6
Continuous
 62
     3
100
AcDbLine
 10
1588.509470993259
 20
737.0612494069964
 30
0.0
 11
1590.009470993259
 21
737.0612494069964
 31
0.0
  0
ARC
  5
71D3
330
1E
100
AcDbEntity
  8
躯体と製品
  6
Continuous
 62
     3
100
AcDbCircle
 10
1588.066781259842
 20
740.0612494069965
 30
0.0
 40
0.5
100
AcDbArc
 50
270.0
 51
350.0000000000025
  0
LINE
  5
71D4
330
1E
100
AcDbEntity
  8
躯体と製品
  6
Continuous
 62
     3
100
AcDbLine
 10
1588.066781259842
 20
739.5612494069965
 30
0.0
 11
1585.020501424185
 21
739.5612494069965
 31
0.0
  0
ARC
  5
71D5
330
1E
100
AcDbEntity
  8
躯体と製品
  6
Continuous
 62
     3
100
AcDbCircle
 10
1585.020501424185
 20
740.0612494069965
 30
0.0
 40
0.5
100
AcDbArc
 50
170.0000000000025
 51
270.0
  0
ARC
  5
71D6
330
1E
100
AcDbEntity
  8
躯体と製品
  6
Continuous
 62
     3
100
AcDbCircle
 10
1582.48193489447
 20
740.0612494069965
 30
0.0
 40
0.5
100
AcDbArc
 50
270.0
 51
350.0000000000025
  0
LINE
  5
71D7
330
1E
100
AcDbEntity
  8
躯体と製品
  6
Continuous
 62
     3
100
AcDbLine
 10
1588.509470993259
 20
738.0612494069964
 30
0.0
 11
1588.509470993259
 21
737.0612494069964
 31
0.0
  0
LINE
  5
71D8
330
1E
100
AcDbEntity
  8
躯体と製品
  6
Continuous
 62
     3
100
AcDbLine
 10
1590.009470993259
 20
737.0612494069964
 30
0.0
 11
1590.009470993259
 21
739.5612494069965
 31
0.0
  0
LINE
  5
71D9
330
1E
100
AcDbEntity
  8
躯体と製品
  6
Continuous
 62
     3
100
AcDbLine
 10
1589.632431862082
 20
743.1817247202062
 30
0.0
 11
1588.966379807908
 21
742.2837410560272
 31
0.0
  0
LINE
  5
71DA
330
1E
100
AcDbEntity
  8
躯体と製品
  6
Continuous
 62
     3
100
AcDbLine
 10
1585.200796973527
 20
743.963141519707
 30
0.0
 11
1584.70839309702
 21
744.0499656085407
 31
0.0
  0
LINE
  5
71DB
330
1E
100
AcDbEntity
  8
躯体と製品
  6
Continuous
 62
     3
100
AcDbLine
 10
1585.374445151193
 20
744.9479492727193
 30
0.0
 11
1584.882041274687
 21
745.0347733615529
 31
0.0
  0
LINE
  5
71DC
330
1E
100
AcDbEntity
  8
躯体と製品
  6
Continuous
 62
     3
100
AcDbLine
 10
1585.374445151193
 20
744.9479492727193
 30
0.0
 11
1585.591505373277
 21
746.1789589639845
 31
0.0
  0
ARC
  5
71DD
330
1E
100
AcDbEntity
  8
躯体と製品
  6
Continuous
 62
     3
100
AcDbCircle
 10
1584.852899558518
 20
746.309195097235
 30
0.0
 40
0.7500000000000016
100
AcDbArc
 50
350.0000000000025
 51
170.0000000000025
  0
LINE
  5
71DE
330
1E
100
AcDbEntity
  8
躯体と製品
  6
Continuous
 62
     3
100
AcDbLine
 10
1584.70839309702
 20
744.0499656085407
 30
0.0
 11
1585.02714879586
 21
742.9783337666949
 31
0.0
  0
LINE
  5
71DF
330
1E
100
AcDbEntity
  8
躯体と製品
  6
Continuous
 62
     3
100
AcDbLine
 10
1584.882041274687
 20
745.0347733615529
 30
0.0
 11
1585.200796973527
 21
743.963141519707
 31
0.0
  0
LINE
  5
71E0
330
1E
100
AcDbEntity
  8
躯体と製品
  6
Continuous
 62
     3
100
AcDbLine
 10
1589.632431862082
 20
743.1817247202062
 30
0.0
 11
1589.140027985575
 21
743.2685488090394
 31
0.0
  0
LINE
  5
71E1
330
1E
100
AcDbEntity
  8
躯体と製品
  6
Continuous
 62
     3
100
AcDbLine
 10
1589.806080039748
 20
744.1665324732182
 30
0.0
 11
1589.313676163242
 21
744.2533565620514
 31
0.0
  0
LINE
  5
71E2
330
1E
100
AcDbEntity
  8
躯体と製品
  6
Continuous
 62
     3
100
AcDbLine
 10
1589.313676163242
 20
744.2533565620514
 30
0.0
 11
1589.530736385326
 21
745.4843662533169
 31
0.0
  0
LINE
  5
71E3
330
1E
100
AcDbEntity
  8
躯体と製品
  6
Continuous
 62
     3
100
AcDbLine
 10
1589.806080039748
 20
744.1665324732182
 30
0.0
 11
1589.140027985575
 21
743.2685488090394
 31
0.0
  0
ARC
  5
71E4
330
1E
100
AcDbEntity
  8
躯体と製品
  6
Continuous
 62
     3
100
AcDbCircle
 10
1590.269342200085
 20
745.3541301200666
 30
0.0
 40
0.7499999999999977
100
AcDbArc
 50
350.0000000000025
 51
170.0000000000025
  0
ARC
  5
71E5
330
1E
100
AcDbEntity
  8
躯体と製品
  6
Continuous
 62
     7
100
AcDbCircle
 10
1609.480911219361
 20
734.0616573205354
 30
0.0
 40
2.0
100
AcDbArc
 50
4.999999999999459
 51
88.84278494684552
  0
ARC
  5
71E6
330
1E
100
AcDbEntity
  8
躯体と製品
  6
Continuous
 62
     7
100
AcDbCircle
 10
1609.480911219361
 20
734.0616573205354
 30
0.0
 40
1.0
100
AcDbArc
 50
4.999999999999459
 51
88.3634229583817
  0
LINE
  5
71E7
330
1E
100
AcDbEntity
  8
躯体と製品
  6
Continuous
 62
     7
100
AcDbLine
 10
1636.225925295011
 20
739.9372748674123
 30
0.0
 11
1633.137901410348
 21
704.6410003535267
 31
0.0
  0
LINE
  5
71E8
330
1E
100
AcDbEntity
  8
躯体と製品
  6
Continuous
 62
     7
100
AcDbLine
 10
1635.22973059692
 20
740.0244306101599
 30
0.0
 11
1632.141706712256
 21
704.7281560962744
 31
0.0
  0
LINE
  5
71E9
330
1E
100
AcDbEntity
  8
躯体と製品
  6
Continuous
 62
     3
100
AcDbLine
 10
1641.917537641615
 20
736.2414035503897
 30
0.0
 11
1641.917537641615
 21
699.4414035503897
 31
0.0
  0
LINE
  5
71EA
330
1E
100
AcDbEntity
  8
躯体と製品
  6
Continuous
 62
     3
100
AcDbLine
 10
1643.417537641615
 20
707.9414035503898
 30
0.0
 11
1643.417537641615
 21
699.1414035503899
 31
0.0
  0
ARC
  5
71EB
330
1E
100
AcDbEntity
  8
躯体と製品
  6
Continuous
 62
     3
100
AcDbCircle
 10
1644.517537641615
 20
706.8414035503898
 30
0.0
 40
0.6000000000000015
100
AcDbArc
 50
90.0
 51
270.0
  0
LINE
  5
71EC
330
1E
100
AcDbEntity
  8
躯体と製品
  6
Continuous
 62
     3
100
AcDbLine
 10
1648.317537641615
 20
698.1414035503899
 30
0.0
 11
1644.417537641615
 21
698.1414035503899
 31
0.0
  0
LINE
  5
71ED
330
1E
100
AcDbEntity
  8
躯体と製品
  6
Continuous
 62
     3
100
AcDbLine
 10
1648.317537641615
 20
696.9414035503898
 30
0.0
 11
1644.417537641615
 21
696.9414035503898
 31
0.0
  0
LINE
  5
71EE
330
1E
100
AcDbEntity
  8
躯体と製品
  6
Continuous
 62
     3
100
AcDbLine
 10
1653.767713499021
 20
706.2414035503898
 30
0.0
 11
1644.517537641615
 21
706.2414035503898
 31
0.0
  0
LINE
  5
71EF
330
1E
100
AcDbEntity
  8
図枠
  6
Continuous
 62
     4
100
AcDbLine
 10
1625.039741308662
 20
696.1415410414201
 30
0.0
 11
1635.497188845292
 21
678.0287105904902
 31
0.0
  0
TEXT
  5
71F0
330
1E
100
AcDbEntity
  8
図枠
 62
     7
100
AcDbText
 10
1635.247188845292
 20
669.8325581677834
 30
0.0
 40
5.0
  1
11
100
AcDbText
  0
CIRCLE
  5
71F1
330
1E
100
AcDbEntity
  8
図枠
  6
Continuous
 62
     4
100
AcDbCircle
 10
1638.497188845292
 20
672.8325581677834
 30
0.0
 40
6.0
  0
ARC
  5
71F2
330
1E
100
AcDbEntity
  8
躯体と製品
  6
Continuous
 62
     7
100
AcDbCircle
 10
1623.098303212675
 20
705.5193513821782
 30
0.0
 40
9.077947831788515
100
AcDbArc
 50
184.9999999999994
 51
355.0000000000006
  0
CIRCLE
  5
71F3
330
1E
100
AcDbEntity
  8
図枠
  6
Continuous
 62
     4
100
AcDbCircle
 10
1625.039741308662
 20
696.1415410414201
 30
0.0
 40
0.9
  0
ARC
  5
71F4
330
1E
100
AcDbEntity
  8
躯体と製品
  6
Continuous
 62
     3
100
AcDbCircle
 10
1644.417537641615
 20
699.1414035503899
 30
0.0
 40
1.0
100
AcDbArc
 50
180.0
 51
270.0
  0
ARC
  5
71F5
330
1E
100
AcDbEntity
  8
躯体と製品
  6
Continuous
 62
     3
100
AcDbCircle
 10
1644.417537641615
 20
699.4414035503897
 30
0.0
 40
2.5
100
AcDbArc
 50
180.0
 51
270.0
  0
ARC
  5
71F6
330
1E
100
AcDbEntity
  8
躯体と製品
  6
Continuous
 62
     3
100
AcDbCircle
 10
1657.509470993259
 20
696.4414035503899
 30
0.0
 40
3.0
100
AcDbArc
 50
270.0
 51
0.0
  0
LINE
  5
71F7
330
1E
100
AcDbEntity
  8
躯体と製品
  6
Continuous
 62
     3
100
AcDbLine
 10
1650.509470993259
 20
693.4414035503898
 30
0.0
 11
1650.509470993259
 21
695.4414035503898
 31
0.0
  0
LINE
  5
71F8
330
1E
100
AcDbEntity
  8
躯体と製品
  6
Continuous
 62
     3
100
AcDbLine
 10
1657.509470993259
 20
693.4414035503898
 30
0.0
 11
1650.509470993259
 21
693.4414035503898
 31
0.0
  0
POINT
  5
71F9
330
1E
100
AcDbEntity
  8
躯体と製品
 62
     4
100
AcDbPoint
 10
1660.509470993259
 20
693.4414035503898
 30
0.0
  0
LINE
  5
71FA
330
1E
100
AcDbEntity
  8
躯体と製品
  6
Continuous
 62
     3
100
AcDbLine
 10
1654.256787299388
 20
705.8453593957985
 30
0.0
 11
1655.68501191957
 21
699.1260908445929
 31
0.0
  0
LINE
  5
71FB
330
1E
100
AcDbEntity
  8
躯体と製品
  6
Continuous
 62
     3
100
AcDbLine
 10
1657.509470993259
 20
695.4414035503898
 30
0.0
 11
1650.509470993259
 21
695.4414035503898
 31
0.0
  0
LINE
  5
71FC
330
1E
100
AcDbEntity
  8
躯体と製品
  6
DASHED1
 62
     7
100
AcDbLine
 10
1658.50947099326
 20
698.3295911062057
 30
0.0
 11
1654.079546903535
 21
697.5385332326734
 31
0.0
  0
ARC
  5
71FD
330
1E
100
AcDbEntity
  8
躯体と製品
  6
Continuous
 62
     3
100
AcDbCircle
 10
1648.317537641615
 20
697.5414035503897
 30
0.0
 40
0.5999999999999998
100
AcDbArc
 50
270.0
 51
90.0
  0
ARC
  5
71FE
330
1E
100
AcDbEntity
  8
躯体と製品
  6
Continuous
 62
     3
100
AcDbCircle
 10
1653.767713499021
 20
705.7414035503898
 30
0.0
 40
0.5
100
AcDbArc
 50
11.99999999999979
 51
90.0
  0
ARC
  5
71FF
330
1E
100
AcDbEntity
  8
躯体と製品
  6
Continuous
 62
     3
100
AcDbCircle
 10
1656.18501191957
 20
697.9414035503898
 30
0.0
 40
2.5
100
AcDbArc
 50
270.0
 51
0.0
  0
LINE
  5
7200
330
1E
100
AcDbEntity
  8
躯体と製品
  6
Continuous
 62
     3
100
AcDbLine
 10
1656.18501191957
 20
695.4414035503898
 30
0.0
 11
1655.68501191957
 21
695.4414035503898
 31
0.0
  0
LINE
  5
7201
330
1E
100
AcDbEntity
  8
躯体と製品
  6
Continuous
 62
     3
100
AcDbLine
 10
1658.68501191957
 20
697.9414035503898
 30
0.0
 11
1658.68501191957
 21
699.4414035503897
 31
0.0
  0
LINE
  5
7202
330
1E
100
AcDbEntity
  8
躯体と製品
  6
Continuous
 62
     3
100
AcDbLine
 10
1655.68501191957
 20
699.1260908445929
 30
0.0
 11
1655.68501191957
 21
695.4414035503898
 31
0.0
  0
ARC
  5
7203
330
1E
100
AcDbEntity
  8
躯体と製品
  6
Continuous
 62
     3
100
AcDbCircle
 10
1657.509470993259
 20
696.4414035503899
 30
0.0
 40
1.0
100
AcDbArc
 50
270.0
 51
0.0
  0
LINE
  5
7204
330
1E
100
AcDbEntity
  8
躯体と製品
  6
Continuous
 62
     3
100
AcDbLine
 10
1643.917537641615
 20
709.4414035503898
 30
0.0
 11
1650.617537641615
 21
709.4414035503898
 31
0.0
  0
LINE
  5
7205
330
1E
100
AcDbEntity
  8
躯体と製品
  6
Continuous
 62
     3
100
AcDbLine
 10
1643.917537641615
 20
708.4414035503898
 30
0.0
 11
1648.917537641615
 21
708.4414035503898
 31
0.0
  0
LINE
  5
7206
330
1E
100
AcDbEntity
  8
躯体と製品
  6
Continuous
 62
     3
100
AcDbLine
 10
1644.517537641615
 20
707.4414035503898
 30
0.0
 11
1646.917537641615
 21
707.4414035503898
 31
0.0
  0
CIRCLE
  5
7207
330
1E
100
AcDbEntity
  8
図枠
  6
Continuous
 62
     4
100
AcDbCircle
 10
1642.678387989491
 20
718.3127461377562
 30
0.0
 40
0.9
  0
ARC
  5
7208
330
1E
100
AcDbEntity
  8
躯体と製品
  6
Continuous
 62
     3
100
AcDbCircle
 10
1643.917537641615
 20
709.9414035503898
 30
0.0
 40
0.5
100
AcDbArc
 50
180.0
 51
270.0
  0
ARC
  5
7209
330
1E
100
AcDbEntity
  8
躯体と製品
  6
Continuous
 62
     3
100
AcDbCircle
 10
1643.917537641615
 20
707.9414035503898
 30
0.0
 40
0.5
100
AcDbArc
 50
90.0
 51
180.0
  0
LINE
  5
720A
330
1E
100
AcDbEntity
  8
躯体と製品
  6
Continuous
 62
     3
100
AcDbLine
 10
1641.917537641615
 20
745.6414035503899
 30
0.0
 11
1641.917537641615
 21
738.2414035503898
 31
0.0
  0
ARC
  5
720B
330
1E
100
AcDbEntity
  8
躯体と製品
  6
Continuous
 62
     7
100
AcDbCircle
 10
1640.917537641615
 20
741.4414035503898
 30
0.0
 40
0.5
100
AcDbArc
 50
287.587954000005
 51
72.41204599999497
  0
ARC
  5
720C
330
1E
100
AcDbEntity
  8
躯体と製品
  6
Continuous
 62
     7
100
AcDbCircle
 10
1637.321739462913
 20
739.8414035503898
 30
0.0
 40
2.1
100
AcDbArc
 50
90.0
 51
175.0000000000005
  0
LINE
  5
720D
330
1E
100
AcDbEntity
  8
躯体と製品
  6
Continuous
 62
     3
100
AcDbLine
 10
1641.417537641615
 20
736.7414035503898
 30
0.0
 11
1637.717537641615
 21
736.7414035503898
 31
0.0
  0
LINE
  5
720E
330
1E
100
AcDbEntity
  8
躯体と製品
  6
Continuous
 62
     3
100
AcDbLine
 10
1638.217537641615
 20
737.9414035503899
 30
0.0
 11
1641.617537641615
 21
737.9414035503899
 31
0.0
  0
ARC
  5
720F
330
1E
100
AcDbEntity
  8
躯体と製品
  6
Continuous
 62
     7
100
AcDbCircle
 10
1638.417537641615
 20
738.4414035503898
 30
0.0
 40
0.5
100
AcDbArc
 50
180.0
 51
270.0
  0
ARC
  5
7210
330
1E
100
AcDbEntity
  8
躯体と製品
  6
Continuous
 62
     3
100
AcDbCircle
 10
1637.717537641615
 20
737.7414035503898
 30
0.0
 40
1.0
100
AcDbArc
 50
180.0
 51
270.0
  0
ARC
  5
7211
330
1E
100
AcDbEntity
  8
躯体と製品
  6
Continuous
 62
     3
100
AcDbCircle
 10
1638.217537641615
 20
738.2414035503898
 30
0.0
 40
0.2999999999999998
100
AcDbArc
 50
180.0
 51
270.0
  0
LINE
  5
7212
330
1E
100
AcDbEntity
  8
躯体と製品
  6
Continuous
 62
     3
100
AcDbLine
 10
1637.917537641615
 20
739.8414035503898
 30
0.0
 11
1637.917537641615
 21
738.2414035503898
 31
0.0
  0
LINE
  5
7213
330
1E
100
AcDbEntity
  8
躯体と製品
  6
Continuous
 62
     3
100
AcDbLine
 10
1636.717537641615
 20
739.8414035503898
 30
0.0
 11
1636.717537641615
 21
737.7414035503898
 31
0.0
  0
ARC
  5
7214
330
1E
100
AcDbEntity
  8
躯体と製品
  6
Continuous
 62
     3
100
AcDbCircle
 10
1637.317537641615
 20
739.8414035503898
 30
0.0
 40
0.5999999999999998
100
AcDbArc
 50
0.0
 51
180.0
  0
LINE
  5
7215
330
1E
100
AcDbEntity
  8
躯体と製品
  6
Continuous
 62
     7
100
AcDbLine
 10
1637.917537641615
 20
738.4414035503898
 30
0.0
 11
1637.917537641615
 21
740.9414035503898
 31
0.0
  0
LINE
  5
7216
330
1E
100
AcDbEntity
  8
躯体と製品
  6
Continuous
 62
     7
100
AcDbLine
 10
1637.321739462913
 20
740.9414035503898
 30
0.0
 11
1637.917537641615
 21
740.9414035503898
 31
0.0
  0
ARC
  5
7217
330
1E
100
AcDbEntity
  8
躯体と製品
  6
Continuous
 62
     7
100
AcDbCircle
 10
1637.321739462913
 20
739.8414035503898
 30
0.0
 40
1.1
100
AcDbArc
 50
90.0
 51
175.0000000000005
  0
ARC
  5
7218
330
1E
100
AcDbEntity
  8
躯体と製品
  6
Continuous
 62
     3
100
AcDbCircle
 10
1641.417537641615
 20
736.2414035503897
 30
0.0
 40
0.5
100
AcDbArc
 50
0.0
 51
90.0
  0
ARC
  5
7219
330
1E
100
AcDbEntity
  8
躯体と製品
  6
Continuous
 62
     3
100
AcDbCircle
 10
1641.617537641615
 20
738.2414035503898
 30
0.0
 40
0.2999999999999998
100
AcDbArc
 50
270.0
 51
0.0
  0
ARC
  5
721A
330
1E
100
AcDbEntity
  8
躯体と製品
  6
Continuous
 62
     7
100
AcDbCircle
 10
1638.917537641615
 20
738.4414035503898
 30
0.0
 40
0.5
100
AcDbArc
 50
270.0
 51
0.0
  0
LINE
  5
721B
330
1E
100
AcDbEntity
  8
躯体と製品
  6
Continuous
 62
     7
100
AcDbLine
 10
1638.417537641615
 20
737.9414035503899
 30
0.0
 11
1638.917537641615
 21
737.9414035503899
 31
0.0
  0
LINE
  5
721C
330
1E
100
AcDbEntity
  8
躯体と製品
  6
Continuous
 62
     7
100
AcDbLine
 10
1639.417537641615
 20
740.4414035503898
 30
0.0
 11
1639.417537641615
 21
738.4414035503898
 31
0.0
  0
LINE
  5
721D
330
1E
100
AcDbEntity
  8
躯体と製品
  6
Continuous
 62
     7
100
AcDbLine
 10
1639.417537641615
 20
740.4414035503898
 30
0.0
 11
1641.068622641615
 21
740.9647765503898
 31
0.0
  0
LINE
  5
721E
330
1E
100
AcDbEntity
  8
躯体と製品
  6
Continuous
 62
     3
100
AcDbLine
 10
1641.417537641615
 20
747.14140355039
 30
0.0
 11
1637.717537641615
 21
747.14140355039
 31
0.0
  0
LINE
  5
721F
330
1E
100
AcDbEntity
  8
躯体と製品
  6
Continuous
 62
     3
100
AcDbLine
 10
1638.217537641615
 20
745.9414035503898
 30
0.0
 11
1641.617537641615
 21
745.9414035503898
 31
0.0
  0
ARC
  5
7220
330
1E
100
AcDbEntity
  8
躯体と製品
  6
Continuous
 62
     7
100
AcDbCircle
 10
1638.417537641615
 20
744.4414035503898
 30
0.0
 40
0.5
100
AcDbArc
 50
90.0
 51
180.0
  0
ARC
  5
7221
330
1E
100
AcDbEntity
  8
躯体と製品
  6
Continuous
 62
     3
100
AcDbCircle
 10
1637.717537641615
 20
746.1414035503899
 30
0.0
 40
1.0
100
AcDbArc
 50
90.0
 51
180.0
  0
LINE
  5
7222
330
1E
100
AcDbEntity
  8
躯体と製品
  6
Continuous
 62
     3
100
AcDbLine
 10
1636.717537641615
 20
744.0414035503895
 30
0.0
 11
1636.717537641615
 21
746.1414035503899
 31
0.0
  0
ARC
  5
7223
330
1E
100
AcDbEntity
  8
躯体と製品
  6
Continuous
 62
     3
100
AcDbCircle
 10
1638.217537641615
 20
745.6414035503899
 30
0.0
 40
0.2999999999999998
100
AcDbArc
 50
90.0
 51
180.0
  0
LINE
  5
7224
330
1E
100
AcDbEntity
  8
躯体と製品
  6
Continuous
 62
     3
100
AcDbLine
 10
1637.917537641615
 20
744.0414035503895
 30
0.0
 11
1637.917537641615
 21
745.6414035503899
 31
0.0
  0
ARC
  5
7225
330
1E
100
AcDbEntity
  8
躯体と製品
  6
Continuous
 62
     3
100
AcDbCircle
 10
1637.317537641615
 20
744.0414035503895
 30
0.0
 40
0.5999999999999998
100
AcDbArc
 50
180.0
 51
0.0
  0
LINE
  5
7226
330
1E
100
AcDbEntity
  8
躯体と製品
  6
Continuous
 62
     7
100
AcDbLine
 10
1637.917537641615
 20
744.4414035503898
 30
0.0
 11
1637.917537641615
 21
741.9414035503898
 31
0.0
  0
LINE
  5
7227
330
1E
100
AcDbEntity
  8
躯体と製品
  6
Continuous
 62
     7
100
AcDbLine
 10
1637.321739462913
 20
741.9414035503898
 30
0.0
 11
1637.917537641615
 21
741.9414035503898
 31
0.0
  0
ARC
  5
7228
330
1E
100
AcDbEntity
  8
躯体と製品
  6
Continuous
 62
     3
100
AcDbCircle
 10
1641.417537641615
 20
747.6414035503901
 30
0.0
 40
0.5
100
AcDbArc
 50
270.0
 51
0.0
  0
ARC
  5
7229
330
1E
100
AcDbEntity
  8
躯体と製品
  6
Continuous
 62
     3
100
AcDbCircle
 10
1641.617537641615
 20
745.6414035503899
 30
0.0
 40
0.2999999999999998
100
AcDbArc
 50
0.0
 51
90.0
  0
LINE
  5
722A
330
1E
100
AcDbEntity
  8
躯体と製品
  6
Continuous
 62
     7
100
AcDbLine
 10
1639.417537641615
 20
742.4414035503899
 30
0.0
 11
1641.068622641615
 21
741.9180305503898
 31
0.0
  0
LINE
  5
722B
330
1E
100
AcDbEntity
  8
躯体と製品
  6
Continuous
 62
     7
100
AcDbLine
 10
1638.417537641615
 20
744.9414035503898
 30
0.0
 11
1638.917537641615
 21
744.9414035503898
 31
0.0
  0
ARC
  5
722C
330
1E
100
AcDbEntity
  8
躯体と製品
  6
Continuous
 62
     7
100
AcDbCircle
 10
1638.917537641615
 20
744.4414035503898
 30
0.0
 40
0.5
100
AcDbArc
 50
0.0
 51
90.0
  0
LINE
  5
722D
330
1E
100
AcDbEntity
  8
躯体と製品
  6
Continuous
 62
     7
100
AcDbLine
 10
1639.417537641615
 20
742.4414035503899
 30
0.0
 11
1639.417537641615
 21
744.4414035503898
 31
0.0
  0
ARC
  5
722E
330
1E
100
AcDbEntity
  8
躯体と製品
  6
Continuous
 62
     3
100
AcDbCircle
 10
1640.250156663109
 20
752.0031391615557
 30
0.0
 40
0.5999999999999984
100
AcDbArc
 50
166.9999999999997
 51
346.9999999999997
  0
ARC
  5
722F
330
1E
100
AcDbEntity
  8
躯体と製品
  6
Continuous
 62
     3
100
AcDbCircle
 10
1650.617537641615
 20
709.1414035503898
 30
0.0
 40
0.2999999999999998
100
AcDbArc
 50
0.0
 51
90.0
  0
LINE
  5
7230
330
1E
100
AcDbEntity
  8
躯体と製品
  6
Continuous
 62
     3
100
AcDbLine
 10
1650.917537641615
 20
709.1414035503898
 30
0.0
 11
1650.917537641615
 21
708.8317915503899
 31
0.0
  0
LINE
  5
7231
330
1E
100
AcDbEntity
  8
躯体と製品
  6
Continuous
 62
     3
100
AcDbLine
 10
1648.917537641615
 20
708.4414035503898
 30
0.0
 11
1648.917537641615
 21
707.9414035503898
 31
0.0
  0
ARC
  5
7232
330
1E
100
AcDbEntity
  8
躯体と製品
  6
Continuous
 62
     3
100
AcDbCircle
 10
1650.417537641615
 20
708.8317915503899
 30
0.0
 40
0.5
100
AcDbArc
 50
284.0362430000043
 51
0.0
  0
LINE
  5
7233
330
1E
100
AcDbEntity
  8
躯体と製品
  6
Continuous
 62
     3
100
AcDbLine
 10
1648.917537641615
 20
707.9414035503898
 30
0.0
 11
1650.538805641615
 21
708.3467205503898
 31
0.0
  0
LINE
  5
7234
330
1E
100
AcDbEntity
  8
躯体と製品
  6
Continuous
 62
     3
100
AcDbLine
 10
1653.300089063347
 20
707.4414035503898
 30
0.0
 11
1648.917537641615
 21
707.4414035503898
 31
0.0
  0
ARC
  5
7235
330
1E
100
AcDbEntity
  8
躯体と製品
  6
Continuous
 62
     3
100
AcDbCircle
 10
1653.300089063347
 20
707.9414035503898
 30
0.0
 40
0.5
100
AcDbArc
 50
270.0
 51
11.99999999999979
  0
LINE
  5
7236
330
1E
100
AcDbEntity
  8
躯体と製品
  6
Continuous
 62
     3
100
AcDbLine
 10
1648.917537641615
 20
708.4414035503898
 30
0.0
 11
1646.917537641615
 21
707.4414035503898
 31
0.0
  0
LINE
  5
7237
330
1E
100
AcDbEntity
  8
躯体と製品
  6
Continuous
 62
     3
100
AcDbLine
 10
1648.917537641615
 20
707.4414035503898
 30
0.0
 11
1648.917537641615
 21
708.4414035503898
 31
0.0
  0
LINE
  5
7238
330
1E
100
AcDbEntity
  8
図枠
  6
Continuous
 62
     4
100
AcDbLine
 10
1609.482811732019
 20
768.6594435071009
 30
0.0
 11
1623.408126843629
 21
792.7787967918161
 31
0.0
  0
LINE
  5
7239
330
1E
100
AcDbEntity
  8
躯体と製品
  6
DASHED1
 62
     7
100
AcDbLine
 10
1605.201970224451
 20
758.0899186868414
 30
0.0
 11
1625.174560919542
 21
757.0431995619824
 31
0.0
  0
LINE
  5
723A
330
1E
100
AcDbEntity
  8
躯体と製品
  6
DASHED1
 62
     7
100
AcDbLine
 10
1601.811438765295
 20
760.2703536032008
 30
0.0
 11
1630.2723805058
 21
758.7787788502769
 31
0.0
  0
LINE
  5
723B
330
1E
100
AcDbEntity
  8
図枠
  6
Continuous
 62
     4
100
AcDbLine
 10
1561.563916030692
 20
770.524419094264
 30
0.0
 11
1579.389448569724
 21
801.3991471238396
 31
0.0
  0
LINE
  5
723C
330
1E
100
AcDbEntity
  8
図枠
  6
Continuous
 62
     4
100
AcDbLine
 10
1577.113300021648
 20
773.2466717376954
 30
0.0
 11
1595.400389794025
 21
804.9208403460237
 31
0.0
  0
CIRCLE
  5
723D
330
1E
100
AcDbEntity
  8
図枠
  6
Continuous
 62
     4
100
AcDbCircle
 10
1604.844216832888
 20
796.986209477061
 30
0.0
 40
6.0
  0
LINE
  5
723E
330
1E
100
AcDbEntity
  8
躯体と製品
  6
DASHED1
 62
     7
100
AcDbLine
 10
1572.215109466778
 20
778.9960987024351
 30
0.0
 11
1583.656294804232
 21
764.1538086869286
 31
0.0
  0
LINE
  5
723F
330
1E
100
AcDbEntity
  8
躯体と製品
  6
DASHED1
 62
     7
100
AcDbLine
 10
1572.848712392937
 20
779.484511777571
 30
0.0
 11
1584.28989773039
 21
764.6422217620643
 31
0.0
  0
LINE
  5
7240
330
1E
100
AcDbEntity
  8
躯体と製品
  6
DASHED1
 62
     4
100
AcDbLine
 10
1558.431165869513
 20
780.8689313021229
 30
0.0
 11
1557.185570110931
 21
757.1015483749642
 31
0.0
  0
LINE
  5
7241
330
1E
100
AcDbEntity
  8
躯体と製品
  6
DASHED1
 62
     7
100
AcDbLine
 10
1557.863444979006
 20
780.8986842932472
 30
0.0
 11
1556.617849220423
 21
757.1313013660883
 31
0.0
  0
LINE
  5
7242
330
1E
100
AcDbEntity
  8
躯体と製品
  6
DASHED1
 62
     7
100
AcDbLine
 10
1563.855222187533
 20
780.5846685557893
 30
0.0
 11
1562.609626428951
 21
756.8172856286305
 31
0.0
  0
LINE
  5
7243
330
1E
100
AcDbEntity
  8
躯体と製品
  6
DASHED1
 62
     4
100
AcDbLine
 10
1563.287501297025
 20
780.6144215469134
 30
0.0
 11
1562.041905538443
 21
756.8470386197548
 31
0.0
  0
LINE
  5
7244
330
1E
100
AcDbEntity
  8
躯体と製品
  6
Continuous
 62
     3
100
AcDbLine
 10
1568.435638971381
 20
752.9147674400454
 30
0.0
 11
1550.635638971381
 21
753.8476259112838
 31
0.0
  0
LINE
  5
7245
330
1E
100
AcDbEntity
  8
躯体と製品
  6
Continuous
 62
     3
100
AcDbLine
 10
1568.51937650137
 20
754.5125746956529
 30
0.0
 11
1550.719376501369
 21
755.4454331668909
 31
0.0
  0
ARC
  5
7246
330
1E
100
AcDbEntity
  8
躯体と製品
  6
Continuous
 62
     3
100
AcDbCircle
 10
1550.609470993259
 20
753.3483111439064
 30
0.0
 40
0.5
100
AcDbArc
 50
86.99999999999441
 51
180.0
  0
ARC
  5
7247
330
1E
100
AcDbEntity
  8
躯体と製品
  6
Continuous
 62
     3
100
AcDbCircle
 10
1550.609470993259
 20
753.3483111439064
 30
0.0
 40
2.1
100
AcDbArc
 50
86.99999999999441
 51
180.0
  0
POINT
  5
7248
330
1E
100
AcDbEntity
  8
躯体と製品
 62
     4
100
AcDbPoint
 10
1559.509470993259
 20
754.9847638348828
 30
0.0
  0
LINE
  5
7249
330
1E
100
AcDbEntity
  8
躯体と製品
  6
Continuous
 62
     7
100
AcDbLine
 10
1556.617849220423
 20
757.1313013660883
 30
0.0
 11
1556.513582388995
 21
755.1417717036117
 31
0.0
  0
LINE
  5
724A
330
1E
100
AcDbEntity
  8
躯体と製品
  6
Continuous
 62
     4
100
AcDbLine
 10
1557.185570110931
 20
757.1015483749642
 30
0.0
 11
1557.081303279503
 21
755.1120187124877
 31
0.0
  0
LINE
  5
724B
330
1E
100
AcDbEntity
  8
躯体と製品
  6
Continuous
 62
     4
100
AcDbLine
 10
1562.041905538443
 20
756.8470386197548
 30
0.0
 11
1561.937638707015
 21
754.8575089572779
 31
0.0
  0
LINE
  5
724C
330
1E
100
AcDbEntity
  8
躯体と製品
  6
Continuous
 62
     7
100
AcDbLine
 10
1562.609626428951
 20
756.8172856286305
 30
0.0
 11
1562.505359597523
 21
754.8277559661539
 31
0.0
  0
CIRCLE
  5
724D
330
1E
100
AcDbEntity
  8
図枠
  6
Continuous
 62
     4
100
AcDbCircle
 10
1561.563916030692
 20
770.524419094264
 30
0.0
 40
0.9
  0
POINT
  5
724E
330
1E
100
AcDbEntity
  8
躯体と製品
 62
     4
100
AcDbPoint
 10
1577.061806949502
 20
756.0598789417509
 30
0.0
  0
ARC
  5
724F
330
1E
100
AcDbEntity
  8
躯体と製品
  6
Continuous
 62
     3
100
AcDbCircle
 10
1577.009470993259
 20
755.0612494069964
 30
0.0
 40
1.0
100
AcDbArc
 50
0.0
 51
180.0
  0
CIRCLE
  5
7250
330
1E
100
AcDbEntity
  8
図枠
  6
Continuous
 62
     4
100
AcDbCircle
 10
1577.113300021648
 20
773.2466717376954
 30
0.0
 40
0.9
  0
ARC
  5
7251
330
1E
100
AcDbEntity
  8
躯体と製品
  6
DASHED1
 62
     7
100
AcDbCircle
 10
1560.733727340622
 20
778.344966539737
 30
0.0
 40
6.299999999999998
100
AcDbArc
 50
47.69686900000316
 51
126.3093710000041
  0
LINE
  5
7252
330
1E
100
AcDbEntity
  8
躯体と製品
  6
DASHED1
 62
     7
100
AcDbLine
 10
1550.159487871227
 20
780.5013337001591
 30
0.0
 11
1571.475441765323
 21
779.3842118932698
 31
0.0
  0
LINE
  5
7253
330
1E
100
AcDbEntity
  8
躯体と製品
  6
DASHED1
 62
     7
100
AcDbLine
 10
1550.201356636221
 20
781.300237327963
 30
0.0
 11
1571.517310530318
 21
780.1831155210737
 31
0.0
  0
ARC
  5
7254
330
1E
100
AcDbEntity
  8
躯体と製品
  6
DASHED1
 62
     7
100
AcDbCircle
 10
1559.046102888102
 20
780.6415784059835
 30
0.0
 40
3.45
100
AcDbArc
 50
126.3091240000008
 51
173.7621629999991
  0
ARC
  5
7255
330
1E
100
AcDbEntity
  8
躯体と製品
  6
DASHED1
 62
     7
100
AcDbCircle
 10
1550.107151914984
 20
779.5027041654046
 30
0.0
 40
1.0
100
AcDbArc
 50
86.99999999999441
 51
136.3731526377175
  0
ARC
  5
7256
330
1E
100
AcDbEntity
  8
躯体と製品
  6
DASHED1
 62
     7
100
AcDbCircle
 10
1550.107151914984
 20
779.5027041654046
 30
0.0
 40
1.8
100
AcDbArc
 50
86.99999999999441
 51
136.3731526377175
  0
LINE
  5
7257
330
1E
100
AcDbEntity
  8
躯体と製品
  6
DASHED1
 62
     7
100
AcDbLine
 10
1561.770472933966
 20
783.7967589597657
 30
0.0
 11
1560.272528631834
 21
783.8752628941299
 31
0.0
  0
ARC
  5
7258
330
1E
100
AcDbEntity
  8
躯体と製品
  6
DASHED1
 62
     7
100
AcDbCircle
 10
1562.371704579422
 20
783.804548602111
 30
0.0
 40
0.5999999999999998
100
AcDbArc
 50
73.29976700000166
 51
177.0000000000011
  0
ARC
  5
7259
330
1E
100
AcDbEntity
  8
躯体と製品
  6
DASHED1
 62
     7
100
AcDbCircle
 10
1559.675404835585
 20
783.9458556839669
 30
0.0
 40
0.5999999999999998
100
AcDbArc
 50
357.0000000000011
 51
100.7002330000058
  0
LINE
  5
725A
330
1E
100
AcDbEntity
  8
図枠
  6
Continuous
 62
     4
100
AcDbLine
 10
1564.009470993259
 20
793.5056159811929
 30
0.0
 11
1564.009470993259
 21
796.126004945345
 31
0.0
  0
ARC
  5
725B
330
1E
100
AcDbEntity
  8
躯体と製品
  6
DASHED1
 62
     7
100
AcDbCircle
 10
1571.42310580908
 20
778.3855823585154
 30
0.0
 40
1.8
100
AcDbArc
 50
37.62684736228169
 51
86.99999999999441
  0
ARC
  5
725C
330
1E
100
AcDbEntity
  8
躯体と製品
  6
DASHED1
 62
     7
100
AcDbCircle
 10
1562.657438893358
 20
780.4478071260291
 30
0.0
 40
3.45
100
AcDbArc
 50
0.3127429999987237
 51
47.82048899999998
  0
ARC
  5
725D
330
1E
100
AcDbEntity
  8
躯体と製品
  6
DASHED1
 62
     7
100
AcDbCircle
 10
1571.42310580908
 20
778.3855823585154
 30
0.0
 40
1.0
100
AcDbArc
 50
37.62684736228169
 51
86.99999999999441
  0
ARC
  5
725E
330
1E
100
AcDbEntity
  8
躯体と製品
  6
DASHED1
 62
     7
100
AcDbCircle
 10
1585.081901373484
 20
765.2527381249297
 30
0.0
 40
1.0
100
AcDbArc
 50
217.6268473622817
 51
316.3731512671342
  0
LINE
  5
725F
330
1E
100
AcDbEntity
  8
躯体と製品
  6
DASHED1
 62
     7
100
AcDbLine
 10
1588.454705322196
 20
766.1823582215197
 30
0.0
 11
1586.384828915392
 21
764.0108122734646
 31
0.0
  0
ARC
  5
7260
330
1E
100
AcDbEntity
  8
躯体と製品
  6
DASHED1
 62
     7
100
AcDbCircle
 10
1585.081901373484
 20
765.2527381249297
 30
0.0
 40
1.8
100
AcDbArc
 50
217.6268473622817
 51
316.3731518762783
  0
LINE
  5
7261
330
1E
100
AcDbEntity
  8
躯体と製品
  6
DASHED1
 62
     4
100
AcDbLine
 10
1595.346514767512
 20
761.1098520861571
 30
0.0
 11
1595.440719488749
 21
762.9073852487155
 31
0.0
  0
LINE
  5
7262
330
1E
100
AcDbEntity
  8
躯体と製品
  6
DASHED1
 62
     7
100
AcDbLine
 10
1588.454705322196
 20
766.1823582215197
 30
0.0
 11
1587.875626407324
 21
766.7343252588966
 31
0.0
  0
LINE
  5
7263
330
1E
100
AcDbEntity
  8
躯体と製品
  6
DASHED1
 62
     7
100
AcDbLine
 10
1587.875626407324
 20
766.7343252588966
 30
0.0
 11
1585.805750000542
 21
764.5627793108647
 31
0.0
  0
LINE
  5
7264
330
1E
100
AcDbEntity
  8
躯体と製品
  6
DASHED1
 62
     7
100
AcDbLine
 10
1605.201970224451
 20
758.0899186868414
 30
0.0
 11
1605.149634268207
 21
757.091289152087
 31
0.0
  0
LINE
  5
7265
330
1E
100
AcDbEntity
  8
躯体と製品
  6
DASHED1
 62
     7
100
AcDbLine
 10
1601.654430896567
 20
757.274464998937
 30
0.0
 11
1605.149634268207
 21
757.091289152087
 31
0.0
  0
ARC
  5
7266
330
1E
100
AcDbEntity
  8
躯体と製品
  6
DASHED1
 62
     7
100
AcDbCircle
 10
1601.732934830931
 20
758.7724093010688
 30
0.0
 40
1.5
100
AcDbArc
 50
86.99999999999441
 51
266.9999999999944
  0
CIRCLE
  5
7267
330
1E
100
AcDbEntity
  8
図枠
  6
Continuous
 62
     4
100
AcDbCircle
 10
1609.482811732019
 20
768.6594435071009
 30
0.0
 40
0.9
  0
TEXT
  5
7268
330
1E
100
AcDbEntity
  8
図枠
 62
     7
100
AcDbText
 10
1601.844216832888
 20
793.986209477061
 30
0.0
 40
5.0
  1
３
100
AcDbText
  0
TEXT
  5
7269
330
1E
100
AcDbEntity
  8
図枠
 62
     7
100
AcDbText
 10
1579.139448569724
 20
803.5952995465461
 30
0.0
 40
5.0
  1
14
100
AcDbText
  0
CIRCLE
  5
726A
330
1E
100
AcDbEntity
  8
図枠
  6
Continuous
 62
     4
100
AcDbCircle
 10
1582.389448569724
 20
806.5952995465464
 30
0.0
 40
6.0
  0
TEXT
  5
726C
330
1E
100
AcDbEntity
  8
図枠
 62
     7
100
AcDbText
 10
1595.400389794025
 20
807.1169927687304
 30
0.0
 40
5.0
  1
７
100
AcDbText
  0
CIRCLE
  5
726D
330
1E
100
AcDbEntity
  8
図枠
  6
Continuous
 62
     4
100
AcDbCircle
 10
1598.400389794025
 20
810.1169927687305
 30
0.0
 40
6.0
  0
LINE
  5
726E
330
1E
100
AcDbEntity
  8
図枠
  6
Continuous
 62
     4
100
AcDbLine
 10
1644.263053703506
 20
765.8942038128437
 30
0.0
 11
1667.899534846908
 21
806.8337900653595
 31
0.0
  0
LINE
  5
726F
330
1E
100
AcDbEntity
  8
図枠
  6
Continuous
 62
     4
100
AcDbLine
 10
1643.718826965137
 20
783.3291933662438
 30
0.0
 11
1668.85530810854
 21
826.8668558301133
 31
0.0
  0
TEXT
  5
7270
330
1E
100
AcDbEntity
  8
図枠
 62
     7
100
AcDbText
 10
1623.408126843629
 20
794.9749492145229
 30
0.0
 40
5.0
  1
６
100
AcDbText
  0
CIRCLE
  5
7271
330
1E
100
AcDbEntity
  8
図枠
  6
Continuous
 62
     4
100
AcDbCircle
 10
1626.408126843629
 20
797.9749492145226
 30
0.0
 40
6.0
  0
ARC
  5
7272
330
1E
100
AcDbEntity
  8
躯体と製品
  6
Continuous
 62
     3
100
AcDbCircle
 10
1643.794619014115
 20
755.0659913211268
 30
0.0
 40
3.0
100
AcDbArc
 50
11.99999999999979
 51
86.99999999999441
  0
LINE
  5
7273
330
1E
100
AcDbEntity
  8
躯体と製品
  6
Continuous
 62
     3
100
AcDbLine
 10
1629.984532746464
 20
753.286316409127
 30
0.0
 11
1631.449939521267
 21
781.2479433822549
 31
0.0
  0
ARC
  5
7274
330
1E
100
AcDbEntity
  8
躯体と製品
  6
DASHED1
 62
     7
100
AcDbCircle
 10
1637.17265062753
 20
775.1513971943048
 30
0.0
 40
3.0
100
AcDbArc
 50
10.12467165539644
 51
86.99999999999441
  0
ARC
  5
7275
330
1E
100
AcDbEntity
  8
躯体と製品
  6
Continuous
 62
     3
100
AcDbCircle
 10
1630.536183470085
 20
754.2587779657599
 30
0.0
 40
0.5
100
AcDbArc
 50
177.0000000000011
 51
266.9999999999944
  0
LINE
  5
7276
330
1E
100
AcDbEntity
  8
躯体と製品
  6
DASHED1
 62
     7
100
AcDbLine
 10
1625.122224963299
 20
756.0445700272278
 30
0.0
 11
1630.115372637072
 21
755.782890246013
 31
0.0
  0
LINE
  5
7277
330
1E
100
AcDbEntity
  8
躯体と製品
  6
DASHED1
 62
     7
100
AcDbLine
 10
1625.174560919542
 20
757.0431995619824
 30
0.0
 11
1625.122224963299
 21
756.0445700272278
 31
0.0
  0
LINE
  5
7278
330
1E
100
AcDbEntity
  8
躯体と製品
  6
Continuous
 62
     3
100
AcDbLine
 10
1632.112631706581
 20
755.6782183335273
 30
0.0
 11
1639.787710112886
 21
755.2759845184298
 31
0.0
  0
LINE
  5
7279
330
1E
100
AcDbEntity
  8
躯体と製品
  6
Continuous
 62
     3
100
AcDbLine
 10
1632.26963957531
 20
758.6741069377908
 30
0.0
 11
1643.951626882844
 21
758.0618799253905
 31
0.0
  0
ARC
  5
727A
330
1E
100
AcDbEntity
  8
躯体と製品
  6
Continuous
 62
     3
100
AcDbCircle
 10
1632.08646372846
 20
755.17890356615
 30
0.0
 40
0.5
100
AcDbArc
 50
86.99999999999441
 51
177.0000000000011
  0
LINE
  5
727B
330
1E
100
AcDbEntity
  8
躯体と製品
  6
Continuous
 62
     3
100
AcDbLine
 10
1631.587148961083
 20
755.2050715442715
 30
0.0
 11
1631.534813004839
 21
754.206442009517
 31
0.0
  0
ARC
  5
727C
330
1E
100
AcDbEntity
  8
躯体と製品
  6
Continuous
 62
     3
100
AcDbCircle
 10
1632.295807553431
 20
759.1734217051683
 30
0.0
 40
0.5
100
AcDbArc
 50
177.0000000000011
 51
266.9999999999944
  0
LINE
  5
727D
330
1E
100
AcDbEntity
  8
躯体と製品
  6
Continuous
 62
     3
100
AcDbLine
 10
1631.796492786054
 20
759.1995896832898
 30
0.0
 11
1631.90116469854
 21
761.1968487527989
 31
0.0
  0
ARC
  5
727E
330
1E
100
AcDbEntity
  8
躯体と製品
  6
Continuous
 62
     3
100
AcDbCircle
 10
1631.401849931163
 20
761.2230167309203
 30
0.0
 40
0.5
100
AcDbArc
 50
357.0000000000011
 51
86.99999999999441
  0
LINE
  5
727F
330
1E
100
AcDbEntity
  8
躯体と製品
  6
Continuous
 62
     3
100
AcDbLine
 10
1631.428017909284
 20
761.7223314982977
 30
0.0
 11
1630.928703141907
 21
761.7484994764192
 31
0.0
  0
ARC
  5
7280
330
1E
100
AcDbEntity
  8
躯体と製品
  6
Continuous
 62
     3
100
AcDbCircle
 10
1630.902535163786
 20
761.2491847090418
 30
0.0
 40
0.5
100
AcDbArc
 50
86.99999999999441
 51
177.0000000000011
  0
ARC
  5
7281
330
1E
100
AcDbEntity
  8
躯体と製品
  6
Continuous
 62
     3
100
AcDbCircle
 10
1631.035498237462
 20
754.2326099876383
 30
0.0
 40
0.5
100
AcDbArc
 50
266.9999999999944
 51
357.0000000000011
  0
LINE
  5
7282
330
1E
100
AcDbEntity
  8
躯体と製品
  6
Continuous
 62
     3
100
AcDbLine
 10
1631.009330259341
 20
753.733295220261
 30
0.0
 11
1630.510015491963
 21
753.7594631983824
 31
0.0
  0
ARC
  5
7283
330
1E
100
AcDbEntity
  8
躯体と製品
  6
Continuous
 62
     3
100
AcDbCircle
 10
1642.667537641615
 20
754.1914035503898
 30
0.0
 40
0.75
100
AcDbArc
 50
0.0
 51
180.0
  0
LINE
  5
7284
330
1E
100
AcDbEntity
  8
躯体と製品
  6
Continuous
 62
     3
100
AcDbLine
 10
1643.028343621105
 20
755.1061501127938
 30
0.0
 11
1641.850997189038
 21
755.167852224745
 31
0.0
  0
ARC
  5
7285
330
1E
100
AcDbEntity
  8
躯体と製品
  6
Continuous
 62
     3
100
AcDbCircle
 10
1642.976007664862
 20
754.107520578039
 30
0.0
 40
1.0
100
AcDbArc
 50
11.99999999999979
 51
86.99999999999441
  0
ARC
  5
7286
330
1E
100
AcDbEntity
  8
躯体と製品
  6
Continuous
 62
     3
100
AcDbCircle
 10
1641.835296402166
 20
754.8682633643186
 30
0.0
 40
0.2999999999999999
100
AcDbArc
 50
86.99999999999441
 51
166.9999999999997
  0
ARC
  5
7287
330
1E
100
AcDbEntity
  8
躯体と製品
  6
Continuous
 62
     3
100
AcDbCircle
 10
1639.761542134765
 20
754.7766697510521
 30
0.0
 40
0.5
100
AcDbArc
 50
346.9999999999997
 51
86.99999999999441
  0
CIRCLE
  5
7288
330
1E
100
AcDbEntity
  8
図枠
  6
Continuous
 62
     4
100
AcDbCircle
 10
1644.263053703506
 20
765.8942038128437
 30
0.0
 40
0.9
  0
LINE
  5
7289
330
1E
100
AcDbEntity
  8
躯体と製品
  6
Continuous
 62
     7
100
AcDbLine
 10
1631.423771543145
 20
780.7486286148774
 30
0.0
 11
1616.444328521827
 21
781.5336679585217
 31
0.0
  0
LINE
  5
728A
330
1E
100
AcDbEntity
  8
躯体と製品
  6
Continuous
 62
     4
100
AcDbLine
 10
1630.206809112692
 20
776.8069175293374
 30
0.0
 11
1625.979791101759
 21
781.0339355402709
 31
0.0
  0
LINE
  5
728B
330
1E
100
AcDbEntity
  8
躯体と製品
  6
Continuous
 62
     4
100
AcDbLine
 10
1631.237305009312
 20
777.190635195092
 30
0.0
 11
1627.472219523452
 21
780.9557206809508
 31
0.0
  0
LINE
  5
728C
330
1E
100
AcDbEntity
  8
躯体と製品
  6
Continuous
 62
     4
100
AcDbLine
 10
1631.307729984967
 20
778.5344237818101
 30
0.0
 11
1628.964647945145
 21
780.8775058216313
 31
0.0
  0
LINE
  5
728D
330
1E
100
AcDbEntity
  8
躯体と製品
  6
Continuous
 62
     4
100
AcDbLine
 10
1630.442320915786
 20
781.3007504357329
 30
0.0
 11
1628.633883752493
 21
783.1091875990255
 31
0.0
  0
LINE
  5
728E
330
1E
100
AcDbEntity
  8
躯体と製品
  6
Continuous
 62
     4
100
AcDbLine
 10
1631.472816812405
 20
781.6844681014875
 30
0.0
 11
1630.126312174187
 21
783.0309727397055
 31
0.0
  0
LINE
  5
728F
330
1E
100
AcDbEntity
  8
躯体と製品
  6
Continuous
 62
     4
100
AcDbLine
 10
1622.744667004229
 20
777.197991825936
 30
0.0
 11
1618.517648993295
 21
781.4250098368701
 31
0.0
  0
LINE
  5
7290
330
1E
100
AcDbEntity
  8
躯体と製品
  6
Continuous
 62
     4
100
AcDbLine
 10
1624.237095425922
 20
777.1197769666163
 30
0.0
 11
1620.010077414988
 21
781.3467949775501
 31
0.0
  0
LINE
  5
7291
330
1E
100
AcDbEntity
  8
躯体と製品
  6
Continuous
 62
     4
100
AcDbLine
 10
1625.729523847615
 20
777.0415621072966
 30
0.0
 11
1621.502505836681
 21
781.2685801182303
 31
0.0
  0
LINE
  5
7292
330
1E
100
AcDbEntity
  8
躯体と製品
  6
Continuous
 62
     4
100
AcDbLine
 10
1622.980178807322
 20
781.6918247323313
 30
0.0
 11
1621.17174164403
 21
783.5002618956243
 31
0.0
  0
LINE
  5
7293
330
1E
100
AcDbEntity
  8
躯体と製品
  6
Continuous
 62
     4
100
AcDbLine
 10
1617.010465120551
 20
782.0046841696109
 30
0.0
 11
1616.495976634478
 21
782.5191726556838
 31
0.0
  0
LINE
  5
7294
330
1E
100
AcDbEntity
  8
躯体と製品
  6
Continuous
 62
     4
100
AcDbLine
 10
1616.774953317458
 20
777.5108512632153
 30
0.0
 11
1616.260464831385
 21
778.0253397492884
 31
0.0
  0
LINE
  5
7295
330
1E
100
AcDbEntity
  8
躯体と製品
  6
Continuous
 62
     7
100
AcDbLine
 10
1616.234984696856
 20
777.5391498195033
 30
0.0
 11
1616.444328521827
 21
781.5336679585217
 31
0.0
  0
LINE
  5
7296
330
1E
100
AcDbEntity
  8
躯体と製品
  6
Continuous
 62
     4
100
AcDbLine
 10
1618.267381739149
 20
777.4326364038961
 30
0.0
 11
1616.330889807041
 21
779.3691283360042
 31
0.0
  0
LINE
  5
7297
330
1E
100
AcDbEntity
  8
躯体と製品
  6
Continuous
 62
     4
100
AcDbLine
 10
1619.759810160843
 20
777.3544215445759
 30
0.0
 11
1616.401314782697
 21
780.7129169227217
 31
0.0
  0
LINE
  5
7298
330
1E
100
AcDbEntity
  8
躯体と製品
  6
Continuous
 62
     4
100
AcDbLine
 10
1621.252238582536
 20
777.2762066852553
 30
0.0
 11
1617.025220571602
 21
781.5032246961898
 31
0.0
  0
LINE
  5
7299
330
1E
100
AcDbEntity
  8
躯体と製品
  6
Continuous
 62
     7
100
AcDbLine
 10
1616.470496499949
 20
782.0329827258989
 30
0.0
 11
1616.560059674746
 21
783.741949906394
 31
0.0
  0
LINE
  5
729A
330
1E
100
AcDbEntity
  8
躯体と製品
  6
Continuous
 62
     4
100
AcDbLine
 10
1618.502893542243
 20
781.9264693102916
 30
0.0
 11
1616.69445637895
 21
783.7349064735839
 31
0.0
  0
LINE
  5
729B
330
1E
100
AcDbEntity
  8
躯体と製品
  6
Continuous
 62
     4
100
AcDbLine
 10
1619.995321963936
 20
781.8482544509714
 30
0.0
 11
1618.186884800643
 21
783.6566916142642
 31
0.0
  0
LINE
  5
729C
330
1E
100
AcDbEntity
  8
躯体と製品
  6
Continuous
 62
     4
100
AcDbLine
 10
1621.48775038563
 20
781.7700395916508
 30
0.0
 11
1619.679313222337
 21
783.5784767549443
 31
0.0
  0
LINE
  5
729D
330
1E
100
AcDbEntity
  8
躯体と製品
  6
Continuous
 62
     4
100
AcDbLine
 10
1627.221952269308
 20
776.9633472479766
 30
0.0
 11
1622.994934258374
 21
781.1903652589103
 31
0.0
  0
LINE
  5
729E
330
1E
100
AcDbEntity
  8
躯体と製品
  6
Continuous
 62
     4
100
AcDbLine
 10
1628.714380691002
 20
776.8851323886569
 30
0.0
 11
1624.487362680068
 21
781.1121503995907
 31
0.0
  0
LINE
  5
729F
330
1E
100
AcDbEntity
  8
躯体と製品
  6
Continuous
 62
     4
100
AcDbLine
 10
1624.472607229015
 20
781.6136098730116
 30
0.0
 11
1622.664170065722
 21
783.4220470363043
 31
0.0
  0
LINE
  5
72A0
330
1E
100
AcDbEntity
  8
躯体と製品
  6
Continuous
 62
     4
100
AcDbLine
 10
1625.965035650709
 20
781.5353950136922
 30
0.0
 11
1624.156598487416
 21
783.3438321769847
 31
0.0
  0
LINE
  5
72A1
330
1E
100
AcDbEntity
  8
躯体と製品
  6
Continuous
 62
     4
100
AcDbLine
 10
1627.457464072402
 20
781.4571801543721
 30
0.0
 11
1625.649026909109
 21
783.2656173176649
 31
0.0
  0
LINE
  5
72A2
330
1E
100
AcDbEntity
  8
躯体と製品
  6
Continuous
 62
     4
100
AcDbLine
 10
1628.949892494095
 20
781.3789652950523
 30
0.0
 11
1627.141455330803
 21
783.187402458345
 31
0.0
  0
ARC
  5
72A3
330
1E
100
AcDbEntity
  8
躯体と製品
  6
DASHED1
 62
     7
100
AcDbCircle
 10
1637.17265062753
 20
775.1513971943048
 30
0.0
 40
7.5
100
AcDbArc
 50
10.12467165539644
 51
86.99999999999441
  0
LINE
  5
72A4
330
1E
100
AcDbEntity
  8
躯体と製品
  6
DASHED1
 62
     7
100
AcDbLine
 10
1631.303990892971
 20
778.4630776563544
 30
0.0
 11
1637.329658496259
 21
778.1472857985684
 31
0.0
  0
LINE
  5
72A5
330
1E
100
AcDbEntity
  8
躯体と製品
  6
DASHED1
 62
     7
100
AcDbLine
 10
1631.539502696065
 20
782.9569105627501
 30
0.0
 11
1637.565170299353
 21
782.6411187049641
 31
0.0
  0
LINE
  5
72A6
330
1E
100
AcDbEntity
  8
躯体と製品
  6
Continuous
 62
     4
100
AcDbLine
 10
1631.378154960622
 20
779.8782123685273
 30
0.0
 11
1630.457076366838
 21
780.7992909623115
 31
0.0
  0
LINE
  5
72A7
330
1E
100
AcDbEntity
  8
躯体と製品
  6
Continuous
 62
     7
100
AcDbLine
 10
1631.449939521267
 20
781.2479433822549
 30
0.0
 11
1631.539502696065
 21
782.9569105627499
 31
0.0
  0
CIRCLE
  5
72A8
330
1E
100
AcDbEntity
  8
図枠
  6
Continuous
 62
     4
100
AcDbCircle
 10
1643.718826965137
 20
783.3291933662438
 30
0.0
 40
0.9
  0
CIRCLE
  5
72A9
330
1E
100
AcDbEntity
  8
図枠
  6
Continuous
 62
     4
100
AcDbCircle
 10
1670.646401805847
 20
766.7547670544737
 30
0.0
 40
6.0
  0
TEXT
  5
72AA
330
1E
100
AcDbEntity
  8
図枠
 62
     7
100
AcDbText
 10
1667.646401805847
 20
763.7547670544737
 30
0.0
 40
5.0
  1
５
100
AcDbText
  0
ARC
  5
72AB
330
1E
100
AcDbEntity
  8
躯体と製品
  6
Continuous
 62
     3
100
AcDbCircle
 10
1657.509470993259
 20
780.5945098502452
 30
0.0
 40
3.0
100
AcDbArc
 50
0.0
 51
86.99999999999441
  0
ARC
  5
72AC
330
1E
100
AcDbEntity
  8
躯体と製品
  6
Continuous
 62
     3
100
AcDbCircle
 10
1657.509470993259
 20
780.5945098502452
 30
0.0
 40
1.0
100
AcDbArc
 50
0.0
 51
86.99999999999441
  0
POINT
  5
72AD
330
1E
100
AcDbEntity
  8
躯体と製品
 62
     4
100
AcDbPoint
 10
1660.509470993259
 20
783.4414035503898
 30
0.0
  0
TEXT
  5
72AE
330
1E
100
AcDbEntity
  8
図枠
 62
     7
100
AcDbText
 10
1667.899534846908
 20
809.0299424880665
 30
0.0
 40
5.0
  1
９
100
AcDbText
  0
CIRCLE
  5
72AF
330
1E
100
AcDbEntity
  8
図枠
  6
Continuous
 62
     4
100
AcDbCircle
 10
1670.899534846908
 20
812.0299424880666
 30
0.0
 40
6.0
  0
CIRCLE
  5
72B2
330
1E
100
AcDbEntity
  8
図枠
  6
Continuous
 62
     4
100
AcDbCircle
 10
1671.85530810854
 20
832.0630082528198
 30
0.0
 40
6.0
  0
TEXT
  5
72B3
330
1E
100
AcDbEntity
  8
図枠
 62
     7
100
AcDbText
 10
1668.85530810854
 20
829.0630082528197
 30
0.0
 40
5.0
  1
１
100
AcDbText
  0
DIMENSION
  5
7DDE
330
1E
100
AcDbEntity
  8
寸法
  6
Continuous
100
AcDbDimension
  2
*D4
 10
1379.509470993259
 20
791.332899280306
 30
0.0
 11
1376.009470993259
 21
763.1970743436514
 31
0.0
 70
    32
  1
D
 71
     5
 42
56.27164987330957
  3
AutoCAD
100
AcDbAlignedDimension
 13
1432.509470993259
 23
735.0612494069964
 33
0.0
 14
1379.509470993259
 24
791.332899280306
 34
0.0
 50
90.0
100
AcDbRotatedDimension
  0
DIMENSION
  5
7DEA
330
1E
100
AcDbEntity
  8
寸法
  6
Continuous
100
AcDbDimension
  2
*D5
 10
1359.509470993259
 20
850.332899280306
 30
0.0
 11
1356.009470993259
 21
792.6970743436514
 31
0.0
 70
    32
  1
E
 71
     5
 42
115.2716498733096
  3
AutoCAD
100
AcDbAlignedDimension
 13
1432.509470993259
 23
735.0612494069964
 33
0.0
 14
1432.509470993259
 24
850.332899280306
 34
0.0
 50
90.0
100
AcDbRotatedDimension
  0
DIMENSION
  5
7DF7
330
1E
100
AcDbEntity
  8
寸法
  6
Continuous
100
AcDbDimension
  2
*D6
 10
1459.509470993259
 20
630.0612494069964
 30
0.0
 11
1447.009470993259
 21
633.5612494069964
 31
0.0
 70
    32
 71
     5
 42
24.99999999999955
  3
AutoCAD
100
AcDbAlignedDimension
 13
1434.509470993259
 23
733.0612494069964
 33
0.0
 14
1459.509470993259
 24
630.0612494069964
 34
0.0
100
AcDbRotatedDimension
  0
DIMENSION
  5
7E03
330
1E
100
AcDbEntity
  8
寸法
  6
Continuous
100
AcDbDimension
  2
*D7
 10
1509.50947099326
 20
630.0612494069964
 30
0.0
 11
1484.509470993259
 21
633.5612494069964
 31
0.0
 70
    32
 71
     5
 42
50.00000000000113
  3
AutoCAD
100
AcDbAlignedDimension
 13
1459.509470993259
 23
629.8112494069965
 33
0.0
 14
1509.50947099326
 24
630.0612494069964
 34
0.0
100
AcDbRotatedDimension
  0
DIMENSION
  5
7E0F
330
1E
100
AcDbEntity
  8
寸法
  6
Continuous
100
AcDbDimension
  2
*D8
 10
1609.509470993259
 20
630.0612494069964
 30
0.0
 11
1559.509470993259
 21
633.5612494069964
 31
0.0
 70
    32
  1
≦Ｃ
 71
     5
 42
99.99999999999932
  3
AutoCAD
100
AcDbAlignedDimension
 13
1509.509470993259
 23
629.8112494069965
 33
0.0
 14
1609.509470993259
 24
630.0612494069964
 34
0.0
100
AcDbRotatedDimension
  0
DIMENSION
  5
7E27
330
1E
100
AcDbEntity
  8
寸法
  6
Continuous
100
AcDbDimension
  2
*D9
 10
1700.509470993259
 20
735.0612494069964
 30
0.0
 11
1697.009470993259
 21
714.2513264786933
 31
0.0
 70
    32
  1
44
 71
     5
 42
41.61984585660661
  3
AutoCAD
100
AcDbAlignedDimension
 13
1662.509470993259
 23
693.4414035503898
 33
0.0
 14
1613.509470993261
 24
735.0612494069964
 34
0.0
 50
90.0
100
AcDbRotatedDimension
  0
DIMENSION
  5
7E34
330
1E
100
AcDbEntity
  8
寸法
  6
Continuous
100
AcDbDimension
  2
*D10
 10
1720.509470993259
 20
783.4414035503898
 30
0.0
 11
1717.009470993259
 21
738.44140355039
 31
0.0
 70
    32
 71
     5
 42
90.0
  3
AutoCAD
100
AcDbAlignedDimension
 13
1662.509470993259
 23
693.4414035503898
 33
0.0
 14
1662.509470993259
 24
783.4414035503898
 34
0.0
 50
90.0
100
AcDbRotatedDimension
  0
DIMENSION
  5
7E41
330
1E
100
AcDbEntity
  8
寸法
  6
Continuous
100
AcDbDimension
  2
*D11
 10
1504.009470993259
 20
835.3328992803058
 30
0.0
 11
1500.509470993259
 21
817.332899280306
 31
0.0
 70
    32
 71
     5
 42
35.99999999999977
  3
AutoCAD
100
AcDbAlignedDimension
 13
1471.009470993259
 23
799.332899280306
 33
0.0
 14
1471.009470993259
 24
835.3328992803058
 34
0.0
 50
90.0
100
AcDbRotatedDimension
  0
DIMENSION
  5
7E4E
330
1E
100
AcDbEntity
  8
寸法
  6
Continuous
100
AcDbDimension
  2
*D12
 10
1504.009470993259
 20
850.332899280306
 30
0.0
 11
1500.509470993259
 21
842.8328992803061
 31
0.0
 70
    32
 71
     5
 42
15.00000000000023
  3
AutoCAD
100
AcDbAlignedDimension
 13
1471.009470993259
 23
835.3328992803058
 33
0.0
 14
1461.509470993259
 24
850.332899280306
 34
0.0
 50
90.0
100
AcDbRotatedDimension
  0
DIMENSION
  5
7E5B
330
1E
100
AcDbEntity
  8
寸法
  6
Continuous
100
AcDbDimension
  2
*D13
 10
1469.009470993259
 20
885.3328992803058
 30
0.0
 11
1459.009470993259
 21
888.8328992803058
 31
0.0
 70
    32
 71
     5
 42
20.0
  3
AutoCAD
100
AcDbAlignedDimension
 13
1449.009470993259
 23
852.332899280306
 33
0.0
 14
1469.009470993259
 24
838.6045491536156
 34
0.0
100
AcDbRotatedDimension
  0
DIMENSION
  5
7E68
330
1E
100
AcDbEntity
  8
寸法
  6
Continuous
100
AcDbDimension
  2
*D14
 10
1469.009470993259
 20
900.332899280306
 30
0.0
 11
1452.259470993259
 21
903.8328992803061
 31
0.0
 70
    32
  1
33.5
 71
     5
 42
33.50000000000023
  3
AutoCAD
100
AcDbAlignedDimension
 13
1435.509470993259
 23
837.332899280306
 33
0.0
 14
1469.009470993259
 24
838.6045491536156
 34
0.0
100
AcDbRotatedDimension
  0
DIMENSION
  5
7E75
330
1E
100
AcDbEntity
  8
寸法
  6
Continuous
100
AcDbDimension
  2
*D15
 10
1660.509470993259
 20
915.3328992803061
 30
0.0
 11
1548.009470993259
 21
918.8328992803061
 31
0.0
 70
    32
  1
W
 71
     5
 42
225.0000000000004
  3
AutoCAD
100
AcDbAlignedDimension
 13
1435.509470993259
 23
837.332899280306
 33
0.0
 14
1660.509470993259
 24
785.4414035503897
 34
0.0
100
AcDbRotatedDimension
  0
DIMENSION
  5
7E82
330
1E
100
AcDbEntity
  8
寸法
  6
Continuous
100
AcDbDimension
  2
*D16
 10
1660.509470993259
 20
828.332899280306
 30
0.0
 11
1555.50947099326
 21
831.832899280306
 31
0.0
 70
    32
  1
A
 71
     5
 42
210.0000000000002
  3
AutoCAD
100
AcDbAlignedDimension
 13
1450.509470993259
 23
808.4470371998284
 33
0.0
 14
1660.509470993259
 24
785.4414035503897
 34
0.0
100
AcDbRotatedDimension
  0
DIMENSION
  5
7E8F
330
1E
100
AcDbEntity
  8
寸法
  6
Continuous
100
AcDbDimension
  2
*D17
 10
1609.509470993259
 20
675.0612494069964
 30
0.0
 11
1584.509470993259
 21
678.5612494069964
 31
0.0
 70
    32
 71
     5
 42
50.0
  3
AutoCAD
100
AcDbAlignedDimension
 13
1559.509470993259
 23
675.0612494069964
 33
0.0
 14
1609.509470993259
 24
675.0612494069964
 34
0.0
100
AcDbRotatedDimension
  0
DIMENSION
  5
7F40
330
1E
100
AcDbEntity
  8
寸法
  6
Continuous
100
AcDbDimension
  2
*D19
 10
1660.509470993259
 20
630.0612494069964
 30
0.0
 11
1635.009470993259
 21
633.5612494069964
 31
0.0
 70
    32
  1
50≦
 71
     5
 42
51.00000000000022
  3
AutoCAD
100
AcDbAlignedDimension
 13
1609.509470993259
 23
629.8112494069965
 33
0.0
 14
1660.509470993259
 24
693.4414035503898
 34
0.0
100
AcDbRotatedDimension
  0
ENDSEC
  0
SECTION
  2
OBJECTS
  0
DICTIONARY
  5
C
330
0
100
AcDbDictionary
281
     1
  3
ACAD_COLOR
350
6779
  3
ACAD_GROUP
350
D
  3
ACAD_LAYOUT
350
19
  3
ACAD_MATERIAL
350
6778
  3
ACAD_MLINESTYLE
350
16
  3
ACAD_PLOTSETTINGS
350
18
  3
ACAD_PLOTSTYLENAME
350
E
  3
ACAD_TABLESTYLE
350
677A
  3
ACDBHEADERROUNDTRIPXREC
350
7F5E
  3
AcDbVariableDictionary
350
169
  0
DICTIONARY
  5
175
330
2
100
AcDbDictionary
280
     1
281
     1
  3
ACAD_LAYERFILTERS
360
185
  3
ACAD_LAYERSTATES
360
176
  0
DICTIONARY
  5
28B
330
1E
100
AcDbDictionary
280
     1
281
     1
  3
ACAD_LAYOUTSELFREF
360
6771
  0
DICTIONARY
  5
28D
330
1A
100
AcDbDictionary
280
     1
281
     1
  3
ACAD_LAYOUTSELFREF
360
6770
  0
DICTIONARY
  5
6779
102
{ACAD_REACTORS
330
C
102
}
330
C
100
AcDbDictionary
281
     1
  0
DICTIONARY
  5
D
102
{ACAD_REACTORS
330
C
102
}
330
C
100
AcDbDictionary
281
     1
  0
DICTIONARY
  5
19
102
{ACAD_REACTORS
330
C
102
}
330
C
100
AcDbDictionary
281
     1
  3
Model
350
21
  3
ﾚｲｱｳﾄ1
350
1D
  0
DICTIONARY
  5
6778
102
{ACAD_REACTORS
330
C
102
}
330
C
100
AcDbDictionary
281
     1
  0
DICTIONARY
  5
16
102
{ACAD_REACTORS
330
C
102
}
330
C
100
AcDbDictionary
281
     1
  3
Standard
350
17
  0
DICTIONARY
  5
18
102
{ACAD_REACTORS
330
C
102
}
330
C
100
AcDbDictionary
281
     1
  0
ACDBDICTIONARYWDFLT
  5
E
102
{ACAD_REACTORS
330
C
102
}
330
C
100
AcDbDictionary
281
     1
  3
Normal
350
F
100
AcDbDictionaryWithDefault
340
F
1001
ACAD
1000
TREAT_AS_HARD
1070
     0
1000
TREAT_AS_HARD
1070
     0
1000
TREAT_AS_HARD
1070
     0
1000
TREAT_AS_HARD
1070
     0
1000
TREAT_AS_HARD
1070
     0
1000
TREAT_AS_HARD
1070
     0
1000
TREAT_AS_HARD
1070
     0
1000
TREAT_AS_HARD
1070
     0
1000
TREAT_AS_HARD
1070
     0
1000
TREAT_AS_HARD
1070
     0
1000
TREAT_AS_HARD
1070
     0
1000
TREAT_AS_HARD
1070
     0
1000
TREAT_AS_HARD
1070
     0
1000
TREAT_AS_HARD
1070
     0
1000
TREAT_AS_HARD
1070
     0
1000
TREAT_AS_HARD
1070
     0
1000
TREAT_AS_HARD
1070
     0
1000
TREAT_AS_HARD
1070
     0
1000
TREAT_AS_HARD
1070
     0
1000
TREAT_AS_HARD
1070
     0
1000
TREAT_AS_HARD
1070
     0
1000
TREAT_AS_HARD
1070
     0
1000
TREAT_AS_HARD
1070
     0
1000
TREAT_AS_HARD
1070
     0
1000
TREAT_AS_HARD
1070
     0
1000
TREAT_AS_HARD
1070
     0
  0
DICTIONARY
  5
677A
102
{ACAD_REACTORS
330
C
102
}
330
C
100
AcDbDictionary
281
     1
  3
Standard
350
677B
  0
DICTIONARY
  5
7F5E
102
{ACAD_REACTORS
330
C
102
}
330
C
100
AcDbDictionary
281
     1
  0
DICTIONARY
  5
169
102
{ACAD_REACTORS
330
C
102
}
330
C
100
AcDbDictionary
281
     1
  3
CTABLESTYLE
350
6782
  3
DIMASSOC
350
16A
  3
PROJECTNAME
350
6790
  0
DICTIONARY
  5
185
102
{ACAD_REACTORS
330
175
102
}
330
175
100
AcDbDictionary
280
     1
281
     1
  0
DICTIONARY
  5
176
102
{ACAD_REACTORS
330
175
102
}
330
175
100
AcDbDictionary
281
     1
  3
ACAD
350
177
  0
XRECORD
  5
6771
102
{ACAD_REACTORS
330
28B
102
}
330
28B
100
AcDbXrecord
280
     1
340
1E
  0
XRECORD
  5
6770
102
{ACAD_REACTORS
330
28D
102
}
330
28D
100
AcDbXrecord
280
     1
340
1A
  0
LAYOUT
  5
21
102
{ACAD_XDICTIONARY
360
7F61
102
}
102
{ACAD_REACTORS
330
19
102
}
330
19
100
AcDbPlotSettings
  1

  2
\\MEISEI-1\EPSON Stylus Photo EX3
  4

  6

 40
0.0
 41
0.0
 42
0.0
 43
0.0
 44
0.0
 45
0.0
 46
0.0
 47
0.0
 48
0.0
 49
0.0
140
0.0
141
0.0
142
1.0
143
1.0
 70
  1712
 72
     0
 73
     0
 74
     0
  7

 75
     0
147
1.0
148
0.0
149
0.0
100
AcDbLayout
  1
Model
 70
     1
 71
     0
 10
0.0
 20
0.0
 11
12.0
 21
9.0
 12
0.0
 22
0.0
 32
0.0
 14
0.0
 24
0.0
 34
0.0
 15
0.0
 25
0.0
 35
0.0
146
0.0
 13
0.0
 23
0.0
 33
0.0
 16
1.0
 26
0.0
 36
0.0
 17
0.0
 27
1.0
 37
0.0
 76
     0
330
1E
  0
LAYOUT
  5
1D
102
{ACAD_XDICTIONARY
360
7F5F
102
}
102
{ACAD_REACTORS
330
19
102
}
330
19
100
AcDbPlotSettings
  1

  2
\\MEISEI-1\EPSON Stylus Photo EX3
  4

  6

 40
0.0
 41
0.0
 42
0.0
 43
0.0
 44
0.0
 45
0.0
 46
0.0
 47
0.0
 48
0.0
 49
0.0
140
0.0
141
0.0
142
1.0
143
1.0
 70
   688
 72
     0
 73
     0
 74
     5
  7

 75
    16
147
1.0
148
0.0
149
0.0
100
AcDbLayout
  1
ﾚｲｱｳﾄ1
 70
     1
 71
     1
 10
0.0
 20
0.0
 11
12.0
 21
9.0
 12
0.0
 22
0.0
 32
0.0
 14
1.000000000000000E+20
 24
1.000000000000000E+20
 34
1.000000000000000E+20
 15
-1.000000000000000E+20
 25
-1.000000000000000E+20
 35
-1.000000000000000E+20
146
0.0
 13
0.0
 23
0.0
 33
0.0
 16
1.0
 26
0.0
 36
0.0
 17
0.0
 27
1.0
 37
0.0
 76
     0
330
1A
  0
MLINESTYLE
  5
17
102
{ACAD_REACTORS
330
16
102
}
330
16
100
AcDbMlineStyle
  2
STANDARD
 70
     0
  3

 62
   256
 51
90.0
 52
90.0
 71
     2
 49
0.5
 62
   256
  6
BYLAYER
 49
-0.5
 62
   256
  6
BYLAYER
  0
ACDBPLACEHOLDER
  5
F
102
{ACAD_REACTORS
330
E
102
}
330
E
  0
TABLESTYLE
  5
677B
102
{ACAD_REACTORS
330
677A
102
}
330
677A
100
AcDbTableStyle
  3
Standard
 70
     0
 71
     0
 40
0.06
 41
0.06
280
     0
281
     0
  7
STANDARD
140
0.18
170
     2
 62
     0
 63
     7
283
     0
274
    -2
284
     1
 64
     0
275
    -2
285
     1
 65
     0
276
    -2
286
     1
 66
     0
277
    -2
287
     1
 67
     0
278
    -2
288
     1
 68
     0
279
    -2
289
     1
 69
     0
  7
STANDARD
140
0.25
170
     5
 62
     0
 63
     7
283
     0
274
    -2
284
     1
 64
     0
275
    -2
285
     1
 65
     0
276
    -2
286
     1
 66
     0
277
    -2
287
     1
 67
     0
278
    -2
288
     1
 68
     0
279
    -2
289
     1
 69
     0
  7
STANDARD
140
0.18
170
     5
 62
     0
 63
     7
283
     0
274
    -2
284
     1
 64
     0
275
    -2
285
     1
 65
     0
276
    -2
286
     1
 66
     0
277
    -2
287
     1
 67
     0
278
    -2
288
     1
 68
     0
279
    -2
289
     1
 69
     0
  0
DICTIONARYVAR
  5
6782
102
{ACAD_REACTORS
330
169
102
}
330
169
100
DictionaryVariables
280
     0
  1
STANDARD
  0
DICTIONARYVAR
  5
16A
102
{ACAD_REACTORS
330
169
102
}
330
169
100
DictionaryVariables
280
     0
  1
1
  0
DICTIONARYVAR
  5
6790
102
{ACAD_REACTORS
330
169
102
}
330
169
100
DictionaryVariables
280
     0
  1

  0
XRECORD
  5
177
102
{ACAD_REACTORS
330
176
102
}
330
176
100
AcDbXrecord
280
     1
 91
      476
330
179
 90
        8
 62
     7
370
    -3
331
15
  1
Color_7
330
178
 90
        8
 62
     7
370
    -3
331
15
  1
Color_7
330
128
 90
        0
 62
     7
370
    -3
331
15
  1
Color_7
330
10
 90
        8
 62
     7
370
    -3
331
15
  1
Color_7
  0
DICTIONARY
  5
7F61
330
21
100
AcDbDictionary
280
     1
281
     1
  3
ACAD_XREC_ROUNDTRIP
360
7F62
  0
DICTIONARY
  5
7F5F
330
1D
100
AcDbDictionary
280
     1
281
     1
  3
ACAD_XREC_ROUNDTRIP
360
7F60
  0
XRECORD
  5
7F62
102
{ACAD_REACTORS
330
7F61
102
}
330
7F61
100
AcDbXrecord
280
     1
102
SHADEPLOT
 70
     0
102
SHADEPLOTRESLEVEL
 70
     2
102
SHADEPLOTCUSTOMDPI
 70
   300
  0
XRECORD
  5
7F60
102
{ACAD_REACTORS
330
7F5F
102
}
330
7F5F
100
AcDbXrecord
280
     1
102
SHADEPLOT
 70
     0
102
SHADEPLOTRESLEVEL
 70
     2
102
SHADEPLOTCUSTOMDPI
 70
   300
  0
ENDSEC
  0
EOF
